Окаёмовы дни (Родион Овчинников) [2013, драма, DVB, AVC] Государственный Академический театр имени Евг. Вахтангова

Ответить на тему
Статистика раздачи [Обновить пиров]
Размер:  787 MB   |    Зарегистрирован:  4 месяца 25 дней   |    Скачан:  0 раз

Полного источника не было: Никогда

 
   
 
 
 
Автор Сообщение

islamvillage.com

Создавать темы 23-Авг-2018 19:28

[Цитировать]

Окаёмовы дни
Название театра: Государственный Академический театр имени Евг. Вахтангова
Жанр: драма
Год выхода: 2013
Продолжительность: 01:38:33
Режиссёр: Родион Овчинников
В ролях: Владимир Этуш, Мария Риваль, Анна Дубровская, Кирилл Рубцов, Ирина Дымченко, Вера Новикова
Описание: История взаимоотношений профессора Окаемова и его внучки Маши, идущих трудным путем взаимопонимания, рассказана автором подробно и эмоционально.
Образ старика – ученого, погруженного в науку, самодостаточного, заинтересовал народного артиста СССР В.А. Этуша и он выбрал эту историю для юбилейного спектакля к своему 90-летию. Владимир Абрамович не сразу принял это решение. Поиски материала были долгими и отнюдь не из-за отсутствия добротных пьес, но актер не находил в них ответа на вопросы, которые его сегодня волнуют. А у Афиногенова он увидел очень важную нравственную проблему.
Доп. информация: запись потока *.ts со спутника Intelsat-15 / Horizons 2, 85.2° в.д., ремукс в *.mkv программой VideoReDo.
Качество видео: DVB
Формат файла: MKV
Видео: Advanced Video Codec, 720(1024)x576 (4:3), 25,000 кадров/сек, 934 Кбит/сек
Аудио: MPEG Audio, 48,0 КГц, 192 Кбит/сек, 2 канала

MediaInfo

General
Unique ID : 11100464039651178514031128575382881050 (0x859DF21C5658496E735874CE317831A)
Complete name : D:\Torrent\ОКАЕМОВЫ ДНИ (Театр).mkv
Format : Matroska
Format version : Version 2
File size : 787 MiB
Duration : 1 h 38 min
Overall bit rate : 1 116 kb/s
Writing application : Lavf54.63.104
Writing library : Lavf54.63.104
Video
ID : 1
Format : AVC
Format/Info : Advanced Video Codec
Format profile : Main@L3
Format settings : CABAC / 3 Ref Frames
Format settings, CABAC : Yes
Format settings, ReFrames : 3 frames
Format settings, GOP : M=4, N=28
Codec ID : V_MPEG4/ISO/AVC
Duration : 1 h 38 min
Bit rate : 934 kb/s
Width : 720 pixels
Height : 576 pixels
Display aspect ratio : 16:9
Original display aspect rat : 16:9
Frame rate mode : Constant
Frame rate : 25.000 FPS
Standard : Component
Color space : YUV
Chroma subsampling : 4:2:0
Bit depth : 8 bits
Scan type : Interlaced
Scan type, store method : Separated fields
Scan order : Top Field First
Bits/(Pixel*Frame) : 0.090
Stream size : 659 MiB (84%)
Default : No
Forced : No
Color range : Limited
Color primaries : BT.601 PAL
Transfer characteristics : BT.470 System B/G
Matrix coefficients : BT.470 System B/G
Audio
ID : 2
Format : MPEG Audio
Format version : Version 1
Format profile : Layer 2
Codec ID : A_MPEG/L2
Codec ID/Hint : MP2
Duration : 1 h 38 min
Bit rate mode : Constant
Bit rate : 160 kb/s
Channel(s) : 2 channels
Sampling rate : 48.0 kHz
Compression mode : Lossy
Stream size : 113 MiB (14%)
Language : Russian
Default : Yes
Forced : No

Скриншот с названием постановки



[islamvillage.com]_t_5595310.torrent
Торрент: Зарегистрирован ·  [ 2018-08-23 19:28 ] ·  8f3c337c415abbe8101e4c3d2fdc21970e5df745

16 KB

Статус: проверено
Скачан: 0 раз
Размер: 787 MB
Оценка: 
(Голосов: 0)
Сказали спасибо: 0  Спасибо
Похожие темы
[Профиль]    [ЛС]
Показать сообщения:    
Ответить на тему

Текущее время: Сегодня 09:58

Часовой пояс: GMT + 7



Вы не можете начинать темы
Вы не можете отвечать на сообщения
Вы не можете редактировать свои сообщения
Вы не можете удалять свои сообщения
Вы не можете голосовать в опросах
Вы не можете прикреплять файлы к сообщениям
Вы можете скачивать файлы


12.08.1722:03 Uhr Brian Reitzell - American Gods Soundtrack256 kbit/s 0 / 02.734 Hits VID P2P DDL 0 Kommentare | Fate/Grand Order (English) | HD The Real Miyagi (2015)