(Rock, Psychedelic Rock,) [CD] Pink Floyd - The Dark Side of the Moon (30th Anniversary Edition) - 2003, ALAC (tracks+.cue), lossless

Ответить на тему
Статистика раздачи [Обновить пиров]
Размер:  254 MB   |    Зарегистрирован:  4 месяца 19 дней   |    Скачан:  1 раз

Полного источника не было: 2 месяца 20 дней

 
   
 
 
 
Автор Сообщение

islamvillage.com

Создавать темы 28-Авг-2018 19:21

[Цитировать]

Pink Floyd / The Dark Side of the Moon (30th Anniversary Edition)
[img=right]http://s8.postimg.cc/mndd7v5th/cover.jpg[/img]
Жанр: Rock, Psychedelic Rock,
Носитель: CD
Страна-производитель диска: ЕС
Год издания: 2003
Издатель (лейбл): EMI
Номер по каталогу: 724358213621
Страна исполнителя (группы): ВБ
Аудио кодек: ALAC (*.m4a)
Тип рипа: tracks+.cue
Программа-конвертер: XLD
Источник: Собственный рип (shantiq)
Битрейт аудио: lossless
Продолжительность: 00:42:58
Наличие сканов в содержимом раздачи: нет
Тексты: отсутствуют
Треклист:
01. Speak To Me
02. Breathe In The Air
03. On The Run
04. Time
05. The Great Gig In The Sky
06. Money
07. Us And Them
08. Any Colour You Like
09. Brain Damage
10. Eclipse

Лог создания рипа

X Lossless Decoder version 20170729 (150.3)
XLD extraction logfile from 2018-08-19 10:07:05 +0100
Pink Floyd / The Dark Side of the Moon (30th Anniversary Edition)
Used drive : TSSTcorp BDDVDW SE-506BB (revision TS00)Media type : Pressed CD
Ripper mode : XLD Secure RipperDisable audio cache : OK for the drive with a cache less than 1375KiBMake use of C2 pointers : NORead offset correction : 6Max retry count : 20Gap status : Analyzed, Appended (except HTOA)
TOC of the extracted CD Track | Start | Length | Start sector | End sector --------------------------------------------------------- 1 | 00:00:00 | 01:08:26 | 0 | 5125 2 | 01:08:26 | 02:48:54 | 5126 | 17779 3 | 03:57:05 | 03:50:45 | 17780 | 35074 4 | 07:47:50 | 06:49:45 | 35075 | 65794 5 | 14:37:20 | 04:44:10 | 65795 | 87104 6 | 19:21:30 | 06:22:56 | 87105 | 115810 7 | 25:44:11 | 07:49:64 | 115811 | 151049 8 | 33:34:00 | 03:26:16 | 151050 | 166515 9 | 37:00:16 | 03:46:70 | 166516 | 183535 10 | 40:47:11 | 02:11:41 | 183536 | 193401
List of alternate offset correction values # | Absolute | Relative | Confidence ------------------------------------------ 1 | -6 | -12 | 392 2 | 367 | 361 | 346 3 | -658 | -664 | 14 4 | 664 | 658 | 14 5 | 12 | 6 | 8 6 | 0 | -6 | 7 7 | -86 | -92 | 6 8 | -12 | -18 | 6 9 | -92 | -98 | 5 10 | -24 | -30 | 5 11 | -661 | -667 | 4 12 | -60 | -66 | 4 13 | -36 | -42 | 3 14 | -62 | -68 | 3 15 | 337 | 331 | 2 16 | -110 | -116 | 2
AccurateRip Summary (DiscID: 000f950c-00823fc1-810a120a) Track 01 : OK (v1+v2, confidence 400/1712) Track 02 : OK (v1+v2, confidence 400/1723) Track 03 : OK (v1+v2, confidence 400/1721) Track 04 : OK (v1+v2, confidence 400/1718) Track 05 : OK (v1+v2, confidence 400/1719) Track 06 : OK (v1+v2, confidence 400/1721) Track 07 : OK (v1+v2, confidence 400/1725) Track 08 : OK (v1+v2, confidence 400/1723) Track 09 : OK (v1+v2, confidence 400/1722) Track 10 : OK (v1+v2, confidence 400/1719) ->All tracks accurately ripped.
All Tracks Album gain : -6.14 dB Peak : 1.000000 Statistics Read error : 0 Jitter error (maybe fixed) : 3 Retry sector count : 1383 Damaged sector count : 0
Track 01 Filename : /Users/shan/Desktop/Pink Floyd-Dark Side of the Moon/01 Pink Floyd - Speak to Me.m4a Pre-gap length : 00:02:00
Track gain : 13.53 dB Peak : 0.344025 CRC32 hash (test run) : 9090B6E3 CRC32 hash : 9090B6E3 CRC32 hash (skip zero) : 9606A3B4 AccurateRip v1 signature : 2E586A54 AccurateRip v2 signature : CC972CF9 ->Accurately ripped (v1+v2, confidence 200+200/1712) Statistics Read error : 0 Jitter error (maybe fixed) : 0 Retry sector count : 0 Damaged sector count : 0
Track 02 Filename : /Users/shan/Desktop/Pink Floyd-Dark Side of the Moon/02 Pink Floyd - Breathe.m4a
Track gain : -3.58 dB Peak : 0.924774 CRC32 hash (test run) : BB07B8C1 CRC32 hash : BB07B8C1 CRC32 hash (skip zero) : 8B338342 AccurateRip v1 signature : AE3EAD52 AccurateRip v2 signature : 2C8F2A02 ->Accurately ripped (v1+v2, confidence 200+200/1723) Statistics Read error : 0 Jitter error (maybe fixed) : 0 Retry sector count : 1 Damaged sector count : 0
Track 03 Filename : /Users/shan/Desktop/Pink Floyd-Dark Side of the Moon/03 Pink Floyd - On the Run.m4a
Track gain : -1.47 dB Peak : 0.920654 CRC32 hash (test run) : F3D37084 CRC32 hash : F3D37084 CRC32 hash (skip zero) : 40472993 AccurateRip v1 signature : 30BA24E2 AccurateRip v2 signature : 8205B176 ->Accurately ripped (v1+v2, confidence 200+200/1721) Statistics Read error : 0 Jitter error (maybe fixed) : 0 Retry sector count : 1 Damaged sector count : 0
Track 04 Filename : /Users/shan/Desktop/Pink Floyd-Dark Side of the Moon/04 Pink Floyd - Time.m4a
Track gain : -5.69 dB Peak : 0.930267 CRC32 hash (test run) : 9EA63B5B CRC32 hash : 9EA63B5B CRC32 hash (skip zero) : 3372FA9A AccurateRip v1 signature : 7485E5A6 AccurateRip v2 signature : EF07198F ->Accurately ripped (v1+v2, confidence 200+200/1718) Statistics Read error : 0 Jitter error (maybe fixed) : 0 Retry sector count : 0 Damaged sector count : 0
Track 05 Filename : /Users/shan/Desktop/Pink Floyd-Dark Side of the Moon/05 Pink Floyd - The Great Gig in the Sky.m4a
Track gain : -5.49 dB Peak : 0.927673 CRC32 hash (test run) : 7915CB83 CRC32 hash : 7915CB83 CRC32 hash (skip zero) : 47617848 AccurateRip v1 signature : 7EE85177 AccurateRip v2 signature : 17FBEF3F ->Accurately ripped (v1+v2, confidence 200+200/1719) Statistics Read error : 0 Jitter error (maybe fixed) : 0 Retry sector count : 457 Damaged sector count : 0
Track 06 Filename : /Users/shan/Desktop/Pink Floyd-Dark Side of the Moon/06 Pink Floyd - Money.m4a
Track gain : -8.40 dB Peak : 1.000000 CRC32 hash (test run) : 57CAAF81 CRC32 hash : 57CAAF81 CRC32 hash (skip zero) : 8E147D03 AccurateRip v1 signature : 67709B0A AccurateRip v2 signature : 6AF36445 ->Accurately ripped (v1+v2, confidence 200+200/1721) Statistics Read error : 0 Jitter error (maybe fixed) : 1 Retry sector count : 467 Damaged sector count : 0
Track 07 Filename : /Users/shan/Desktop/Pink Floyd-Dark Side of the Moon/07 Pink Floyd - Us and Them.m4a
Track gain : -4.17 dB Peak : 0.843689 CRC32 hash (test run) : 229620B0 CRC32 hash : 229620B0 CRC32 hash (skip zero) : 4C56F3CC AccurateRip v1 signature : 74D17B5B AccurateRip v2 signature : 6D6DA19C ->Accurately ripped (v1+v2, confidence 200+200/1725) Statistics Read error : 0 Jitter error (maybe fixed) : 1 Retry sector count : 457 Damaged sector count : 0
Track 08 Filename : /Users/shan/Desktop/Pink Floyd-Dark Side of the Moon/08 Pink Floyd - Any Colour You Like.m4a
Track gain : -4.99 dB Peak : 1.000000 CRC32 hash (test run) : 2888129A CRC32 hash : 2888129A CRC32 hash (skip zero) : 3AD6C11E AccurateRip v1 signature : 4B1C0805 AccurateRip v2 signature : E58064B6 ->Accurately ripped (v1+v2, confidence 200+200/1723) Statistics Read error : 0 Jitter error (maybe fixed) : 0 Retry sector count : 0 Damaged sector count : 0
Track 09 Filename : /Users/shan/Desktop/Pink Floyd-Dark Side of the Moon/09 Pink Floyd - Brain Damage.m4a
Track gain : -4.76 dB Peak : 0.999969 CRC32 hash (test run) : B1F4E876 CRC32 hash : B1F4E876 CRC32 hash (skip zero) : A314E659 AccurateRip v1 signature : 68FC0408 AccurateRip v2 signature : 2ED07457 ->Accurately ripped (v1+v2, confidence 200+200/1722) Statistics Read error : 0 Jitter error (maybe fixed) : 1 Retry sector count : 0 Damaged sector count : 0
Track 10 Filename : /Users/shan/Desktop/Pink Floyd-Dark Side of the Moon/10 Pink Floyd - Eclipse.m4a
Track gain : -7.38 dB Peak : 0.999969 CRC32 hash (test run) : 2949BEB7 CRC32 hash : 2949BEB7 CRC32 hash (skip zero) : 0A727ED6 AccurateRip v1 signature : 50A7B489 AccurateRip v2 signature : E7D3EEE4 ->Accurately ripped (v1+v2, confidence 200+200/1719) Statistics Read error : 0 Jitter error (maybe fixed) : 0 Retry sector count : 0 Damaged sector count : 0
No errors occurred
End of status report

Содержание индексной карты (.CUE)

TITLE "The Dark Side of the Moon (30th Anniversary Edition)"PERFORMER "Pink Floyd"REM GENRE "Rock"REM DATE "1973"REM DISCNUMBER 1REM TOTALDISCS 1REM DISCID 810A120AREM REPLAYGAIN_ALBUM_GAIN -6.14 dBREM REPLAYGAIN_ALBUM_PEAK 1.000000FILE "01 - Speak to Me.m4a" WAVE TRACK 01 AUDIO TITLE "Speak to Me" SONGWRITER "Nick Mason/Roger Waters" ISRC GBAYE0300334 REM REPLAYGAIN_TRACK_GAIN 13.53 dB REM REPLAYGAIN_TRACK_PEAK 0.344025 INDEX 01 00:00:00FILE "02 - Breathe.m4a" WAVE TRACK 02 AUDIO TITLE "Breathe" SONGWRITER "Richard Wright/Roger Waters/David Gilmour" ISRC GBAYE0300335 REM REPLAYGAIN_TRACK_GAIN -3.58 dB REM REPLAYGAIN_TRACK_PEAK 0.924774 INDEX 01 00:00:00FILE "03 - On the Run.m4a" WAVE TRACK 03 AUDIO TITLE "On the Run" SONGWRITER "Roger Waters/David Gilmour/Richard Wright" ISRC GBAYE0300336 REM REPLAYGAIN_TRACK_GAIN -1.47 dB REM REPLAYGAIN_TRACK_PEAK 0.920654 INDEX 01 00:00:00FILE "04 - Time.m4a" WAVE TRACK 04 AUDIO TITLE "Time" SONGWRITER "Richard Wright/Nick Mason/Roger Waters/David Gilmour" ISRC GBAYE0300337 REM REPLAYGAIN_TRACK_GAIN -5.69 dB REM REPLAYGAIN_TRACK_PEAK 0.930267 INDEX 01 00:00:00FILE "05 - The Great Gig in the Sky.m4a" WAVE TRACK 05 AUDIO TITLE "The Great Gig in the Sky" SONGWRITER "Richard Wright" ISRC GBAYE0300338 REM REPLAYGAIN_TRACK_GAIN -5.49 dB REM REPLAYGAIN_TRACK_PEAK 0.927673 INDEX 01 00:00:00FILE "06 - Money.m4a" WAVE TRACK 06 AUDIO TITLE "Money" SONGWRITER "Roger Waters" ISRC GBAYE0300339 REM REPLAYGAIN_TRACK_GAIN -8.40 dB REM REPLAYGAIN_TRACK_PEAK 1.000000 INDEX 01 00:00:00FILE "07 - Us and Them.m4a" WAVE TRACK 07 AUDIO TITLE "Us and Them" SONGWRITER "Roger Waters/Richard Wright" ISRC GBAYE0300340 REM REPLAYGAIN_TRACK_GAIN -4.17 dB REM REPLAYGAIN_TRACK_PEAK 0.843689 INDEX 01 00:00:00FILE "08 - Any Colour You Like.m4a" WAVE TRACK 08 AUDIO TITLE "Any Colour You Like" SONGWRITER "Nick Mason/Richard Wright/David Gilmour" ISRC GBAYE0300341 REM REPLAYGAIN_TRACK_GAIN -4.99 dB REM REPLAYGAIN_TRACK_PEAK 1.000000 INDEX 01 00:00:00FILE "09 - Brain Damage.m4a" WAVE TRACK 09 AUDIO TITLE "Brain Damage" SONGWRITER "Roger Waters, David Gilmour, Richard Wright, Nick Mason" ISRC GBAYE0300342 REM REPLAYGAIN_TRACK_GAIN -4.76 dB REM REPLAYGAIN_TRACK_PEAK 0.999969 INDEX 01 00:00:00FILE "10 - Eclipse.m4a" WAVE TRACK 10 AUDIO TITLE "Eclipse" SONGWRITER "Roger Waters, David Gilmour, Richard Wright, Nick Mason" ISRC GBAYE0300343 REM REPLAYGAIN_TRACK_GAIN -7.38 dB REM REPLAYGAIN_TRACK_PEAK 0.999969 INDEX 01 00:00:00


[islamvillage.com]_t_5602513.torrent
Торрент: Зарегистрирован ·  [ 2018-08-28 19:21 ] ·  1223dd4592aa311e5a467362c16ab3b4566f6ed9

41 KB

Статус: проверено
Скачан: 1 раз
Размер: 254 MB
Оценка: 
(Голосов: 0)
Сказали спасибо: 1  Спасибо   (список)
Похожие темы
[Профиль]    [ЛС]
Показать сообщения:    
Ответить на тему

Текущее время: Сегодня 11:48

Часовой пояс: GMT + 7



Вы не можете начинать темы
Вы не можете отвечать на сообщения
Вы не можете редактировать свои сообщения
Вы не можете удалять свои сообщения
Вы не можете голосовать в опросах
Вы не можете прикреплять файлы к сообщениям
Вы можете скачивать файлы


Most Bids | Shokugeki no Soma 246 | 2018 Hindi