Ваша дочь Александра (Никита Тягунов) [1986, драма, DVB, AVC]

Ответить на тему
Статистика раздачи [Обновить пиров]
Размер:  1.77 GB   |    Зарегистрирован:  4 месяца 19 дней   |    Скачан:  1 раз

Полного источника не было: 2 месяца 30 дней

 
   
 
 
 
Автор Сообщение

islamvillage.com

Создавать темы 29-Авг-2018 22:03

[Цитировать]

Ваша дочь Александра
Производство: Главная редакция литературно-драматических программ ЦТ
Жанр: драма
Год выхода: 1986
Продолжительность: 01:20:30
Режиссёр: Никита Тягунов
В ролях: Эммануил Виторган, Георгий Бурков, Игорь Кваша, Михаил Филиппов, Антон Табаков, Марьяна Полтева, Екатерина Маркова
Описание: Шестнадцатилетняя Александра воспитывалась без отца. Однажды, когда мать находилась в командировке, она нашла её старое письмо на имя Михаила Максимова. Решив, что так зовут отца, девушка узнаёт в адресном столе адреса всех Михаилов Максимовых, проживающих в городе, и отправляет им письма с приглашением придти к ней в гости в одно и то же время...
Доп. информация:
Запись потока *.ts со спутника EUTELSAT 36A/B, 36° в.д.
Качество видео: DVB
Формат файла: TS
Видео: Advanced Video Codec, 720(768)x576 (4:3), 25,000 кадров/сек, 2 790 Кбит/сек
Аудио: MPEG Audio, 48,0 КГц, 192 Кбит/сек, 2 канала

Источник: Torrentc

http://Torrentc/forum/viewtopic.php?t=1000896

MediaInfo

General
ID : 1 (0x1)
Complete name : D:\Torrent\ВАША ДОЧЬ АЛЕКСАНДРА (Ностальгия).ts
Format : MPEG-TS
File size : 1.77 GiB
Duration : 1 h 20 min
Overall bit rate mode : Variable
Overall bit rate : 3 139 kb/s
Video
ID : 217 (0xD9)
Menu ID : 117 (0x75)
Format : AVC
Format/Info : Advanced Video Codec
Format profile : High@L3
Format settings : CABAC / 4 Ref Frames
Format settings, CABAC : Yes
Format settings, ReFrames : 4 frames
Format settings, GOP : M=4, N=28
Codec ID : 27
Duration : 1 h 20 min
Bit rate : 2 790 kb/s
Width : 720 pixels
Height : 576 pixels
Display aspect ratio : 4:3
Frame rate : 25.000 FPS
Standard : Component
Color space : YUV
Chroma subsampling : 4:2:0
Bit depth : 8 bits
Scan type : Interlaced
Scan type, store method : Separated fields
Scan order : Top Field First
Bits/(Pixel*Frame) : 0.269
Stream size : 1.57 GiB (89%)
Color range : Limited
Color primaries : BT.601 PAL
Transfer characteristics : BT.470 System B/G
Matrix coefficients : BT.470 System B/G
Audio
ID : 317 (0x13D)
Menu ID : 117 (0x75)
Format : MPEG Audio
Format version : Version 1
Format profile : Layer 2
Codec ID : 3
Duration : 1 h 20 min
Bit rate mode : Constant
Bit rate : 192 kb/s
Channel(s) : 2 channels
Sampling rate : 48.0 kHz
Frame rate : 41.667 FPS (1152 SPF)
Compression mode : Lossy
Stream size : 111 MiB (6%)
Language : Russian

Скриншот с названием постановки



[islamvillage.com]_t_5605900.torrent
Торрент: Зарегистрирован ·  [ 2018-08-29 22:02 ] ·  98bd5dce33b5025d2b77bfcf640c1d4671bc14c5

18 KB

Статус: проверено
Скачан: 1 раз
Размер: 1.77 GB
Оценка: 
(Голосов: 0)
Сказали спасибо: 0  Спасибо
Похожие темы
[Профиль]    [ЛС]
Показать сообщения:    
Ответить на тему

Текущее время: Сегодня 09:58

Часовой пояс: GMT + 7



Вы не можете начинать темы
Вы не можете отвечать на сообщения
Вы не можете редактировать свои сообщения
Вы не можете удалять свои сообщения
Вы не можете голосовать в опросах
Вы не можете прикреплять файлы к сообщениям
Вы можете скачивать файлы


Winchester | KineMaster – Pro Video Editor v4.3.0.10316.CZ APK Free | Next Page