(Ska) [CD] Bad Manners - Fat Sound - 1993, FLAC (tracks+.cue), lossless

Ответить на тему
Статистика раздачи [Обновить пиров]
Размер:  382 MB   |    Зарегистрирован:  4 месяца   |    Скачан:  0 раз

Полного источника не было: Никогда

 
   
 
 
 
Автор Сообщение

islamvillage.com

Создавать темы 15-Сен-2018 21:12

[Цитировать]

Bad Manners / Fat Sound
[img=right]http://i102.fastpic.ru/big/2018/0914/3f/cf09c25fd2...e3bb3f.jpg[/img]
Жанр: Ska
Носитель: CD
Страна-производитель диска (релиза): Germany
Год издания: 1993
Издатель (лейбл): Pork Pie
Номер по каталогу: EFA 04086-26
Аудиокодек: FLAC (*.flac)
Тип рипа: tracks+.cue
Битрейт аудио: lossless
Продолжительность: 00:57:42
Источник (релизер): локальная сеть
Наличие сканов в содержимом раздачи: нет
Треклист:
1 Mambo / Ska No. 8
2 Do The Creep
3 I Can't Stand The Rain
4 Crazy Over You
5 Feel Like Jumping
6 Midnight Rider
7 Skinhead Love Affair
8 Voices In Your Head
9 Thr First Cut Is The Deepest
10 Wet Dream
11 Stop Making Love Beside Me
12 Pig Bad
13 Mambo No. 5
14 Teenager In Love
15 Lola
16 Wet Dream (Dub Mix)
17 Midnight Rider (Dub Mix)
18 I Can't Stand The Rain (12" Mix)

Лог создания рипа

Exact Audio Copy V1.3 from 2. September 2016
EAC extraction logfile from 19. September 2017, 1:26
Bad Manners / Fat Sound
Used drive : ATAPI iHAS124 F Adapter: 1 ID: 1
Read mode : SecureUtilize accurate stream : YesDefeat audio cache : YesMake use of C2 pointers : No
Read offset correction : 6Overread into Lead-In and Lead-Out : NoFill up missing offset samples with silence : YesDelete leading and trailing silent blocks : NoNull samples used in CRC calculations : YesUsed interface : Native Win32 interface for Win NT & 2000Gap handling : Appended to previous track
Used output format : User Defined EncoderSelected bitrate : 1024 kBit/sQuality : HighAdd ID3 tag : NoCommand line compressor : C:\Program Files (x86)\Exact Audio Copy\Flac\flac.exeAdditional command line options : -8 -V -T "artist=%artist%" -T "title=%title%" -T "album=%albumtitle%" -T "date=%year%" -T "tracknumber=%tracknr%" -T "genre=%genre%" %source%
TOC of the extracted CD
Track | Start | Length | Start sector | End sector --------------------------------------------------------- 1 | 0:00.00 | 2:04.50 | 0 | 9349 2 | 2:04.50 | 2:07.65 | 9350 | 18939 3 | 4:12.40 | 3:34.35 | 18940 | 35024 4 | 7:47.00 | 2:34.67 | 35025 | 46641 5 | 10:21.67 | 3:37.53 | 46642 | 62969 6 | 13:59.45 | 3:30.45 | 62970 | 78764 7 | 17:30.15 | 2:58.70 | 78765 | 92184 8 | 20:29.10 | 3:00.42 | 92185 | 105726 9 | 23:29.52 | 3:45.13 | 105727 | 122614 10 | 27:14.65 | 3:23.02 | 122615 | 137841 11 | 30:37.67 | 2:33.03 | 137842 | 149319 12 | 33:10.70 | 3:22.55 | 149320 | 164524 13 | 36:33.50 | 2:02.10 | 164525 | 173684 14 | 38:35.60 | 2:58.45 | 173685 | 187079 15 | 41:34.30 | 3:49.17 | 187080 | 204271 16 | 45:23.47 | 3:58.15 | 204272 | 222136 17 | 49:21.62 | 3:27.40 | 222137 | 237701 18 | 52:49.27 | 4:53.43 | 237702 | 259719
Track 1
Filename D:\EAC\EAC Rips\2017-09 September 004\Bad Manners - Fat Sound (1993) [FLAC] {EFA 04086-26}\01 - Mambo, Ska Number 8.wav
Pre-gap length 0:00:02.00
Peak level 100.0 % Extraction speed 4.4 X Track quality 100.0 % Test CRC F8F724CA Copy CRC F8F724CA Cannot be verified as accurate (confidence 6) [990943EF], AccurateRip returned [56E9CFE6] (AR v2) Copy OK
Track 2
Filename D:\EAC\EAC Rips\2017-09 September 004\Bad Manners - Fat Sound (1993) [FLAC] {EFA 04086-26}\02 - Do The Creep.wav
Pre-gap length 0:00:01.38
Peak level 100.0 % Extraction speed 4.7 X Track quality 100.0 % Test CRC CA820589 Copy CRC CA820589 Cannot be verified as accurate (confidence 6) [EEEC143B], AccurateRip returned [50A8EB34] (AR v2) Copy OK
Track 3
Filename D:\EAC\EAC Rips\2017-09 September 004\Bad Manners - Fat Sound (1993) [FLAC] {EFA 04086-26}\03 - I Can't Stand The Rain.wav
Pre-gap length 0:00:00.30
Peak level 99.3 % Extraction speed 4.5 X Track quality 99.9 % Test CRC 4536C107 Copy CRC 4536C107 Cannot be verified as accurate (confidence 6) [0B4BB9D3], AccurateRip returned [C9B1C5A0] (AR v2) Copy OK
Track 4
Filename D:\EAC\EAC Rips\2017-09 September 004\Bad Manners - Fat Sound (1993) [FLAC] {EFA 04086-26}\04 - Crazy Over You.wav
Pre-gap length 0:00:01.48
Peak level 99.9 % Extraction speed 5.6 X Track quality 100.0 % Test CRC 065E14C3 Copy CRC 065E14C3 Cannot be verified as accurate (confidence 6) [A1E374BE], AccurateRip returned [FBC5355A] (AR v2) Copy OK
Track 5
Filename D:\EAC\EAC Rips\2017-09 September 004\Bad Manners - Fat Sound (1993) [FLAC] {EFA 04086-26}\05 - Feel Like Jumping.wav
Pre-gap length 0:00:01.22
Peak level 99.3 % Extraction speed 6.3 X Track quality 100.0 % Test CRC D349D477 Copy CRC D349D477 Cannot be verified as accurate (confidence 6) [63912114], AccurateRip returned [9B689572] (AR v2) Copy OK
Track 6
Filename D:\EAC\EAC Rips\2017-09 September 004\Bad Manners - Fat Sound (1993) [FLAC] {EFA 04086-26}\06 - Midnight Rider.wav
Pre-gap length 0:00:01.48
Peak level 100.0 % Extraction speed 6.7 X Track quality 100.0 % Test CRC D85930EC Copy CRC D85930EC Cannot be verified as accurate (confidence 6) [66E3C268], AccurateRip returned [78583831] (AR v2) Copy OK
Track 7
Filename D:\EAC\EAC Rips\2017-09 September 004\Bad Manners - Fat Sound (1993) [FLAC] {EFA 04086-26}\07 - Skinhead Love Affair.wav
Pre-gap length 0:00:02.18
Peak level 91.2 % Extraction speed 5.4 X Track quality 99.9 % Test CRC 25948F87 Copy CRC 25948F87 Cannot be verified as accurate (confidence 6) [6006CD4C], AccurateRip returned [CD74431D] (AR v2) Copy OK
Track 8
Filename D:\EAC\EAC Rips\2017-09 September 004\Bad Manners - Fat Sound (1993) [FLAC] {EFA 04086-26}\08 - Voices In Your Head.wav
Pre-gap length 0:00:01.50
Peak level 98.3 % Extraction speed 5.6 X Track quality 99.9 % Test CRC 74A8AFBC Copy CRC 74A8AFBC Cannot be verified as accurate (confidence 6) [DD37060E], AccurateRip returned [082EA5AD] (AR v2) Copy OK
Track 9
Filename D:\EAC\EAC Rips\2017-09 September 004\Bad Manners - Fat Sound (1993) [FLAC] {EFA 04086-26}\09 - The First Cut Is The Deepest.wav
Pre-gap length 0:00:01.25
Peak level 98.3 % Extraction speed 7.8 X Track quality 100.0 % Test CRC ED1940B7 Copy CRC ED1940B7 Cannot be verified as accurate (confidence 6) [D885A10B], AccurateRip returned [41595DAE] (AR v2) Copy OK
Track 10
Filename D:\EAC\EAC Rips\2017-09 September 004\Bad Manners - Fat Sound (1993) [FLAC] {EFA 04086-26}\10 - Wet Dream.wav
Pre-gap length 0:00:01.15
Peak level 97.6 % Extraction speed 8.0 X Track quality 100.0 % Test CRC 3D59FADD Copy CRC 3D59FADD Cannot be verified as accurate (confidence 6) [D3AFCD00], AccurateRip returned [B2F8121F] (AR v2) Copy OK
Track 11
Filename D:\EAC\EAC Rips\2017-09 September 004\Bad Manners - Fat Sound (1993) [FLAC] {EFA 04086-26}\11 - Stop Making Love Beside Me.wav
Pre-gap length 0:00:02.00
Peak level 97.6 % Extraction speed 5.9 X Track quality 99.9 % Test CRC 59581ADA Copy CRC 59581ADA Cannot be verified as accurate (confidence 6) [C940465D], AccurateRip returned [5E546086] (AR v2) Copy OK
Track 12
Filename D:\EAC\EAC Rips\2017-09 September 004\Bad Manners - Fat Sound (1993) [FLAC] {EFA 04086-26}\12 - Pig Bad.wav
Pre-gap length 0:00:01.68
Peak level 98.3 % Extraction speed 8.4 X Track quality 100.0 % Test CRC 6107AC74 Copy CRC 6107AC74 Cannot be verified as accurate (confidence 6) [D1911564], AccurateRip returned [19AE5DB9] (AR v2) Copy OK
Track 13
Filename D:\EAC\EAC Rips\2017-09 September 004\Bad Manners - Fat Sound (1993) [FLAC] {EFA 04086-26}\13 - Mambo Number 8.wav
Pre-gap length 0:00:01.70
Peak level 98.3 % Extraction speed 5.7 X Track quality 99.9 % Test CRC D69BBA85 Copy CRC D69BBA85 Cannot be verified as accurate (confidence 6) [6C382ECD], AccurateRip returned [45E7EC75] (AR v2) Copy OK
Track 14
Filename D:\EAC\EAC Rips\2017-09 September 004\Bad Manners - Fat Sound (1993) [FLAC] {EFA 04086-26}\14 - Teenager In Love.wav
Pre-gap length 0:00:01.05
Peak level 98.3 % Extraction speed 6.7 X Track quality 99.9 % Test CRC 233C502A Copy CRC 233C502A Cannot be verified as accurate (confidence 6) [E9BD0DE1], AccurateRip returned [B2B5E3BA] (AR v2) Copy OK
Track 15
Filename D:\EAC\EAC Rips\2017-09 September 004\Bad Manners - Fat Sound (1993) [FLAC] {EFA 04086-26}\15 - Lola.wav
Pre-gap length 0:00:01.58
Peak level 97.6 % Extraction speed 9.3 X Track quality 100.0 % Test CRC 3C6E2496 Copy CRC 3C6E2496 Cannot be verified as accurate (confidence 6) [08BE5F02], AccurateRip returned [42FF2160] (AR v2) Copy OK
Track 16
Filename D:\EAC\EAC Rips\2017-09 September 004\Bad Manners - Fat Sound (1993) [FLAC] {EFA 04086-26}\16 - Wet Dream (Dub Mix).wav
Pre-gap length 0:00:01.44
Peak level 97.6 % Extraction speed 9.7 X Track quality 100.0 % Test CRC 1CAE308E Copy CRC 1CAE308E Cannot be verified as accurate (confidence 6) [D2DAA4FF], AccurateRip returned [5AB8807B] (AR v2) Copy OK
Track 17
Filename D:\EAC\EAC Rips\2017-09 September 004\Bad Manners - Fat Sound (1993) [FLAC] {EFA 04086-26}\17 - Midnight Rider (Dub Mix).wav
Pre-gap length 0:00:01.25
Peak level 97.6 % Extraction speed 9.7 X Track quality 100.0 % Test CRC E5DC8390 Copy CRC E5DC8390 Cannot be verified as accurate (confidence 4) [BACFF2B2], AccurateRip returned [25D736F1] (AR v2) Copy OK
Track 18
Filename D:\EAC\EAC Rips\2017-09 September 004\Bad Manners - Fat Sound (1993) [FLAC] {EFA 04086-26}\18 - I Can't Stand The Rain (12'' Mix).wav
Pre-gap length 0:00:01.65
Peak level 97.6 % Extraction speed 10.5 X Track quality 100.0 % Test CRC 6AE40EB2 Copy CRC 6AE40EB2 Cannot be verified as accurate (confidence 4) [0987B5FD], AccurateRip returned [757CD8DA] (AR v2) Copy OK
No tracks could be verified as accurateYou may have a different pressing from the one(s) in the database
No errors occurred
End of status report
---- CUETools DB Plugin V2.1.6
[CTDB TOCID: sKBKulZMKtrNANW71VaUW3q_qJc-] foundSubmit result: already submittedTrack | CTDB Status 1 | (5/5) Accurately ripped 2 | (5/5) Accurately ripped 3 | (5/5) Accurately ripped 4 | (5/5) Accurately ripped 5 | (5/5) Accurately ripped 6 | (5/5) Accurately ripped 7 | (5/5) Accurately ripped 8 | (5/5) Accurately ripped 9 | (5/5) Accurately ripped 10 | (5/5) Accurately ripped 11 | (5/5) Accurately ripped 12 | (5/5) Accurately ripped 13 | (5/5) Accurately ripped 14 | (5/5) Accurately ripped 15 | (5/5) Accurately ripped 16 | (5/5) Accurately ripped 17 | (5/5) Accurately ripped 18 | (5/5) Accurately ripped
==== Log checksum BF3E85BFC3764674DC3A6FB569F4F5DD1AB9B9440DB2C65ED34E38E49A683BA9 ====

Содержание индексной карты (.CUE)

REM GENRE SkaREM DATE 1993REM DISCID F40D8612REM COMMENT "ExactAudioCopy v1.3"PERFORMER "Bad Manners"TITLE "Fat Sound"REM COMPOSER ""FILE "01 - Mambo, Ska Number 8.wav" WAVE TRACK 01 AUDIO TITLE "Mambo, Ska Number 8" PERFORMER "Bad Manners" REM COMPOSER "" INDEX 01 00:00:00 TRACK 02 AUDIO TITLE "Do The Creep" PERFORMER "Bad Manners" REM COMPOSER "" INDEX 00 02:03:12FILE "02 - Do The Creep.wav" WAVE INDEX 01 00:00:00 TRACK 03 AUDIO TITLE "I Can't Stand The Rain" PERFORMER "Bad Manners" REM COMPOSER "" INDEX 00 02:07:35FILE "03 - I Can't Stand The Rain.wav" WAVE INDEX 01 00:00:00 TRACK 04 AUDIO TITLE "Crazy Over You" PERFORMER "Bad Manners" REM COMPOSER "" INDEX 00 03:32:62FILE "04 - Crazy Over You.wav" WAVE INDEX 01 00:00:00 TRACK 05 AUDIO TITLE "Feel Like Jumping" PERFORMER "Bad Manners" REM COMPOSER "" INDEX 00 02:33:45FILE "05 - Feel Like Jumping.wav" WAVE INDEX 01 00:00:00 TRACK 06 AUDIO TITLE "Midnight Rider" PERFORMER "Bad Manners" REM COMPOSER "" INDEX 00 03:36:05FILE "06 - Midnight Rider.wav" WAVE INDEX 01 00:00:00 TRACK 07 AUDIO TITLE "Skinhead Love Affair" PERFORMER "Bad Manners" REM COMPOSER "" INDEX 00 03:28:27FILE "07 - Skinhead Love Affair.wav" WAVE INDEX 01 00:00:00 TRACK 08 AUDIO TITLE "Voices In Your Head" PERFORMER "Bad Manners" REM COMPOSER "" INDEX 00 02:57:20FILE "08 - Voices In Your Head.wav" WAVE INDEX 01 00:00:00 TRACK 09 AUDIO TITLE "The First Cut Is The Deepest" PERFORMER "Bad Manners" REM COMPOSER "" INDEX 00 02:59:17FILE "09 - The First Cut Is The Deepest.wav" WAVE INDEX 01 00:00:00 TRACK 10 AUDIO TITLE "Wet Dream" PERFORMER "Bad Manners" REM COMPOSER "" INDEX 00 03:43:73FILE "10 - Wet Dream.wav" WAVE INDEX 01 00:00:00 TRACK 11 AUDIO TITLE "Stop Making Love Beside Me" PERFORMER "Bad Manners" REM COMPOSER "" INDEX 00 03:21:02FILE "11 - Stop Making Love Beside Me.wav" WAVE INDEX 01 00:00:00 TRACK 12 AUDIO TITLE "Pig Bad" PERFORMER "Bad Manners" REM COMPOSER "" INDEX 00 02:31:10FILE "12 - Pig Bad.wav" WAVE INDEX 01 00:00:00 TRACK 13 AUDIO TITLE "Mambo Number 8" PERFORMER "Bad Manners" REM COMPOSER "" INDEX 00 03:20:60FILE "13 - Mambo Number 8.wav" WAVE INDEX 01 00:00:00 TRACK 14 AUDIO TITLE "Teenager In Love" PERFORMER "Bad Manners" REM COMPOSER "" INDEX 00 02:01:05FILE "14 - Teenager In Love.wav" WAVE INDEX 01 00:00:00 TRACK 15 AUDIO TITLE "Lola" PERFORMER "Bad Manners" REM COMPOSER "" INDEX 00 02:56:62FILE "15 - Lola.wav" WAVE INDEX 01 00:00:00 TRACK 16 AUDIO TITLE "Wet Dream (Dub Mix)" PERFORMER "Bad Manners" REM COMPOSER "" INDEX 00 03:47:48FILE "16 - Wet Dream (Dub Mix).wav" WAVE INDEX 01 00:00:00 TRACK 17 AUDIO TITLE "Midnight Rider (Dub Mix)" PERFORMER "Bad Manners" REM COMPOSER "" INDEX 00 03:56:65FILE "17 - Midnight Rider (Dub Mix).wav" WAVE INDEX 01 00:00:00 TRACK 18 AUDIO TITLE "I Can't Stand The Rain (12' Mix)" PERFORMER "Bad Manners" REM COMPOSER "" INDEX 00 03:25:50FILE "18 - I Can't Stand The Rain (12'' Mix).wav" WAVE INDEX 01 00:00:00


[islamvillage.com]_t_5613693.torrent
Торрент: Зарегистрирован ·  [ 2018-09-15 21:11 ] ·  5038cbaa198feefc15608f487407e22e19ef8499

17 KB

Статус: проверено
Скачан: 0 раз
Размер: 382 MB
Оценка: 
(Голосов: 0)
Сказали спасибо: 0  Спасибо
Похожие темы
[Профиль]    [ЛС]
Показать сообщения:    
Ответить на тему

Текущее время: Сегодня 15:28

Часовой пояс: GMT + 7



Вы не можете начинать темы
Вы не можете отвечать на сообщения
Вы не можете редактировать свои сообщения
Вы не можете удалять свои сообщения
Вы не можете голосовать в опросах
Вы не можете прикреплять файлы к сообщениям
Вы можете скачивать файлы


Boîte à Montres et Bijoux, 8 montres, bijoux et miroir, Gris | Star Screen Awards 2018 (Full Event) 720p WEBRiP x264 AAC DD 2.0 – 1.8 GB | Brian Tee