(Ska, Reggae) [CD] Bigger Thomas - We Wear The Mask - 2005, FLAC (tracks+.cue), lossless

Ответить на тему
Статистика раздачи [Обновить пиров]
Размер:  335 MB   |    Зарегистрирован:  4 месяца   |    Скачан:  0 раз

Полного источника не было: Никогда

 
   
 
 
 
Автор Сообщение

islamvillage.com

Создавать темы 15-Сен-2018 21:12

[Цитировать]

Bigger Thomas / We Wear The Mask
[img=right]http://i103.fastpic.ru/big/2018/0912/32/6c1de8e975...ee9332.jpg[/img]
Жанр: Ska, Reggae
Носитель: CD
Страна-производитель диска (релиза): US
Год издания: 2005
Издатель (лейбл): Megalith Records
Номер по каталогу: MEGA 025
Аудиокодек: FLAC (*.flac)
Тип рипа: tracks+.cue
Битрейт аудио: lossless
Продолжительность: 00:51:20
Источник (релизер): локальная сеть
Наличие сканов в содержимом раздачи: нет
Треклист:
1 Panic! 3:20
2 Say It Again 4:01
3 Not Right Now 4:12
4 How It Has To Be 4:36
5 Less And Less 4:02
6 We Need To Talk 2:26
7 Trouble 3:42
8 We Wear The Mask 6:16
9 King For A Day 4:21
10 It's Been Done 3:30
11 You Know Seh Mr. Radics 3:59
12 Dub The Mask 6:55

Лог создания рипа

X Lossless Decoder version 20101212 (126.2)
XLD extraction logfile from 2011-01-05 22:58:43 -0500
Bigger Thomas / We Wear The Mask
Used drive : HL-DT-ST DVDRW GSA-S10N (revision AP12)
Ripper mode : CDParanoia III 10.2Disable audio cache : OK for the drive with a cache less than 2750KiBMake use of C2 pointers : NORead offset correction : 667Max retry count : 100Gap status : Analyzed, Appended (except HTOA)
TOC of the extracted CD Track | Start | Length | Start sector | End sector --------------------------------------------------------- 1 | 00:00:00 | 03:20:28 | 0 | 15027 2 | 03:20:28 | 04:01:24 | 15028 | 33126 3 | 07:21:52 | 04:12:30 | 33127 | 52056 4 | 11:34:07 | 04:35:54 | 52057 | 72735 5 | 16:09:61 | 04:01:48 | 72736 | 90858 6 | 20:11:34 | 02:26:08 | 90859 | 101816 7 | 22:37:42 | 03:42:01 | 101817 | 118467 8 | 26:19:43 | 06:16:06 | 118468 | 146673 9 | 32:35:49 | 04:20:50 | 146674 | 166223 10 | 36:56:24 | 03:30:10 | 166224 | 181983 11 | 40:26:34 | 03:58:42 | 181984 | 199875 12 | 44:25:01 | 06:55:30 | 199876 | 231030
AccurateRip Summary Disc not found in AccurateRip DB.
All Tracks Album gain : -7.88 dB Peak : 0.988678 Statistics Read error : 0 Skipped (treated as error) : 0 Edge jitter error (maybe fixed) : 0 Atom jitter error (maybe fixed) : 0 Drift error (maybe fixed) : 0 Dropped bytes error (maybe fixed) : 0 Duplicated bytes error (maybe fixed) : 0
Track 01 Filename : /Users/Chapski/Music/Torrents/01 - Panic!.flac /Users/Chapski/Music/Torrents/01 - Panic!.mp3 Pre-gap length : 00:02:00
Track gain : -7.84 dB Peak : 0.988647 CRC32 hash (test run) : 097792D4 CRC32 hash : 097792D4 CRC32 hash (skip zero) : 5511CF5D AccurateRip signature : 4D67C6DE ->Track not present in AccurateRip database. Statistics Read error : 0 Skipped (treated as error) : 0 Edge jitter error (maybe fixed) : 0 Atom jitter error (maybe fixed) : 0 Drift error (maybe fixed) : 0 Dropped bytes error (maybe fixed) : 0 Duplicated bytes error (maybe fixed) : 0 Inconsistency in error sectors : 0
Track 02 Filename : /Users/Chapski/Music/Torrents/02 - Say It Again.flac /Users/Chapski/Music/Torrents/02 - Say It Again.mp3
Track gain : -9.35 dB Peak : 0.988678 CRC32 hash (test run) : EF1A8496 CRC32 hash : EF1A8496 CRC32 hash (skip zero) : EA3F3DB0 AccurateRip signature : 82C40C2F ->Track not present in AccurateRip database. Statistics Read error : 0 Skipped (treated as error) : 0 Edge jitter error (maybe fixed) : 0 Atom jitter error (maybe fixed) : 0 Drift error (maybe fixed) : 0 Dropped bytes error (maybe fixed) : 0 Duplicated bytes error (maybe fixed) : 0 Inconsistency in error sectors : 0
Track 03 Filename : /Users/Chapski/Music/Torrents/03 - Not Right Now.flac /Users/Chapski/Music/Torrents/03 - Not Right Now.mp3
Track gain : -8.37 dB Peak : 0.988678 CRC32 hash (test run) : 81B8EC7C CRC32 hash : 81B8EC7C CRC32 hash (skip zero) : F93A5EC4 AccurateRip signature : 2DF7CF0C ->Track not present in AccurateRip database. Statistics Read error : 0 Skipped (treated as error) : 0 Edge jitter error (maybe fixed) : 0 Atom jitter error (maybe fixed) : 0 Drift error (maybe fixed) : 0 Dropped bytes error (maybe fixed) : 0 Duplicated bytes error (maybe fixed) : 0 Inconsistency in error sectors : 0
Track 04 Filename : /Users/Chapski/Music/Torrents/04 - How It Has To Be.flac /Users/Chapski/Music/Torrents/04 - How It Has To Be.mp3
Track gain : -6.54 dB Peak : 0.988647 CRC32 hash (test run) : CB9ABE67 CRC32 hash : CB9ABE67 CRC32 hash (skip zero) : 2A5DAF8E AccurateRip signature : 308E41F6 ->Track not present in AccurateRip database. Statistics Read error : 0 Skipped (treated as error) : 0 Edge jitter error (maybe fixed) : 0 Atom jitter error (maybe fixed) : 0 Drift error (maybe fixed) : 0 Dropped bytes error (maybe fixed) : 0 Duplicated bytes error (maybe fixed) : 0 Inconsistency in error sectors : 0
Track 05 Filename : /Users/Chapski/Music/Torrents/05 - Less And Less.flac /Users/Chapski/Music/Torrents/05 - Less And Less.mp3
Track gain : -5.76 dB Peak : 0.988678 CRC32 hash (test run) : B923B5E8 CRC32 hash : B923B5E8 CRC32 hash (skip zero) : 731801EE AccurateRip signature : CC28DC24 ->Track not present in AccurateRip database. Statistics Read error : 0 Skipped (treated as error) : 0 Edge jitter error (maybe fixed) : 0 Atom jitter error (maybe fixed) : 0 Drift error (maybe fixed) : 0 Dropped bytes error (maybe fixed) : 0 Duplicated bytes error (maybe fixed) : 0 Inconsistency in error sectors : 0
Track 06 Filename : /Users/Chapski/Music/Torrents/06 - We Need To Talk.flac /Users/Chapski/Music/Torrents/06 - We Need To Talk.mp3
Track gain : -8.43 dB Peak : 0.988678 CRC32 hash (test run) : 2C56E156 CRC32 hash : 2C56E156 CRC32 hash (skip zero) : 26E653D8 AccurateRip signature : 07864663 ->Track not present in AccurateRip database. Statistics Read error : 0 Skipped (treated as error) : 0 Edge jitter error (maybe fixed) : 0 Atom jitter error (maybe fixed) : 0 Drift error (maybe fixed) : 0 Dropped bytes error (maybe fixed) : 0 Duplicated bytes error (maybe fixed) : 0 Inconsistency in error sectors : 0
Track 07 Filename : /Users/Chapski/Music/Torrents/07 - Trouble.flac /Users/Chapski/Music/Torrents/07 - Trouble.mp3
Track gain : -9.08 dB Peak : 0.988678 CRC32 hash (test run) : 9C0FD30B CRC32 hash : 9C0FD30B CRC32 hash (skip zero) : C6A7B802 AccurateRip signature : 6B79B5A0 ->Track not present in AccurateRip database. Statistics Read error : 0 Skipped (treated as error) : 0 Edge jitter error (maybe fixed) : 0 Atom jitter error (maybe fixed) : 0 Drift error (maybe fixed) : 0 Dropped bytes error (maybe fixed) : 0 Duplicated bytes error (maybe fixed) : 0 Inconsistency in error sectors : 0
Track 08 Filename : /Users/Chapski/Music/Torrents/08 - We Wear The Mask.flac /Users/Chapski/Music/Torrents/08 - We Wear The Mask.mp3
Track gain : -6.26 dB Peak : 0.988678 CRC32 hash (test run) : C7220B45 CRC32 hash : C7220B45 CRC32 hash (skip zero) : CA70E6F0 AccurateRip signature : B91A4DE4 ->Track not present in AccurateRip database. Statistics Read error : 0 Skipped (treated as error) : 0 Edge jitter error (maybe fixed) : 0 Atom jitter error (maybe fixed) : 0 Drift error (maybe fixed) : 0 Dropped bytes error (maybe fixed) : 0 Duplicated bytes error (maybe fixed) : 0 Inconsistency in error sectors : 0
Track 09 Filename : /Users/Chapski/Music/Torrents/09 - King For A Day.flac /Users/Chapski/Music/Torrents/09 - King For A Day.mp3
Track gain : -7.10 dB Peak : 0.988678 CRC32 hash (test run) : 6D7C5944 CRC32 hash : 6D7C5944 CRC32 hash (skip zero) : 8A515CE2 AccurateRip signature : B5B5FDEB ->Track not present in AccurateRip database. Statistics Read error : 0 Skipped (treated as error) : 0 Edge jitter error (maybe fixed) : 0 Atom jitter error (maybe fixed) : 0 Drift error (maybe fixed) : 0 Dropped bytes error (maybe fixed) : 0 Duplicated bytes error (maybe fixed) : 0 Inconsistency in error sectors : 0
Track 10 Filename : /Users/Chapski/Music/Torrents/10 - It's Been Done.flac /Users/Chapski/Music/Torrents/10 - It's Been Done.mp3
Track gain : -7.87 dB Peak : 0.988678 CRC32 hash (test run) : 2F713DE6 CRC32 hash : 2F713DE6 CRC32 hash (skip zero) : 9E6277D1 AccurateRip signature : 08EA011D ->Track not present in AccurateRip database. Statistics Read error : 0 Skipped (treated as error) : 0 Edge jitter error (maybe fixed) : 0 Atom jitter error (maybe fixed) : 0 Drift error (maybe fixed) : 0 Dropped bytes error (maybe fixed) : 0 Duplicated bytes error (maybe fixed) : 0 Inconsistency in error sectors : 0
Track 11 Filename : /Users/Chapski/Music/Torrents/11 - You Know Seh Mr. Radics.flac /Users/Chapski/Music/Torrents/11 - You Know Seh Mr. Radics.mp3
Track gain : -5.43 dB Peak : 0.988678 CRC32 hash (test run) : 87B1A6D5 CRC32 hash : 87B1A6D5 CRC32 hash (skip zero) : 5BAD8809 AccurateRip signature : 59E09ED1 ->Track not present in AccurateRip database. Statistics Read error : 0 Skipped (treated as error) : 0 Edge jitter error (maybe fixed) : 0 Atom jitter error (maybe fixed) : 0 Drift error (maybe fixed) : 0 Dropped bytes error (maybe fixed) : 0 Duplicated bytes error (maybe fixed) : 0 Inconsistency in error sectors : 0
Track 12 Filename : /Users/Chapski/Music/Torrents/12 - Dub The Mask.flac /Users/Chapski/Music/Torrents/12 - Dub The Mask.mp3 Pre-gap length : 00:02:00
Track gain : -6.97 dB Peak : 0.988678 CRC32 hash (test run) : A46F8241 CRC32 hash : A46F8241 CRC32 hash (skip zero) : 2EE55D07 AccurateRip signature : 84A48F2E ->Track not present in AccurateRip database. Statistics Read error : 0 Skipped (treated as error) : 0 Edge jitter error (maybe fixed) : 0 Atom jitter error (maybe fixed) : 0 Drift error (maybe fixed) : 0 Dropped bytes error (maybe fixed) : 0 Duplicated bytes error (maybe fixed) : 0 Inconsistency in error sectors : 0
No errors occurred
End of status report

Содержание индексной карты (.CUE)

TITLE "We Wear The Mask"PERFORMER "Bigger Thomas"REM GENRE "Reggae"REM DATE 2005REM DISCNUMBER 1REM TOTALDISCS 1REM DISCID A70C080CREM REPLAYGAIN_ALBUM_GAIN -7.88 dBREM REPLAYGAIN_ALBUM_PEAK 0.988678FILE "01 - Panic!.wav" WAVE TRACK 01 AUDIO TITLE "Panic!" FLAGS DCP REM REPLAYGAIN_TRACK_GAIN -7.84 dB REM REPLAYGAIN_TRACK_PEAK 0.988647 INDEX 01 00:00:00FILE "02 - Say It Again.wav" WAVE TRACK 02 AUDIO TITLE "Say It Again" FLAGS DCP REM REPLAYGAIN_TRACK_GAIN -9.35 dB REM REPLAYGAIN_TRACK_PEAK 0.988678 INDEX 01 00:00:00FILE "03 - Not Right Now.wav" WAVE TRACK 03 AUDIO TITLE "Not Right Now" FLAGS DCP REM REPLAYGAIN_TRACK_GAIN -8.37 dB REM REPLAYGAIN_TRACK_PEAK 0.988678 INDEX 01 00:00:00FILE "04 - How It Has To Be.wav" WAVE TRACK 04 AUDIO TITLE "How It Has To Be" FLAGS DCP REM REPLAYGAIN_TRACK_GAIN -6.54 dB REM REPLAYGAIN_TRACK_PEAK 0.988647 INDEX 01 00:00:00FILE "05 - Less And Less.wav" WAVE TRACK 05 AUDIO TITLE "Less And Less" FLAGS DCP REM REPLAYGAIN_TRACK_GAIN -5.76 dB REM REPLAYGAIN_TRACK_PEAK 0.988678 INDEX 01 00:00:00FILE "06 - We Need To Talk.wav" WAVE TRACK 06 AUDIO TITLE "We Need To Talk" FLAGS DCP REM REPLAYGAIN_TRACK_GAIN -8.43 dB REM REPLAYGAIN_TRACK_PEAK 0.988678 INDEX 01 00:00:00FILE "07 - Trouble.wav" WAVE TRACK 07 AUDIO TITLE "Trouble" FLAGS DCP REM REPLAYGAIN_TRACK_GAIN -9.08 dB REM REPLAYGAIN_TRACK_PEAK 0.988678 INDEX 01 00:00:00FILE "08 - We Wear The Mask.wav" WAVE TRACK 08 AUDIO TITLE "We Wear The Mask" FLAGS DCP REM REPLAYGAIN_TRACK_GAIN -6.26 dB REM REPLAYGAIN_TRACK_PEAK 0.988678 INDEX 01 00:00:00FILE "09 - King For A Day.wav" WAVE TRACK 09 AUDIO TITLE "King For A Day" FLAGS DCP REM REPLAYGAIN_TRACK_GAIN -7.10 dB REM REPLAYGAIN_TRACK_PEAK 0.988678 INDEX 01 00:00:00FILE "10 - It's Been Done.wav" WAVE TRACK 10 AUDIO TITLE "It's Been Done" FLAGS DCP REM REPLAYGAIN_TRACK_GAIN -7.87 dB REM REPLAYGAIN_TRACK_PEAK 0.988678 INDEX 01 00:00:00FILE "11 - You Know Seh Mr. Radics.wav" WAVE TRACK 11 AUDIO TITLE "You Know Seh Mr. Radics" FLAGS DCP REM REPLAYGAIN_TRACK_GAIN -5.43 dB REM REPLAYGAIN_TRACK_PEAK 0.988678 INDEX 01 00:00:00 TRACK 12 AUDIO TITLE "Dub The Mask" FLAGS DCP REM REPLAYGAIN_TRACK_GAIN -6.97 dB REM REPLAYGAIN_TRACK_PEAK 0.988678 INDEX 00 03:56:42FILE "12 - Dub The Mask.wav" WAVE INDEX 01 00:00:00

Лог проверки качества

AUDIOCHECKER v2.0 beta (build 457) - by Dester - opdester@freemail.hu~~~~~~~~~~~~~~~~~~~~~~~~~~~~~~~~~~-=== DO NOT EDIT THIS FILE! ===-
Path: ...\Bigger Thomas - We Wear The Mask FLAC
01 -=- 01 - Panic!.flac -=- CDDA (100%)02 -=- 02 - Say It Again.flac -=- CDDA (100%)03 -=- 03 - Not Right Now.flac -=- CDDA (100%)04 -=- 04 - How It Has To Be.flac -=- CDDA (100%)05 -=- 05 - Less And Less.flac -=- CDDA (100%)06 -=- 06 - We Need To Talk.flac -=- CDDA (100%)07 -=- 07 - Trouble.flac -=- CDDA (100%)08 -=- 08 - We Wear The Mask.flac -=- CDDA (100%)09 -=- 09 - King For A Day.flac -=- CDDA (100%)10 -=- 10 - It's Been Done.flac -=- CDDA (100%)11 -=- 11 - You Know Seh Mr. Radics.flac -=- CDDA (100%)12 -=- 12 - Dub The Mask.flac -=- CDDA (100%)
Summary 100,00% CDDA
9218708


[islamvillage.com]_t_5612540.torrent
Торрент: Зарегистрирован ·  [ 2018-09-15 21:11 ] ·  378fa46273550cd8f8f4faf774b3b492921cc449

14 KB

Статус: проверено
Скачан: 0 раз
Размер: 335 MB
Оценка: 
(Голосов: 0)
Сказали спасибо: 0  Спасибо
Похожие темы
[Профиль]    [ЛС]
Показать сообщения:    
Ответить на тему

Текущее время: Сегодня 14:59

Часовой пояс: GMT + 7



Вы не можете начинать темы
Вы не можете отвечать на сообщения
Вы не можете редактировать свои сообщения
Вы не можете удалять свои сообщения
Вы не можете голосовать в опросах
Вы не можете прикреплять файлы к сообщениям
Вы можете скачивать файлы


Lifestyle | Joseph Mascolo | └ TV, audio e video