(Canadian Rock,) [CD] VA - Like A Hurricane - A Tribute to Neil Young - 2007, ALAC (tracks), lossless

Ответить на тему
Статистика раздачи [Обновить пиров]
Размер:  456 MB   |    Зарегистрирован:  3 месяца 27 дней   |    Скачан:  0 раз

Полного источника не было: Никогда

 
   
 
 
 
Автор Сообщение

islamvillage.com

Создавать темы 19-Сен-2018 22:36

[Цитировать]

VA / Like A Hurricane - A Tribute to Neil Young
Жанр: Canadian Rock,
Носитель: CD
Страна-производитель диска: ВБ
Год издания: 2007
Издатель (лейбл): Uncut
Номер по каталогу: 2007 12
Страна исполнителя (группы): Various
Аудио кодек: ALAC (*.m4a)
Тип рипа: tracks
Программа-конвертер: Собственный рип (iTunes)
Битрейт аудио: lossless
Продолжительность: 01:11:59
Наличие сканов в содержимом раздачи: да
Тексты: отсутствуют
Треклист:
01. Computer Age - Sonic Youth
02. Mr. Soul - Patty Hurst Shifter
03. Birds - Paul Weller
04. Revolution Blues - Waco Brothers
05. Cortez The Killer - Carrie Rodriguez with Tim Easton
06. Cinnamon Girl - Dream Syndicate
07. On The Beach - The Walkabouts
08. Everybody Knows This Is Nowhere - Matthew Sweet and Susanna Hoffs
09. Old Man - Wailin' Jennys
10. After The Gold Rush - The Flaming Lips
11. Helpless - kd lang
12. For The Turnstiles - The Be Good Tanyas
13. Rockin' In The Free World - The Alarm
14. Tired Eyes - Cowboy Junkies
15. Down By The River - Low and Dirty Three
16. Like A Hurricane - Jay Farrar

Audiochecker

AUDIOCHECKER v2.0 beta (build 457) - by Dester - opdester@freemail.hu
~~~~~~~~~~~~~~~~~~~~~~~~~~~~~~~~~~
Started at: Wednesday, 05. 09. 2018. - 10:08.59
16 files found
01 -===- Z:\home\shan\Videos\Transmission Files\Various - Like A Hurricane - A Tribute to Neil Young [2007][Alac]\01 Computer Age.wav
Conclusion: this track is MPEG with probability 95%
02 -===- Z:\home\shan\Videos\Transmission Files\Various - Like A Hurricane - A Tribute to Neil Young [2007][Alac]\02 Mr Soul.wav
Conclusion: this track is MPEG with probability 95%
03 -===- Z:\home\shan\Videos\Transmission Files\Various - Like A Hurricane - A Tribute to Neil Young [2007][Alac]\03 Birds.wav
Conclusion: this track is MPEG with probability 95%
04 -===- Z:\home\shan\Videos\Transmission Files\Various - Like A Hurricane - A Tribute to Neil Young [2007][Alac]\04 Revolution Blues.wav
Conclusion: this track is MPEG with probability 95%
05 -===- Z:\home\shan\Videos\Transmission Files\Various - Like A Hurricane - A Tribute to Neil Young [2007][Alac]\05 Cortez the Killer.wav
Conclusion: this track is MPEG with probability 95%
06 -===- Z:\home\shan\Videos\Transmission Files\Various - Like A Hurricane - A Tribute to Neil Young [2007][Alac]\06 Cinnamon Girl.wav
Conclusion: this track is MPEG with probability 95%
07 -===- Z:\home\shan\Videos\Transmission Files\Various - Like A Hurricane - A Tribute to Neil Young [2007][Alac]\07 On the Beach.wav
Conclusion: this track is MPEG with probability 95%
08 -===- Z:\home\shan\Videos\Transmission Files\Various - Like A Hurricane - A Tribute to Neil Young [2007][Alac]\08 Everybody knows This is Nowhere.wav
Conclusion: this track is MPEG with probability 95%
09 -===- Z:\home\shan\Videos\Transmission Files\Various - Like A Hurricane - A Tribute to Neil Young [2007][Alac]\09 Old Man.wav
Conclusion: this track is MPEG with probability 95%
10 -===- Z:\home\shan\Videos\Transmission Files\Various - Like A Hurricane - A Tribute to Neil Young [2007][Alac]\10 After the Goldrush.wav
Conclusion: this track is MPEG with probability 95%
11 -===- Z:\home\shan\Videos\Transmission Files\Various - Like A Hurricane - A Tribute to Neil Young [2007][Alac]\11 Helpless.wav
Conclusion: this track is MPEG with probability 95%
12 -===- Z:\home\shan\Videos\Transmission Files\Various - Like A Hurricane - A Tribute to Neil Young [2007][Alac]\12 For The Turnstiles.wav
Conclusion: this track is MPEG with probability 95%
13 -===- Z:\home\shan\Videos\Transmission Files\Various - Like A Hurricane - A Tribute to Neil Young [2007][Alac]\13 Rockin' In The Free World.wav
Conclusion: this track is MPEG with probability 95%
14 -===- Z:\home\shan\Videos\Transmission Files\Various - Like A Hurricane - A Tribute to Neil Young [2007][Alac]\14 Tired Eyes.wav
Conclusion: this track is MPEG with probability 95%
15 -===- Z:\home\shan\Videos\Transmission Files\Various - Like A Hurricane - A Tribute to Neil Young [2007][Alac]\15 Down By The River.wav
Conclusion: this track is MPEG with probability 95%
16 -===- Z:\home\shan\Videos\Transmission Files\Various - Like A Hurricane - A Tribute to Neil Young [2007][Alac]\16 Like A Hurricane.wav
Conclusion: this track is MPEG with probability 95%
Finished at: Wednesday, 05. 09. 2018. - 10:10.55 (operation time: 0:01.56)

Лог проверки качества/foo verifier

Foobar plugin
AccurateRip verification results: Various Artists - Like A Hurricane: A Tribute to Neil Young [Uncut]
Track [ CRC ] Status 01 [8f8e1428] (00/54) No matches 02 [ea50e80a] (00/54) No matches 03 [fed2cf95] (00/54) No matches 04 [43fa49ab] (00/54) No matches 05 [406020f8] (00/54) No matches 06 [8e3403bd] (00/55) No matches 07 [0bdaec52] (00/52) No matches 08 [53c43047] (00/52) No matches 09 [3efaefc4] (00/53) No matches 10 [0872b7a9] (00/55) No matches 11 [496b9e40] (00/54) No matches 12 [f372ce34] (00/51) No matches 13 [c53d527a] (00/52) No matches 14 [03d100da] (00/54) No matches 15 [43a81893] (00/52) No matches 16 [e41824b2] (00/51) No matchesOffseted by 6: 01 [963c564c] (31/54) Accurately ripped as in pressing(s) #1 02 [12aae594] (31/54) Accurately ripped as in pressing(s) #1 03 [e3fc8859] (31/54) Accurately ripped as in pressing(s) #1 04 [f768bac1] (31/54) Accurately ripped as in pressing(s) #1 05 [a33e7eac] (31/54) Accurately ripped as in pressing(s) #1 06 [53a189ab] (32/55) Accurately ripped as in pressing(s) #1 07 [972cdacc] (29/52) Accurately ripped as in pressing(s) #1 08 [a3f07e1d] (29/52) Accurately ripped as in pressing(s) #1 09 [7e4cecca] (30/53) Accurately ripped as in pressing(s) #1 10 [868c360f] (32/55) Accurately ripped as in pressing(s) #1 11 [b5a5ad22] (31/54) Accurately ripped as in pressing(s) #1 12 [ac91ae1a] (31/51) Accurately ripped as in pressing(s) #1 13 [55f3fddc] (29/52) Accurately ripped as in pressing(s) #1 14 [86f4ef4e] (31/54) Accurately ripped as in pressing(s) #1 15 [1bf8c9df] (30/52) Accurately ripped as in pressing(s) #1 16 [f77603c8] (30/51) Accurately ripped as in pressing(s) #1
Track [ CRC32 ] [W/O NULL] 01 [382257BD] [5F1BF9FE] 02 [8651047E] [6F167B53] 03 [F3CF7870] [DAEC3164] 04 [DE5A1016] [9D57DA1C] 05 [62A641DC] [86DB012F] 06 [6613FB04] [3E7C2F8E] 07 [994547F0] [6D1523C0] 08 [828F49B6] [C34F6458] 09 [AF65C42D] [F34335C6] 10 [815B75D4] [C4B1ED3D] 11 [A9A86D02] [87B75908] 12 [32356E53] [AFCC7590] 13 [2DEF3C6B] [6615C2AD] 14 [1D6BB485] [8FB7D7AF] 15 [3C0397AF] [F5E7F713] 16 [2A80D902] [9D70C0EE]

Скриншот(ы) тегов iTunes

[img]http://s8.postimg.cc/j4uiwc2gx/itunes_screenshot.png[/img]


[islamvillage.com]_t_5603392.torrent
Торрент: Зарегистрирован ·  [ 2018-09-19 22:35 ] ·  c5b05b425dcd26594c7a5fa8b48514156f9719cf

37 KB

Статус: проверено
Скачан: 0 раз
Размер: 456 MB
Оценка: 
(Голосов: 0)
Сказали спасибо: 0  Спасибо
Похожие темы
[Профиль]    [ЛС]
Показать сообщения:    
Ответить на тему

Текущее время: Сегодня 11:30

Часовой пояс: GMT + 7



Вы не можете начинать темы
Вы не можете отвечать на сообщения
Вы не можете редактировать свои сообщения
Вы не можете удалять свои сообщения
Вы не можете голосовать в опросах
Вы не можете прикреплять файлы к сообщениям
Вы можете скачивать файлы


Eddie Marr | IMDb: 6 HD Videomannen | Abolishing The Death Penalty