(Electronic, indie, rock, alternative) [CD] Big Red Machine (Justin Vernon of Bon Iver & Aaron Dessner of The National) - Big Red Machine - 2018, ALAC (tracks+.cue), lossless

Ответить на тему
Статистика раздачи [Обновить пиров]
Размер:  283 MB   |    Зарегистрирован:  3 месяца 27 дней   |    Скачан:  1 раз

Полного источника не было: 1 месяц 20 дней

 
   
 
 
 
Автор Сообщение

islamvillage.com

Создавать темы 19-Сен-2018 22:36

[Цитировать]

Big Red Machine - Big Red Machine-Год: 2018||Страна: USA||Жанр: Electronic, indie, rock, alternative
Издатель (лейбл): Jagjaguwar||Сканы: Digital booklet||Источник: redacted
Тип рипа: tracks+.cue||Тексты: вшиты||Кодек: ALAC (*.m4a)||Битрейт: lossless- Продолжительность: 00:46:57
Треклист:
01 Deep Green (04:01)
02 Gratitude (05:56)
03 Lyla (05:11)
04 Air Stryp (02:04)
05 Hymnostic (03:03)
06 Forest Green (05:49)
07 OMDB (07:43)
08 People Lullaby (05:23)
09 I Won't Run from It (03:39)
10 Melt (04:08)

Лог создания рипа:

Exact Audio Copy V1.3 from 2. September 2016
EAC extraction logfile from 31. August 2018, 11:41
Big Red Machine / Big Red Machine
Used drive : PLEXTOR CD-R PX-230A Adapter: 1 ID: 0
Read mode : SecureUtilize accurate stream : YesDefeat audio cache : YesMake use of C2 pointers : No
Read offset correction : 738Overread into Lead-In and Lead-Out : NoFill up missing offset samples with silence : YesDelete leading and trailing silent blocks : NoNull samples used in CRC calculations : YesUsed interface : Native Win32 interface for Win NT & 2000Gap handling : Appended to previous track
Used output format : User Defined EncoderSelected bitrate : 768 kBit/sQuality : HighAdd ID3 tag : NoCommand line compressor : C:\Program Files (x86)\Exact Audio Copy\FLAC\FLAC.EXEAdditional command line options : -8 -V -T "ARTIST=%artist%" -T "TITLE=%title%" -T "ALBUM=%albumtitle%" -T "DATE=%year%" -T "TRACKNUMBER=%tracknr%" -T "GENRE=%genre%" -T "COMMENT=%comment%" -T "BAND=%albuminterpret%" -T "ALBUMARTIST=%albuminterpret%" -T "COMPOSER=%composer%" %haslyrics%--tag-from-file=LYRICS="%lyricsfile%"%haslyrics% -T "DISCNUMBER=%cdnumber%" -T "TOTALDISCS=%totalcds%" -T "TOTALTRACKS=%numtracks%" %hascover%--picture="%coverfile%"%hascover% %source% -o %dest%
TOC of the extracted CD
Track | Start | Length | Start sector | End sector --------------------------------------------------------- 1 | 0:00.00 | 4:01.03 | 0 | 18077 2 | 4:01.03 | 5:56.27 | 18078 | 44804 3 | 9:57.30 | 5:10.54 | 44805 | 68108 4 | 15:08.09 | 2:03.63 | 68109 | 77396 5 | 17:11.72 | 3:02.54 | 77397 | 91100 6 | 20:14.51 | 5:49.15 | 91101 | 117290 7 | 26:03.66 | 7:42.62 | 117291 | 152002 8 | 33:46.53 | 5:23.22 | 152003 | 176249 9 | 39:10.00 | 3:38.59 | 176250 | 192658 10 | 42:48.59 | 4:07.39 | 192659 | 211222
Track 1
Filename C:\EAC\Big Red Machine-Big Red Machine-2018-FLAC\01-Deep Green.wav
Pre-gap length 0:00:02.00
Peak level 99.3 % Extraction speed 6.8 X Track quality 99.9 % Test CRC 7726CB4A Copy CRC 7726CB4A Track not present in AccurateRip database Copy OK
Track 2
Filename C:\EAC\Big Red Machine-Big Red Machine-2018-FLAC\02-Gratitude.wav
Peak level 100.0 % Extraction speed 8.8 X Track quality 100.0 % Test CRC D7CD39E2 Copy CRC D7CD39E2 Track not present in AccurateRip database Copy OK
Track 3
Filename C:\EAC\Big Red Machine-Big Red Machine-2018-FLAC\03-Lyla.wav
Peak level 99.6 % Extraction speed 8.7 X Track quality 99.9 % Test CRC F43F658A Copy CRC F43F658A Track not present in AccurateRip database Copy OK
Track 4
Filename C:\EAC\Big Red Machine-Big Red Machine-2018-FLAC\04-Air Stryp.wav
Peak level 99.3 % Extraction speed 7.2 X Track quality 99.9 % Test CRC 67554E12 Copy CRC 67554E12 Track not present in AccurateRip database Copy OK
Track 5
Filename C:\EAC\Big Red Machine-Big Red Machine-2018-FLAC\05-Hymnostic.wav
Peak level 99.1 % Extraction speed 8.5 X Track quality 100.0 % Test CRC AA94BAAD Copy CRC AA94BAAD Track not present in AccurateRip database Copy OK
Track 6
Filename C:\EAC\Big Red Machine-Big Red Machine-2018-FLAC\06-Forest Green.wav
Peak level 99.2 % Extraction speed 8.7 X Track quality 100.0 % Test CRC F5BF43FC Copy CRC F5BF43FC Track not present in AccurateRip database Copy OK
Track 7
Filename C:\EAC\Big Red Machine-Big Red Machine-2018-FLAC\07-Omdb.wav
Peak level 99.3 % Extraction speed 9.0 X Track quality 99.9 % Test CRC A1CE118B Copy CRC A1CE118B Track not present in AccurateRip database Copy OK
Track 8
Filename C:\EAC\Big Red Machine-Big Red Machine-2018-FLAC\08-People Lullaby.wav
Peak level 99.0 % Extraction speed 9.9 X Track quality 100.0 % Test CRC FA7BFA02 Copy CRC FA7BFA02 Track not present in AccurateRip database Copy OK
Track 9
Filename C:\EAC\Big Red Machine-Big Red Machine-2018-FLAC\09-I Won't Run From It.wav
Peak level 99.3 % Extraction speed 8.9 X Track quality 99.9 % Test CRC EF8ED4B6 Copy CRC EF8ED4B6 Track not present in AccurateRip database Copy OK
Track 10
Filename C:\EAC\Big Red Machine-Big Red Machine-2018-FLAC\10-Melt.wav
Peak level 99.4 % Extraction speed 9.2 X Track quality 100.0 % Test CRC 6EF3D449 Copy CRC 6EF3D449 Track not present in AccurateRip database Copy OK
None of the tracks are present in the AccurateRip database
No errors occurred
End of status report
---- CUETools DB Plugin V2.1.6
[CTDB TOCID: 8BCmfoqY0iyAnW8rvA1dDRaUFKM-] disk not present in databaseSubmit result: 8BCmfoqY0iyAnW8rvA1dDRaUFKM- has been uploaded
==== Log checksum 4E0DF5B7037556BA6C299FCC7A2F5D3C53A4CE682C046729EC3208C529141099 ====

Содержание индексной карты (.CUE):

REM GENRE "Alternative"REM DATE 2018REM DISCID 740B000APERFORMER "Big Red Machine"TITLE "Big Red Machine"REM COMPOSER ""REM DISCNUMBER 1REM TOTALDISCS 1FILE "01 Deep Green.m4a" WAVE TRACK 01 AUDIO TITLE "Deep Green" PERFORMER "Big Red Machine" REM COMPOSER "" ISRC US38Y1833501 INDEX 01 00:00:00FILE "02 Gratitude.m4a" WAVE TRACK 02 AUDIO TITLE "Gratitude" PERFORMER "Big Red Machine" REM COMPOSER "" ISRC US38Y1833502 INDEX 01 00:00:00FILE "03 Lyla.m4a" WAVE TRACK 03 AUDIO TITLE "Lyla" PERFORMER "Big Red Machine" REM COMPOSER "" ISRC US38Y1833503 INDEX 01 00:00:00FILE "04 Air Stryp.m4a" WAVE TRACK 04 AUDIO TITLE "Air Stryp" PERFORMER "Big Red Machine" REM COMPOSER "" ISRC US38Y1833504 INDEX 01 00:00:00FILE "05 Hymnostic.m4a" WAVE TRACK 05 AUDIO TITLE "Hymnostic" PERFORMER "Big Red Machine" REM COMPOSER "" ISRC US38Y1833505 INDEX 01 00:00:00FILE "06 Forest Green.m4a" WAVE TRACK 06 AUDIO TITLE "Forest Green" PERFORMER "Big Red Machine" REM COMPOSER "" ISRC US38Y1833506 INDEX 01 00:00:00FILE "07 OMDB.m4a" WAVE TRACK 07 AUDIO TITLE "OMDB" PERFORMER "Big Red Machine" REM COMPOSER "" ISRC US38Y1833507 INDEX 01 00:00:00FILE "08 People Lullaby.m4a" WAVE TRACK 08 AUDIO TITLE "People Lullaby" PERFORMER "Big Red Machine" REM COMPOSER "" ISRC US38Y1833508 INDEX 01 00:00:00FILE "09 I Won't Run from It.m4a" WAVE TRACK 09 AUDIO TITLE "I Won't Run from It" PERFORMER "Big Red Machine" REM COMPOSER "" ISRC US38Y1833509 INDEX 01 00:00:00FILE "10 Melt.m4a" WAVE TRACK 10 AUDIO TITLE "Melt" PERFORMER "Big Red Machine" REM COMPOSER "" ISRC US38Y1833510 INDEX 01 00:00:00

Скриншот тегов iTunes



[islamvillage.com]_t_5608593.torrent
Торрент: Зарегистрирован ·  [ 2018-09-19 22:35 ] ·  04d28a35cf190b38e7c93b8d840fc53dae8b7a83

12 KB

Статус: проверено
Скачан: 1 раз
Размер: 283 MB
Оценка: 
(Голосов: 0)
Сказали спасибо: 0  Спасибо
Похожие темы
[Профиль]    [ЛС]
Показать сообщения:    
Ответить на тему

Текущее время: Сегодня 12:30

Часовой пояс: GMT + 7



Вы не можете начинать темы
Вы не можете отвечать на сообщения
Вы не можете редактировать свои сообщения
Вы не можете удалять свои сообщения
Вы не можете голосовать в опросах
Вы не можете прикреплять файлы к сообщениям
Вы можете скачивать файлы


Mirror #1 | Gelcoat Gris de finition / Topcoat 5KG | America Ferrera