(Reggae, Ska, Soul) [CD] The Hi Hats - Ska Got Soul - 1996, FLAC (tracks+.cue), lossless

Ответить на тему
Статистика раздачи [Обновить пиров]
Размер:  264 MB   |    Зарегистрирован:  4 месяца 28 дней   |    Скачан:  0 раз

Полного источника не было: Никогда

 
   
 
 
 
Автор Сообщение

islamvillage.com

Создавать темы 23-Сен-2018 18:34

[Цитировать]

The Hi Hats / Ska Got Soul
[img=right]http://i100.fastpic.ru/big/2018/0919/69/d307f510b2...ad1e69.jpg[/img]
Жанр: Reggae, Ska, Soul
Носитель: CD
Страна-производитель диска (релиза): US
Год издания: 1996
Издатель (лейбл): Titan Music
Аудиокодек: FLAC (*.flac)
Тип рипа: tracks+.cue
Битрейт аудио: lossless
Источник (релизер): локальная сеть
Наличие сканов в содержимом раздачи: нет
Треклист:
1 Are You Ready?
2 Too Hip
3 Tarzan
4 Real Deal
5 She's My
6 Ska Got Soul
7 Separate Ways
8 No Way Out
9 HizUzi
10 Why Can't We Learn?
11 Just Askin'
12 Summertime

Лог создания рипа

Exact Audio Copy V0.99 prebeta 5 from 4. May 2009
EAC extraction logfile from 25. October 2010, 23:29
The Hi Hats / Ska Got Soul
Used drive : PBDS DVD+-RW DS-8W1P Adapter: 3 ID: 0
Read mode : SecureUtilize accurate stream : YesDefeat audio cache : YesMake use of C2 pointers : No
Read offset correction : 594Overread into Lead-In and Lead-Out : NoFill up missing offset samples with silence : YesDelete leading and trailing silent blocks : NoNull samples used in CRC calculations : YesUsed interface : Native Win32 interface for Win NT & 2000Gap handling : Appended to previous track
Used output format : User Defined EncoderSelected bitrate : 320 kBit/sQuality : HighAdd ID3 tag : NoCommand line compressor : C:\Program Files\Exact Audio Copy\Flac\flac.exeAdditional command line options : -V -8 -T "artist=%a" -T "title=%t" -T "album=%g" -T "date=%y" -T "tracknumber=%n" -T "genre=%m" %s
TOC of the extracted CD
Track | Start | Length | Start sector | End sector --------------------------------------------------------- 1 | 0:00.00 | 3:34.52 | 0 | 16101 2 | 3:34.52 | 3:20.03 | 16102 | 31104 3 | 6:54.55 | 0:43.07 | 31105 | 34336 4 | 7:37.62 | 3:37.45 | 34337 | 50656 5 | 11:15.32 | 4:11.65 | 50657 | 69546 6 | 15:27.22 | 3:29.45 | 69547 | 85266 7 | 18:56.67 | 3:01.30 | 85267 | 98871 8 | 21:58.22 | 3:11.60 | 98872 | 113256 9 | 25:10.07 | 3:35.40 | 113257 | 129421 10 | 28:45.47 | 4:19.20 | 129422 | 148866 11 | 33:04.67 | 3:15.15 | 148867 | 163506 12 | 36:20.07 | 3:08.48 | 163507 | 177654
Track 1
Filename E:\Music\The Hi Hats - 1996 - Ska Got Soul\01 - Are You Ready .wav
Pre-gap length 0:00:02.00
Peak level 95.1 % Track quality 100.0 % Test CRC 5CAA58FF Copy CRC 5CAA58FF Cannot be verified as accurate (confidence 1) [C18FA961], AccurateRip returned [EEEF523D] Copy OK
Track 2
Filename E:\Music\The Hi Hats - 1996 - Ska Got Soul\02 - Too Hip.wav
Peak level 95.6 % Track quality 100.0 % Test CRC 02C3A896 Copy CRC 02C3A896 Cannot be verified as accurate (confidence 1) [5B8FEC02], AccurateRip returned [E8C3B84F] Copy OK
Track 3
Filename E:\Music\The Hi Hats - 1996 - Ska Got Soul\03 - Tarzan.wav
Peak level 95.6 % Track quality 100.0 % Test CRC 188C9771 Copy CRC 188C9771 Cannot be verified as accurate (confidence 1) [E57D6344], AccurateRip returned [74CBD9BC] Copy OK
Track 4
Filename E:\Music\The Hi Hats - 1996 - Ska Got Soul\04 - Real Deal.wav
Peak level 95.6 % Track quality 100.0 % Test CRC 18C3249B Copy CRC 18C3249B Cannot be verified as accurate (confidence 1) [B4369045], AccurateRip returned [FC569AB5] Copy OK
Track 5
Filename E:\Music\The Hi Hats - 1996 - Ska Got Soul\05 - She's My.wav
Peak level 95.6 % Track quality 100.0 % Test CRC F97F1B3A Copy CRC F97F1B3A Cannot be verified as accurate (confidence 1) [0A57E6E1], AccurateRip returned [D97F1DF4] Copy OK
Track 6
Filename E:\Music\The Hi Hats - 1996 - Ska Got Soul\06 - Ska Got Soul.wav
Peak level 95.6 % Track quality 100.0 % Test CRC A68DB259 Copy CRC A68DB259 Cannot be verified as accurate (confidence 1) [B2629FD2], AccurateRip returned [8CCD2D98] Copy OK
Track 7
Filename E:\Music\The Hi Hats - 1996 - Ska Got Soul\07 - Seperate Ways.wav
Pre-gap length 0:00:02.00
Peak level 95.6 % Track quality 100.0 % Test CRC 97F57D0D Copy CRC 97F57D0D Track not present in AccurateRip database Copy OK
Track 8
Filename E:\Music\The Hi Hats - 1996 - Ska Got Soul\08 - No Way Out.wav
Peak level 96.4 % Track quality 100.0 % Test CRC 6CECE746 Copy CRC 6CECE746 Track not present in AccurateRip database Copy OK
Track 9
Filename E:\Music\The Hi Hats - 1996 - Ska Got Soul\09 - HizUzi.wav
Peak level 95.6 % Track quality 99.9 % Test CRC E065E3B3 Copy CRC E065E3B3 Track not present in AccurateRip database Copy OK
Track 10
Filename E:\Music\The Hi Hats - 1996 - Ska Got Soul\10 - Why Can't We Learn .wav
Peak level 95.6 % Track quality 100.0 % Test CRC 8931FCC0 Copy CRC 8931FCC0 Track not present in AccurateRip database Copy OK
Track 11
Filename E:\Music\The Hi Hats - 1996 - Ska Got Soul\11 - Just Askin'.wav
Pre-gap length 0:00:20.26
Peak level 95.5 % Track quality 100.0 % Test CRC 2DA5DFC0 Copy CRC 2DA5DFC0 Cannot be verified as accurate (confidence 2) [27AB895C], AccurateRip returned [D31A99CA] Copy OK
Track 12
Filename E:\Music\The Hi Hats - 1996 - Ska Got Soul\12 - Summertime.wav
Pre-gap length 0:00:02.82
Peak level 97.1 % Track quality 99.9 % Test CRC D8509F62 Copy CRC D8509F62 Track not present in AccurateRip database Copy OK
7 track(s) could not be verified as accurate 5 track(s) not present in the AccurateRip database
No tracks could be verified as accurateYou may have a different pressing from the one(s) in the database
No errors occurred
End of status report

Содержание индексной карты (.CUE)

REM GENRE SkaREM DATE 1996REM DISCID A209400CREM COMMENT "ExactAudioCopy v0.99pb5"FILE "01 - Are You Ready .wav" WAVE TRACK 01 AUDIO INDEX 01 00:00:00FILE "02 - Too Hip.wav" WAVE TRACK 02 AUDIO INDEX 01 00:00:00FILE "03 - Tarzan.wav" WAVE TRACK 03 AUDIO INDEX 01 00:00:00FILE "04 - Real Deal.wav" WAVE TRACK 04 AUDIO INDEX 01 00:00:00FILE "05 - She's My.wav" WAVE TRACK 05 AUDIO INDEX 01 00:00:00FILE "06 - Ska Got Soul.wav" WAVE TRACK 06 AUDIO INDEX 01 00:00:00 TRACK 07 AUDIO INDEX 00 03:27:45FILE "07 - Seperate Ways.wav" WAVE INDEX 01 00:00:00FILE "08 - No Way Out.wav" WAVE TRACK 08 AUDIO INDEX 01 00:00:00FILE "09 - HizUzi.wav" WAVE TRACK 09 AUDIO INDEX 01 00:00:00FILE "10 - Why Can't We Learn .wav" WAVE TRACK 10 AUDIO INDEX 01 00:00:00 TRACK 11 AUDIO INDEX 00 03:59:00FILE "11 - Just Askin'.wav" WAVE INDEX 01 00:00:00 TRACK 12 AUDIO INDEX 00 03:12:28FILE "12 - Summertime.wav" WAVE INDEX 01 00:00:00

Лог проверки качества

AUDIOCHECKER v2.0 beta (build 457) - by Dester - opdester@freemail.hu~~~~~~~~~~~~~~~~~~~~~~~~~~~~~~~~~~-=== DO NOT EDIT THIS FILE! ===-
Path: ...\The Hi Hats - 1996 - Ska Got Soul
01 -=- 01 - Are You Ready .flac -=- CDDA (100%)02 -=- 02 - Too Hip.flac -=- CDDA (100%)03 -=- 03 - Tarzan.flac -=- CDDA (100%)04 -=- 04 - Real Deal.flac -=- CDDA (100%)05 -=- 05 - She's My.flac -=- CDDA (100%)06 -=- 06 - Ska Got Soul.flac -=- CDDA (100%)07 -=- 07 - Seperate Ways.flac -=- CDDA (100%)08 -=- 08 - No Way Out.flac -=- CDDA (100%)09 -=- 09 - HizUzi.flac -=- CDDA (100%)10 -=- 10 - Why Can't We Learn .flac -=- CDDA (100%)11 -=- 11 - Just Askin'.flac -=- CDDA (100%)12 -=- 12 - Summertime.flac -=- CDDA (100%)
Summary 100,00% CDDA
243827668


[islamvillage.com]_t_5615723.torrent
Торрент: Зарегистрирован ·  [ 2018-09-23 18:31 ] ·  3312b0b2820631d06cc60f056cb93266f198e3b8

12 KB

Статус: проверено
Скачан: 0 раз
Размер: 264 MB
Оценка: 
(Голосов: 0)
Сказали спасибо: 0  Спасибо
Похожие темы
[Профиль]    [ЛС]
Показать сообщения:    
Ответить на тему

Текущее время: Сегодня 22:34

Часовой пояс: GMT + 7



Вы не можете начинать темы
Вы не можете отвечать на сообщения
Вы не можете редактировать свои сообщения
Вы не можете удалять свои сообщения
Вы не можете голосовать в опросах
Вы не можете прикреплять файлы к сообщениям
Вы можете скачивать файлы


Logan 2017 HC HDRip XViD AC3-ETRG | Watch movie | James Bond 007 Spectre 2015