(Indie) Мишины Дельфины (Мишины Dolphin\'ы) - Игрушки - 1997, ALAC (tracks+.cue), lossless

Ответить на тему
Статистика раздачи [Обновить пиров]
Размер:  233 MB   |    Зарегистрирован:  4 месяца 25 дней   |    Скачан:  0 раз

Полного источника не было: Никогда

 
   
 
 
 
Автор Сообщение

islamvillage.com

Создавать темы 26-Сен-2018 22:27

[Цитировать]

Мишины Дельфины (Мишины Dolphin'ы) / Игрушки
Жанр: Indie
Страна-производитель диска: Россия
Год издания: 1997
Издатель (лейбл): Элиас Records
Номер по каталогу: ЭРCD005167
Страна исполнителя (группы): Россия
Аудио кодек: ALAC (*.m4a)
Тип рипа: tracks+.cue
Программа-конвертер: Собственный рип (EAC)
Битрейт аудио: lossless
Продолжительность: 00:37:06
Наличие сканов в содержимом раздачи: да
Тексты: вшиты
Источник : Собственный диск
Треклист:
01. Игрушки
02. Обратный отсчёт
03. Наверное всё
04. Ожидание лета
05. Первый поцелуй
06. Поп корн
07. О друзьях
08. Резьба
09. Прозрачная

Лог создания рипа

Exact Audio Copy V1.3 from 2. September 2016
Отчёт EAC об извлечении, выполненном 19. сентября 2018, 0:36
Мишины Дельфины / Игрушки
Дисковод: HL-DT-STDVDRAM GP60NB50 Adapter: 1 ID: 0
Режим чтения : ДостоверностьИспользование точного потока : ДаОтключение кэша аудио : ДаИспользование указателей C2 : Нет
Коррекция смещения при чтении : 6Способность читать области Lead-in и Lead-out : НетЗаполнение пропущенных сэмплов тишиной : ДаУдаление блоков с тишиной в начале и конце : НетПри вычислениях CRC использовались нулевые сэмплы : ДаИнтерфейс : Встроенный Win32-интерфейс для Win NT/2000Обработка зазоров : Добавлено к предыдущему треку
Выходной формат : Пользовательский кодировщикВыбранный битрейт : 128 kBit/sКачество : ВысокийДобавление ID3-тега : НетУтилита сжатия : C:\Users\Антон\Downloads\qaac_2.66\qaac_2.66\x64\refalac64.exeДополнительные параметры : -s --ignorelength --artist "%artist%" --title "%title%" --album "%albumtitle%" --date "%year%" --track "%tracknr%" --genre "%genre%" -o %dest% %source%
TOC извлечённого CD
Трек | Старт | Длительность | Начальный сектор | Конечный сектор --------------------------------------------------------------------- 1 | 0:00.00 | 3:32.37 | 0 | 15936 2 | 3:32.37 | 4:00.13 | 15937 | 33949 3 | 7:32.50 | 4:01.67 | 33950 | 52091 4 | 11:34.42 | 6:26.25 | 52092 | 81066 5 | 18:00.67 | 2:20.08 | 81067 | 91574 6 | 20:21.00 | 5:15.35 | 91575 | 115234 7 | 25:36.35 | 1:47.10 | 115235 | 123269 8 | 27:23.45 | 1:37.72 | 123270 | 130616 9 | 29:01.42 | 8:04.20 | 130617 | 166936
Трек 1
Имя файла C:\Users\Антон\Downloads\Музыка\Мишины Дельфины - Игрушки (1997)\01 Игрушки.wav
Длина предзазора 0:00:02.00
Пиковый уровень 87.2 % Скорость извлечения 0.9 X Качество трека 99.9 % CRC теста AE41368F CRC копии AE41368F Трек не обнаружен в базе AccurateRip Копирование... OK
Трек 2
Имя файла C:\Users\Антон\Downloads\Музыка\Мишины Дельфины - Игрушки (1997)\02 Обратный отсчёт.wav
Длина предзазора 0:00:01.15
Пиковый уровень 87.6 % Скорость извлечения 1.2 X Качество трека 100.0 % CRC теста 301D1FE9 CRC копии 301D1FE9 Трек не обнаружен в базе AccurateRip Копирование... OK
Трек 3
Имя файла C:\Users\Антон\Downloads\Музыка\Мишины Дельфины - Игрушки (1997)\03 Наверное всё.wav
Длина предзазора 0:00:02.48
Пиковый уровень 83.9 % Скорость извлечения 1.3 X Качество трека 100.0 % CRC теста E40177FC CRC копии E40177FC Трек не обнаружен в базе AccurateRip Копирование... OK
Трек 4
Имя файла C:\Users\Антон\Downloads\Музыка\Мишины Дельфины - Игрушки (1997)\04 Ожидание лета.wav
Длина предзазора 0:00:01.22
Пиковый уровень 100.0 % Скорость извлечения 1.5 X Качество трека 100.0 % CRC теста B4CBB517 CRC копии B4CBB517 Трек не обнаружен в базе AccurateRip Копирование... OK
Трек 5
Имя файла C:\Users\Антон\Downloads\Музыка\Мишины Дельфины - Игрушки (1997)\05 Первый поцелуй.wav
Длина предзазора 0:00:01.25
Пиковый уровень 88.2 % Скорость извлечения 1.2 X Качество трека 99.9 % CRC теста 88DE1600 CRC копии 88DE1600 Трек не обнаружен в базе AccurateRip Копирование... OK
Трек 6
Имя файла C:\Users\Антон\Downloads\Музыка\Мишины Дельфины - Игрушки (1997)\06 Поп корн.wav
Длина предзазора 0:00:01.33
Пиковый уровень 100.0 % Скорость извлечения 1.7 X Качество трека 100.0 % CRC теста 773BC65F CRC копии 773BC65F Трек не обнаружен в базе AccurateRip Копирование... OK
Трек 7
Имя файла C:\Users\Антон\Downloads\Музыка\Мишины Дельфины - Игрушки (1997)\07 О друзьях.wav
Длина предзазора 0:00:01.20
Пиковый уровень 100.0 % Скорость извлечения 1.4 X Качество трека 100.0 % CRC теста F975A392 CRC копии F975A392 Трек не обнаружен в базе AccurateRip Копирование... OK
Трек 8
Имя файла C:\Users\Антон\Downloads\Музыка\Мишины Дельфины - Игрушки (1997)\08 Резьба.wav
Длина предзазора 0:00:01.13
Пиковый уровень 100.0 % Скорость извлечения 1.1 X Качество трека 99.8 % CRC теста B0259519 CRC копии B0259519 Трек не обнаружен в базе AccurateRip Копирование... OK
Трек 9
Имя файла C:\Users\Антон\Downloads\Музыка\Мишины Дельфины - Игрушки (1997)\09 Прозрачная.wav
Длина предзазора 0:00:02.07
Пиковый уровень 100.0 % Скорость извлечения 2.0 X Качество трека 100.0 % CRC теста 7262E223 CRC копии 7262E223 Трек не обнаружен в базе AccurateRip Копирование... OK
Ни одного трека нет в базе AccurateRip
Ошибок не произошло
Конец отчёта
---- CUETools DB Plugin V2.1.6
[CTDB TOCID: 27Gjv7Mo75Oovv0FcLdcOCDC_1E-] disk not present in databaseSubmit result: 27Gjv7Mo75Oovv0FcLdcOCDC_1E- has been uploaded
==== Контрольная сумма отчёта C678D8617EF0E94DA446657D2FE5E74C5D511B9BBA44A6075B1E65984F3EB8DD ====

Содержание индексной карты (.CUE)

REM GENRE IndieREM DATE 1997REM DISCID 6E08B109REM COMMENT "ExactAudioCopy v1.3"PERFORMER "Мишины Дельфины"TITLE "Игрушки"REM COMPOSER ""FILE "01 Игрушки.wav" WAVE TRACK 01 AUDIO TITLE "Игрушки " PERFORMER "Мишины Дельфины" REM COMPOSER "" INDEX 01 00:00:00 TRACK 02 AUDIO TITLE "Обратный отсчёт" PERFORMER "Мишины Дельфины" REM COMPOSER "" INDEX 00 03:31:22FILE "02 Обратный отсчёт.wav" WAVE INDEX 01 00:00:00 TRACK 03 AUDIO TITLE "Наверное всё" PERFORMER "Мишины Дельфины" REM COMPOSER "" INDEX 00 03:57:40FILE "03 Наверное всё.wav" WAVE INDEX 01 00:00:00 TRACK 04 AUDIO TITLE "Ожидание лета" PERFORMER "Мишины Дельфины" REM COMPOSER "" INDEX 00 04:00:45FILE "04 Ожидание лета.wav" WAVE INDEX 01 00:00:00 TRACK 05 AUDIO TITLE "Первый поцелуй" PERFORMER "Мишины Дельфины" REM COMPOSER "" INDEX 00 06:25:00FILE "05 Первый поцелуй.wav" WAVE INDEX 01 00:00:00 TRACK 06 AUDIO TITLE "Поп корн" PERFORMER "Мишины Дельфины" REM COMPOSER "" INDEX 00 02:18:50FILE "06 Поп корн.wav" WAVE INDEX 01 00:00:00 TRACK 07 AUDIO TITLE "О друзьях" PERFORMER "Мишины Дельфины" REM COMPOSER "" INDEX 00 05:14:15FILE "07 О друзьях.wav" WAVE INDEX 01 00:00:00 TRACK 08 AUDIO TITLE "Резьба " PERFORMER "Мишины Дельфины" REM COMPOSER "" INDEX 00 01:45:72FILE "08 Резьба.wav" WAVE INDEX 01 00:00:00 TRACK 09 AUDIO TITLE "Прозрачная " PERFORMER "Мишины Дельфины" REM COMPOSER "" INDEX 00 01:35:65FILE "09 Прозрачная.wav" WAVE INDEX 01 00:00:00

Лог проверки качества

CUE Corrector v. 8.3.4 / b. 875 (Sep. 12, 2018)————————————————————————————————————————————————————————————————————————--- / Игрушки
Folder: Мишины Дельфины - Игрушки (1997)Audio files: 01 Игрушки.m4a [03:32.493; ALAC • 789 kbps • 16 bit \ 44100 Hz • stereo; 20.01 MB (20 984 448 B)] 02 Обратный отсчёт.m4a [04:00.173; ALAC • 742 kbps • 16 bit \ 44100 Hz • stereo; 21.27 MB (22 303 565 B)] 03 Наверное всё.m4a [04:01.893; ALAC • 835 kbps • 16 bit \ 44100 Hz • stereo; 24.12 MB (25 287 658 B)] 04 Ожидание лета.m4a [06:26.333; ALAC • 824 kbps • 16 bit \ 44100 Hz • stereo; 38.01 MB (39 856 866 B)] 05 Первый поцелуй.m4a [02:20.107; ALAC • 838 kbps • 16 bit \ 44100 Hz • stereo; 14.01 MB (14 691 550 B)] 06 Поп корн.m4a [05:15.467; ALAC • 799 kbps • 16 bit \ 44100 Hz • stereo; 30.09 MB (31 555 502 B)] 07 О друзьях.m4a [01:47.133; ALAC • 731 kbps • 16 bit \ 44100 Hz • stereo; 9.35 MB (9 799 276 B)] 08 Резьба.m4a [01:37.960; ALAC • 623 kbps • 16 bit \ 44100 Hz • stereo; 7.28 MB (7 637 595 B)] 09 Прозрачная.m4a [08:04.267; ALAC • 826 kbps • 16 bit \ 44100 Hz • stereo; 47.74 MB (50 060 315 B)]
Accuracy: -m0
File 01 Игрушки - 100% CDDA [03:32:37]
Detected average hi-boundary frequency : 20305.710 Hz Detected average lo-boundary frequency : 13956.160 Hz Detected average hi-cut frequency : 21883.780 Hz Detected average lo-cut frequency : 10607.900 Hz Maximum probablis boundary frequency : 21891.000 Hz Coefficient of nonlinearity of a phase : 0.15048360 First order smothness : 0.50503280 Second order smothness : 0.51509850
File 02 Обратный отсчёт - 100% CDDA [04:00:13]
Detected average hi-boundary frequency : 20316.900 Hz Detected average lo-boundary frequency : 14453.440 Hz Detected average hi-cut frequency : 21841.090 Hz Detected average lo-cut frequency : 14116.800 Hz Maximum probablis boundary frequency : 21891.000 Hz Coefficient of nonlinearity of a phase : 0.37773180 First order smothness : 0.44663570 Second order smothness : 0.64887860
File 03 Наверное всё - 100% CDDA [04:01:67]
Detected average hi-boundary frequency : 20136.700 Hz Detected average lo-boundary frequency : 13917.510 Hz Detected average hi-cut frequency : 21891.060 Hz Detected average lo-cut frequency : 12378.350 Hz Maximum probablis boundary frequency : 21891.000 Hz Coefficient of nonlinearity of a phase : 0.31907140 First order smothness : 0.43570060 Second order smothness : 0.50441460
File 04 Ожидание лета - 100% CDDA [06:26:25]
Detected average hi-boundary frequency : 20313.630 Hz Detected average lo-boundary frequency : 14005.400 Hz Detected average hi-cut frequency : 21777.180 Hz Detected average lo-cut frequency : 14884.200 Hz Maximum probablis boundary frequency : 21148.000 Hz Coefficient of nonlinearity of a phase : 0.19515510 First order smothness : 0.42867450 Second order smothness : 0.69497230
File 05 Первый поцелуй - 99% CDDA [02:20:08]
Detected average hi-boundary frequency : 20104.940 Hz Detected average lo-boundary frequency : 12855.150 Hz Detected average hi-cut frequency : 21853.880 Hz Detected average lo-cut frequency : 9361.905 Hz Maximum probablis boundary frequency : 21896.000 Hz Coefficient of nonlinearity of a phase : 0.32750700 First order smothness : 0.36619720 Second order smothness : 0.46814220
File 06 Поп корн - 100% CDDA [05:15:35]
Detected average hi-boundary frequency : 20084.130 Hz Detected average lo-boundary frequency : 12810.640 Hz Detected average hi-cut frequency : 21536.600 Hz Detected average lo-cut frequency : 5636.899 Hz Maximum probablis boundary frequency : 21891.000 Hz Coefficient of nonlinearity of a phase : 0.88025810 First order smothness : 0.36748590 Second order smothness : 0.41901100
File 07 О друзьях - 100% CDDA [01:47:10]
Detected average hi-boundary frequency : 20440.220 Hz Detected average lo-boundary frequency : 14279.070 Hz Detected average hi-cut frequency : 21700.830 Hz Detected average lo-cut frequency : 7912.429 Hz Maximum probablis boundary frequency : 21030.000 Hz Coefficient of nonlinearity of a phase : 0.30288920 First order smothness : 0.57739130 Second order smothness : 0.23130430
File 08 Резьба - 100% CDDA [01:37:72]
Detected average hi-boundary frequency : 20116.350 Hz Detected average lo-boundary frequency : 12418.640 Hz Detected average hi-cut frequency : 21858.880 Hz Detected average lo-cut frequency : 11848.910 Hz Maximum probablis boundary frequency : 20626.000 Hz Coefficient of nonlinearity of a phase : 0.70595350 First order smothness : 0.46584440 Second order smothness : 0.56736240
File 09 Прозрачная - 100% CDDA [08:04:20]
Detected average hi-boundary frequency : 20340.180 Hz Detected average lo-boundary frequency : 13081.910 Hz Detected average hi-cut frequency : 21900.290 Hz Detected average lo-cut frequency : 13890.680 Hz Maximum probablis boundary frequency : 21891.000 Hz Coefficient of nonlinearity of a phase : 0.36192740 First order smothness : 0.38674350 Second order smothness : 0.57598460
————— Summary: —————These tracks looks like CDDA with probability 100%.————————————————————————————————————————————————————————————————————————
ANALYZER: auCDtect: CD records authenticity detector, version 0.8.2 Copyright (c) 2004 Oleg Berngardt. All rights reserved. Copyright (c) 2004 Alexander Djourik. All rights reserved.
Time elapsed: 2 m 32 sLog created at September 19, 2018 00:50:40
=== 54D8DA593E9E2CCCC84D82507A18FA3AD33FD84770A03C0F558F1B4B2C290F7B ===

Скриншот(ы) тегов iTunes

Об альбоме (сборнике)

«Мишины Дельфины» — дуэт Дельфина и Михаила Воинова, гитариста, ныне участника группы Cosmonaut&Satellites и проекта E-Van. Стал для Дельфина своего рода переходом от участия в группе «Дубовый Гаайъ» к сольной карьере.
Название дуэту было дано по песне «Дубового Гаайя», одним из музыкантов которого был Михаил Воинов, а также как комбинация имени гитариста и псевдонима вокалиста. В рамках проекта вышел один 9-трековый альбом «Игрушки» (1997, переиздавался в 2004), на обложке которого название дуэта было написано как «Мишины Dolphinы». На заглавную песню был снят видеоклип, впоследствии ротировавшийся на телевидении как клип Дельфина.
К проекту приложили руку те люди, которые долгое время сотрудничали с Дельфином: Виктор Мутант, ответственный за звукоинженеринг альбома, Антон Барматов,режиссёр видеоклипа, Лика Сассим, автор фотографий, использованных при оформлении альбома, также вместе с Василием Кудрявцевымпроведшая фотосессию для клипа. Лика вскоре стала женой Дельфина. Кроме того, в записи альбома участвовал бас-гитарист Руслан Ахмеров, а Максиму Галстьяну, участвовавшему позже в записи альбома «Глубина резкости», выражена благодарность на вкладыше альбома.
За всё время существования дуэта прошёл всего один его концерт — летом 1995 года на московской тату-конференции в клубе «Эрмитаж». На нём игрался материал, написанный для первого альбома дуэта, который так и не был издан, оставшись только в виде демозаписей. Некоторые из текстов этих песен Дельфин использовал в альбоме «Не в фокусе», в записи которого принял участие и Михаил Воинов, а проект «Мишины Дельфины» продолжения не получил..
По сведениям, указанным на вкладыше альбома, существовал фан-клуб проекта.
Спустя два десятилетия музыкальные критики сравнили альбом «Игрушки» с сольным альбомом самого Дельфина «Она», который вышел в 2016 году. Исполнитель согласился с этим утверждением, отметив, что в обоих случаях он сам придумывал много музыкального материала.


[islamvillage.com]_t_5615779.torrent
Торрент: Зарегистрирован ·  [ 2018-09-26 22:27 ] ·  3fb26ad3701173ac7cbf7032dc50265d2812a5a5

20 KB

Статус: проверено
Скачан: 0 раз
Размер: 233 MB
Оценка: 
(Голосов: 0)
Сказали спасибо: 0  Спасибо
Похожие темы
[Профиль]    [ЛС]
Показать сообщения:    
Ответить на тему

Текущее время: Сегодня 23:28

Часовой пояс: GMT + 7



Вы не можете начинать темы
Вы не можете отвечать на сообщения
Вы не можете редактировать свои сообщения
Вы не можете удалять свои сообщения
Вы не можете голосовать в опросах
Вы не можете прикреплять файлы к сообщениям
Вы можете скачивать файлы


Drunk History S05E04 720p WEB x264-CookieMonster [eztv] | Samsung Gear S3 Frontier Dark Grey Bluetooth Smartwatch SM-R760NDAAXAR$179.99 8h left | Felhasználási feltételek