(Rock) [CD] Александр Барыкин - Лучшее - 2011, ALAC (tracks+.cue), lossless

Ответить на тему
Статистика раздачи [Обновить пиров]
Размер:  407 MB   |    Зарегистрирован:  3 месяца 13 дней   |    Скачан:  1 раз

Полного источника не было: 26 дней

 
   
 
 
 
Автор Сообщение

islamvillage.com

Создавать темы 03-Окт-2018 21:25

[Цитировать]

Александр Барыкин / Лучшее
Жанр: Rock
Носитель: CD
Страна-производитель диска: Россия
Год издания: 2011
Издатель (лейбл): Мелодия
Номер по каталогу: MEL CD 60 01856
Страна исполнителя (группы): СССР-Россия
Аудио кодек: ALAC (*.m4a)
Тип рипа: tracks+.cue
Программа-конвертер: CueTools (refalac)
Битрейт аудио: lossless
Продолжительность: 01:02:08
Наличие сканов в содержимом раздачи: да
Тексты: вшиты
Источник
Треклист:
01. Аэропорт (Р. Горобец – М. Танич), 4.18
02. Когда мы влюблены (А. Барыкин – И. Шаферан), 4.17
03. Дождь и снег (А. Барыкин – М. Рябинин), 4.39
04. Букет (А. Барыкин – Н. Рубцов), 3.40
05. Говори мне о любви (автор музыки и слов А. Барыкин), 4.23
06. Летучий голландец (И. Николаев – В. Дюнин), 3.28
07. 20.00 (А. Барыкин – М. Пушкина), 4.04
08. Гала (автор музыки и слов А. Барыкин), 4.39
09. Водоворот (А. Барыкин – В. Маликов), 4.35
10. Программа телепередач на завтра (И. Николаев – В. Сауткин), 3.19
11. Маленькая Москва (А. Барыкин – Б. Дубровин), 4.29
12. Я обнимаю тебя (А. Барыкин – Б. Дубровин), 4.53
13. Без тебя (А. Барыкин – М. Гешаев), 6.08
14. Как жаль (автор музыки и слов А. Барыкин), 5.09

Лог создания рипа

Exact Audio Copy V1.0 beta 1 from 15. November 2010
EAC extraction logfile from 18. July 2011, 17:17
Александр Барыкин / Лучшее
Used drive : _NEC DVD_RW ND-3520AW Adapter: 0 ID: 0
Read mode : SecureUtilize accurate stream : YesDefeat audio cache : YesMake use of C2 pointers : No
Read offset correction : 48Overread into Lead-In and Lead-Out : NoFill up missing offset samples with silence : YesDelete leading and trailing silent blocks : NoNull samples used in CRC calculations : YesUsed interface : Native Win32 interface for Win NT & 2000
Used output format : Internal WAV RoutinesSample format : 44.100 Hz; 16 Bit; Stereo
TOC of the extracted CD
Track | Start | Length | Start sector | End sector --------------------------------------------------------- 1 | 0:00.00 | 4:18.70 | 0 | 19419 2 | 4:18.70 | 4:17.07 | 19420 | 38701 3 | 8:36.02 | 4:39.52 | 38702 | 59678 4 | 13:15.54 | 3:40.45 | 59679 | 76223 5 | 16:56.24 | 4:23.74 | 76224 | 96022 6 | 21:20.23 | 3:28.18 | 96023 | 111640 7 | 24:48.41 | 4:04.00 | 111641 | 129940 8 | 28:52.41 | 4:39.47 | 129941 | 150912 9 | 33:32.13 | 4:35.33 | 150913 | 171570 10 | 38:07.46 | 3:19.19 | 171571 | 186514 11 | 41:26.65 | 4:29.73 | 186515 | 206762 12 | 45:56.63 | 4:53.37 | 206763 | 228774 13 | 50:50.25 | 6:08.44 | 228775 | 256418 14 | 56:58.69 | 5:09.17 | 256419 | 279610
Range status and errors
Selected range
Filename E:\Music\Alexander Barykin - The Best (2011) (Melodiya MEL CD 60 01856)\Alexander Barykin - The Best.wav
Peak level 100.0 % Extraction speed 0.3 X Range quality 99.9 % Test CRC A39E4186 Copy CRC A39E4186 Copy OK
No errors occurred
AccurateRip summary
Track 1 not present in databaseTrack 2 not present in databaseTrack 3 not present in databaseTrack 4 not present in databaseTrack 5 not present in databaseTrack 6 not present in databaseTrack 7 not present in databaseTrack 8 not present in databaseTrack 9 not present in databaseTrack 10 not present in databaseTrack 11 not present in databaseTrack 12 not present in databaseTrack 13 not present in databaseTrack 14 not present in database
None of the tracks are present in the AccurateRip database
End of status report
==== Log checksum 5219D27F75A5C47EA69B4771F82E64993769AE171E33EAF390C0D77CBAFF1374 ====

Содержание индексной карты (.CUE)

REM DATE 2011REM DISCID BE0E900EPERFORMER "Александр Барыкин"TITLE "Лучшее"CATALOG 4600317118564REM DISCNUMBER 1REM TOTALDISCS 1FILE "01. Аэропорт.m4a" WAVE TRACK 01 AUDIO TITLE "Аэропорт" PERFORMER "Александр Барыкин" INDEX 01 00:00:00 TRACK 02 AUDIO TITLE "Когда мы влюблены" PERFORMER "Александр Барыкин" INDEX 00 04:16:70FILE "02. Когда мы влюблены.m4a" WAVE INDEX 01 00:00:00 TRACK 03 AUDIO TITLE "Дождь и снег" PERFORMER "Александр Барыкин" INDEX 00 04:15:07FILE "03. Дождь и снег.m4a" WAVE INDEX 01 00:00:00 TRACK 04 AUDIO TITLE "Букет" PERFORMER "Александр Барыкин" INDEX 00 04:37:52FILE "04. Букет.m4a" WAVE INDEX 01 00:00:00 TRACK 05 AUDIO TITLE "Говори мне о любви" PERFORMER "Александр Барыкин" INDEX 00 03:38:46FILE "05. Говори мне о любви.m4a" WAVE INDEX 01 00:00:00 TRACK 06 AUDIO TITLE "Летучий голландец" PERFORMER "Александр Барыкин" INDEX 00 04:21:74FILE "06. Летучий голландец.m4a" WAVE INDEX 01 00:00:00 TRACK 07 AUDIO TITLE "20.00" PERFORMER "Александр Барыкин" INDEX 00 03:26:18FILE "07. 20.00.m4a" WAVE INDEX 01 00:00:00 TRACK 08 AUDIO TITLE "Гала" PERFORMER "Александр Барыкин" INDEX 00 04:02:00FILE "08. Гала.m4a" WAVE INDEX 01 00:00:00 TRACK 09 AUDIO TITLE "Водоворот" PERFORMER "Александр Барыкин" INDEX 00 04:37:47FILE "09. Водоворот.m4a" WAVE INDEX 01 00:00:00 TRACK 10 AUDIO TITLE "Программа телепередач на завтра" PERFORMER "Александр Барыкин" INDEX 00 04:33:33FILE "10. Программа телепередач на завтра.m4a" WAVE INDEX 01 00:00:00 TRACK 11 AUDIO TITLE "Маленькая Москва" PERFORMER "Александр Барыкин" INDEX 00 03:17:19FILE "11. Маленькая Москва.m4a" WAVE INDEX 01 00:00:00 TRACK 12 AUDIO TITLE "Я обнимаю тебя" PERFORMER "Александр Барыкин" INDEX 00 04:27:73FILE "12. Я обнимаю тебя.m4a" WAVE INDEX 01 00:00:00 TRACK 13 AUDIO TITLE "Без тебя" PERFORMER "Александр Барыкин" INDEX 00 04:51:37FILE "13. Без тебя.m4a" WAVE INDEX 01 00:00:00 TRACK 14 AUDIO TITLE "Как жаль" PERFORMER "Александр Барыкин" INDEX 00 06:06:44FILE "14. Как жаль.m4a" WAVE INDEX 01 00:00:00

Лог проверки качества

-----------------------
DON'T MODIFY THIS FILE
-----------------------
PERFORMER: auCDtect Task Manager, ver. 1.5.1RC6 build 1.5.1.7Copyright (c) 2008-2010 y-soft. All rights reservedhttp://y-soft.org
ANALYZER: auCDtect: CD records authenticity detector, version 0.8.2Copyright (c) 2004 Oleg Berngardt. All rights reserved.Copyright (c) 2004 Alexander Djourik. All rights reserved.
FILE: 14. Как жаль.m4a Size: 33362841 Hash: 8C8D3BCC3EB03BD57319278C85FD068F Accuracy: -m0 Conclusion: CDDA 100% Signature: 50F18E28B34919A6FE16F42AA87088BF9FA5B5D3FILE: 13. Без тебя.m4a Size: 42893856 Hash: 2057074A79F5C3ED2FDB179247A3A58C Accuracy: -m0 Conclusion: CDDA 100% Signature: 941D3408705EC69E10CC1182C449D0F6A2FC12ACFILE: 12. Я обнимаю тебя.m4a Size: 36130000 Hash: 7A58F7B599B1D9714D2CC1A9E337587F Accuracy: -m0 Conclusion: CDDA 99% Signature: 0CEAB1C8137E6910469BD2E108766B82EF26BED8FILE: 11. Маленькая Москва.m4a Size: 29060746 Hash: 52441F5233514025103CFFB99945AEE8 Accuracy: -m0 Conclusion: CDDA 100% Signature: E5BBDD59E046445AD276C103AD296DBE8F3AEA8CFILE: 10. Программа телепередач на завтра.m4a Size: 23594154 Hash: 27556A985BCB9C67915FEF8C16CE7CEB Accuracy: -m0 Conclusion: CDDA 100% Signature: 712AB8ED0206AFB5C8E07E10D602F2BC7495C329FILE: 09. Водоворот.m4a Size: 35186896 Hash: 6B9768D689AA425812FAEF99CF2A3DB3 Accuracy: -m0 Conclusion: CDDA 100% Signature: 58EC6722195C7B5AB5BE9EE3266F7019E9DA4A09FILE: 08. Гала.m4a Size: 29010202 Hash: AADF1F910602706D969DD9F2A4D8D3B4 Accuracy: -m0 Conclusion: CDDA 100% Signature: A36882E3A59FFD4CCAF871BE0A3AADBF3C718EC0FILE: 07. 20.00.m4a Size: 27202546 Hash: 04531DFA7C08F76FDA671B67EF6BC27A Accuracy: -m0 Conclusion: CDDA 100% Signature: 50336ACCC549ECD4919C77A5F174852AA7933DC6FILE: 06. Летучий голландец.m4a Size: 23108021 Hash: 710145AEE1DB6CD76A0CC7D91386A853 Accuracy: -m0 Conclusion: CDDA 100% Signature: 5747C887CF17805FD8DC53E64A04B569F54A2AE6FILE: 05. Говори мне о любви.m4a Size: 31059925 Hash: 20CC31700451A1E3EF10942C98343654 Accuracy: -m0 Conclusion: CDDA 100% Signature: 84F7D6DA91BB21F600243ADA3B6924192C3B5B91FILE: 04. Букет.m4a Size: 25260772 Hash: E4D6AC768A1FD7B05809D644FA4B2DA9 Accuracy: -m0 Conclusion: CDDA 100% Signature: BEA2D5B8D4ABDB0CF1C80867A5B076E5B8D45798FILE: 03. Дождь и снег.m4a Size: 30063115 Hash: AF3FA453DE99AF37D948F4705A99B5A9 Accuracy: -m0 Conclusion: CDDA 100% Signature: 984D447271B55251598920EB95A885B006CDDDB6FILE: 02. Когда мы влюблены.m4a Size: 26938838 Hash: DDBA49A39EBFD49D6FEABB8CA983FA9E Accuracy: -m0 Conclusion: CDDA 99% Signature: E0F2D990933157A62F52179120D4A03EFF1E3979FILE: 01. Аэропорт.m4a Size: 32384288 Hash: C0AF33678FFFB1B85BAF7719CDC03A40 Accuracy: -m0 Conclusion: CDDA 100% Signature: B7A1E4369244F8A32896CD71676CD541B8E1BC23

Скриншот(ы) тегов iTunes




[islamvillage.com]_t_5620125.torrent
Торрент: Зарегистрирован ·  [ 2018-10-03 21:24 ] ·  cc2eff3ade9447df922d5a65225572daefc000f2

18 KB

Статус: проверено
Скачан: 1 раз
Размер: 407 MB
Оценка: 
(Голосов: 0)
Сказали спасибо: 0  Спасибо
Похожие темы
[Профиль]    [ЛС]
Показать сообщения:    
Ответить на тему

Текущее время: Сегодня 11:31

Часовой пояс: GMT + 7



Вы не можете начинать темы
Вы не можете отвечать на сообщения
Вы не можете редактировать свои сообщения
Вы не можете удалять свои сообщения
Вы не можете голосовать в опросах
Вы не можете прикреплять файлы к сообщениям
Вы можете скачивать файлы


Bingbing Li | 1940-1952 Assorted King George Vi Circulated Cdn Half Dollars - 80% Silver | Submission Cellar