(Rock) [CD] Крематорий - Дискография (25 CD) - 1983-2016, ALAC (tracks+.cue), lossless

Ответить на тему
Статистика раздачи [Обновить пиров]
Размер:  8.12 GB   |    Зарегистрирован:  3 месяца 6 дней   |    Скачан:  0 раз

Полного источника не было: Никогда

 
   
 
 
 
Автор Сообщение

islamvillage.com

Создавать темы 10-Окт-2018 19:05

[Цитировать]

Крематорий / Дискография
Жанр: Rock
Носитель: CD
Страна-производитель диска: СССР, Россия
Год издания: 1983-2016
Страна исполнителя (группы): СССР, Россия
Аудио кодек: ALAC (*.m4a)
Тип рипа: tracks+.cue
Программа-конвертер: CueTools
Битрейт аудио: lossless
Наличие сканов в содержимом раздачи: да
Тексты: вшиты
Источник

1983 - Винные Мемуары

Продолжительность: 00:46:15
Треклист:
1. Конформист Морозов
2. Ты была той женщиной
3. Я увидел тебя
4. Стрёмный корабль
5. Посвящение бывшей подруге
6. Глотатель портвейна
7. Джентельмены и леди
8. Крематорий
9. Брюс-колдун
10. Катаклизм
11. Таня
12. Я сижу в W
13. Винные мемуары
14. Чёрная пятница
15. Снова ночью...
16. Крылатые слоны

Лог создания рипа

Exact Audio Copy V1.0 beta 3 from 29. August 2011
Отчёт EAC об извлечении, выполненном 11. июля 2013, 12:10
Крематорий / Винные Мемуары
Дисковод: HL-DT-STDVDRAM GH70N Adapter: 0 ID: 4
Режим чтения : ДостоверностьИспользование точного потока : ДаОтключение кэша аудио : ДаИспользование указателей C2 : Нет
Коррекция смещения при чтении : 667Способность читать области Lead-in и Lead-out : НетЗаполнение пропущенных сэмплов тишиной : ДаУдаление блоков с тишиной в начале и конце : НетПри вычислениях CRC использовались нулевые сэмплы : ДаИнтерфейс : Встроенный Win32-интерфейс для Win NT/2000
Выходной формат : Пользовательский кодировщикВыбранный битрейт : 1024 kBit/sКачество : ВысокийДобавление ID3-тега : НетУтилита сжатия : C:\Program Files (x86)\Exact Audio Copy\Flac\flac.exeДополнительные параметры : -V -8 %source%
TOC извлечённого CD
Трек | Старт | Длительность | Начальный сектор | Конечный сектор --------------------------------------------------------------------- 1 | 0:00.00 | 3:24.18 | 0 | 15317 2 | 3:24.18 | 1:35.01 | 15318 | 22443 3 | 4:59.19 | 2:45.45 | 22444 | 34863 4 | 7:44.64 | 1:34.68 | 34864 | 41981 5 | 9:19.57 | 2:43.03 | 41982 | 54209 6 | 12:02.60 | 3:00.05 | 54210 | 67714 7 | 15:02.65 | 2:28.47 | 67715 | 78861 8 | 17:31.37 | 2:59.69 | 78862 | 92355 9 | 20:31.31 | 2:56.17 | 92356 | 105572 10 | 23:27.48 | 1:57.59 | 105573 | 114406 11 | 25:25.32 | 4:09.59 | 114407 | 133140 12 | 29:35.16 | 3:21.02 | 133141 | 148217 13 | 32:56.18 | 3:40.27 | 148218 | 164744 14 | 36:36.45 | 3:39.01 | 164745 | 181170 15 | 40:15.46 | 2:16.44 | 181171 | 191414 16 | 42:32.15 | 3:43.25 | 191415 | 208164
Характеристики диапазона извлечения и сообщения об ошибках
Выбранный диапазон
Имя файла D:\Архив\Крематорий - Винные Мемуары.wav
Пиковый уровень 89.1 % Скорость извлечения 1.7 X Качество диапазона 99.9 % CRC теста 8E0597F0 CRC копии 8E0597F0 Копирование... OK
Ошибок не произошло
AccurateRip: сводка
Трек 1 : извлечено точно (доверие 3) [492B815F] (AR v1)Трек 2 : извлечено точно (доверие 3) [F8126EFA] (AR v1)Трек 3 : извлечено точно (доверие 3) [2EC02CBB] (AR v1)Трек 4 : извлечено точно (доверие 3) [FAF40529] (AR v1)Трек 5 : извлечено точно (доверие 3) [34DDCE08] (AR v1)Трек 6 : извлечено точно (доверие 3) [732115AF] (AR v1)Трек 7 : извлечено точно (доверие 3) [1B4D7081] (AR v1)Трек 8 : извлечено точно (доверие 3) [E2F68215] (AR v1)Трек 9 : извлечено точно (доверие 3) [49B4620F] (AR v1)Трек 10 : извлечено точно (доверие 3) [E77A6B71] (AR v1)Трек 11 : извлечено точно (доверие 3) [FE8B67A7] (AR v1)Трек 12 : извлечено точно (доверие 3) [61BC6FB7] (AR v1)Трек 13 : извлечено точно (доверие 3) [48D2F2EA] (AR v1)Трек 14 : извлечено точно (доверие 3) [6C86DA7F] (AR v1)Трек 15 : извлечено точно (доверие 3) [E4A097A9] (AR v1)Трек 16 : извлечено точно (доверие 3) [44312078] (AR v1)
Все треки извлечены точно
Конец отчёта
==== Контрольная сумма отчёта 1043D1F58941F77DDDA0CA398C86D03078386E4C55A2F7D244A3ECF0BB14BC68 ====

Содержание индексной карты (.CUE)

REM GENRE "Rock"REM DATE 1983REM DISCID D40AD710PERFORMER "Крематорий"TITLE "Винные Мемуары"FILE "01. Конформист Морозов.m4a" WAVE TRACK 01 AUDIO TITLE "Конформист Морозов" PERFORMER "Крематорий" INDEX 01 00:00:00 TRACK 02 AUDIO TITLE "Ты была той женщиной" PERFORMER "Крематорий" INDEX 00 03:23:18FILE "02. Ты была той женщиной.m4a" WAVE INDEX 01 00:00:00 TRACK 03 AUDIO TITLE "Я увидел тебя" PERFORMER "Крематорий" INDEX 00 01:34:61FILE "03. Я увидел тебя.m4a" WAVE INDEX 01 00:00:00 TRACK 04 AUDIO TITLE "Стрёмный корабль" PERFORMER "Крематорий" INDEX 00 02:35:02FILE "04. Стрёмный корабль.m4a" WAVE INDEX 01 00:00:00 TRACK 05 AUDIO TITLE "Посвящение бывшей подруге" PERFORMER "Крематорий" INDEX 00 01:20:68FILE "05. Посвящение бывшей подруге.m4a" WAVE INDEX 01 00:00:00 TRACK 06 AUDIO TITLE "Глотатель портвейна" PERFORMER "Крематорий" INDEX 00 02:12:03FILE "06. Глотатель портвейна.m4a" WAVE INDEX 01 00:00:00 TRACK 07 AUDIO TITLE "Джентельмены и леди" PERFORMER "Крематорий" INDEX 00 02:55:05FILE "07. Джентельмены и леди.m4a" WAVE INDEX 01 00:00:00 TRACK 08 AUDIO TITLE "Крематорий" PERFORMER "Крематорий" INDEX 00 01:57:47FILE "08. Крематорий.m4a" WAVE INDEX 01 00:00:00 TRACK 09 AUDIO TITLE "Брюс-колдун" PERFORMER "Крематорий" INDEX 00 02:28:25FILE "09. Брюс-колдун.m4a" WAVE INDEX 01 00:00:00 TRACK 10 AUDIO TITLE "Катаклизм" PERFORMER "Крематорий" INDEX 00 02:28:12FILE "10. Катаклизм.m4a" WAVE INDEX 01 00:00:00 TRACK 11 AUDIO TITLE "Таня" PERFORMER "Крематорий" INDEX 00 01:33:39FILE "11. Таня.m4a" WAVE INDEX 01 00:00:00 TRACK 12 AUDIO TITLE "Я сижу в W" PERFORMER "Крематорий" INDEX 00 03:59:37FILE "12. Я сижу в W.m4a" WAVE INDEX 01 00:00:00 TRACK 13 AUDIO TITLE "Винные мемуары" PERFORMER "Крематорий" INDEX 00 02:52:15FILE "13. Винные мемуары.m4a" WAVE INDEX 01 00:00:00 TRACK 14 AUDIO TITLE "Чёрная пятница" PERFORMER "Крематорий" INDEX 00 03:30:27FILE "14. Чёрная пятница.m4a" WAVE INDEX 01 00:00:00 TRACK 15 AUDIO TITLE "Снова ночью..." PERFORMER "Крематорий" INDEX 00 03:35:01FILE "15. Снова ночью....m4a" WAVE INDEX 01 00:00:00 TRACK 16 AUDIO TITLE "Крылатые слоны" PERFORMER "Крематорий" INDEX 00 02:12:44FILE "16. Крылатые слоны.m4a" WAVE INDEX 01 00:00:00

Лог проверки качества

[CUETools log; Date: 30.01.2018 14:31:27; Version: 2.1.6][CTDB TOCID: ivLRlJWNTnGmUtlUG2DuZ411wa4-] found.Track | CTDB Status 1 | (13/13) Accurately ripped 2 | (13/13) Accurately ripped 3 | (13/13) Accurately ripped 4 | (13/13) Accurately ripped 5 | (13/13) Accurately ripped 6 | (13/13) Accurately ripped 7 | (13/13) Accurately ripped 8 | (13/13) Accurately ripped 9 | (13/13) Accurately ripped 10 | (13/13) Accurately ripped 11 | (13/13) Accurately ripped 12 | (13/13) Accurately ripped 13 | (13/13) Accurately ripped 14 | (13/13) Accurately ripped 15 | (13/13) Accurately ripped 16 | (12/13) Accurately ripped[AccurateRip ID: 00193f3a-0133d049-d40ad710] found.Track [ CRC | V2 ] Status 01 [492b815f|c0134b93] (04+06/10) Accurately ripped 02 [f8126efa|d7e40e52] (04+06/10) Accurately ripped 03 [2ec02cbb|17b2aef8] (04+06/10) Accurately ripped 04 [faf40529|7a06ef27] (04+06/10) Accurately ripped 05 [34ddce08|9d3237d1] (04+06/10) Accurately ripped 06 [732115af|7c5af535] (03+06/09) Accurately ripped 07 [1b4d7081|f9df9971] (04+06/10) Accurately ripped 08 [e2f68215|75d7afb9] (04+06/10) Accurately ripped 09 [49b4620f|d148e22a] (03+06/09) Accurately ripped 10 [e77a6b71|a6c40e1a] (04+06/10) Accurately ripped 11 [fe8b67a7|9f952f37] (04+06/10) Accurately ripped 12 [61bc6fb7|face3100] (04+06/10) Accurately ripped 13 [48d2f2ea|7721660b] (04+06/10) Accurately ripped 14 [6c86da7f|134ff81e] (04+06/10) Accurately ripped 15 [e4a097a9|17a987d2] (04+06/10) Accurately ripped 16 [44312078|d6a19f91] (04+05/09) Accurately ripped
Track Peak [ CRC32 ] [W/O NULL] [ LOG ] -- 89,1 [8E0597F0] [D8CC56A6] CRC32 01 73,4 [CF0E9194] [BAFD7E61] 02 89,1 [DA1283F5] [71CDD2B9] 03 89,1 [FA9C9AE7] [B9736F60] 04 72,8 [86542568] [FAB2140C] 05 72,7 [C315E42D] [128FD7D9] 06 84,0 [D24B8076] [A91647D1] 07 78,7 [FDE9D1A1] [F2D3D704] 08 84,7 [A8000861] [2E35F58B] 09 89,1 [7EDEB66F] [F47A0875] 10 62,6 [BDF0E787] [EFA52B63] 11 72,4 [9C907FB6] [462042C8] 12 72,3 [DD699477] [6D9F9F6C] 13 59,9 [5FAD9642] [A551D3D4] 14 70,7 [26A71C91] [81BA7652] 15 89,1 [52EFD11D] [7F7F683A] 16 79,4 [85AA72F6] [DB8950E5]

1984 - Крематорий 2

Продолжительность: 00:54:08]
Треклист:
1. Лепрозорий
2. Крематорий
3. Аутсайдер
4. Конфуз
5. Стрёмный корабль
6. Пророк на карусели
7. Моя соседка
8. Посвящение бывшей подруге
9. Vinus Memoirs
10. Житейская смерть
11. Я тихо и скромно
12. Сидя на рейсшине
13. Я увидел тебя
14. Проснись, нас обокрали
15. Моя крепость
16. Танец "Альфонсо"
17. Последнее слово

Лог создания рипа

Exact Audio Copy V1.0 beta 3 from 29. August 2011
Отчёт EAC об извлечении, выполненном 6. апреля 2013, 13:21
Крематорий / Крематорий 2
Дисковод: HL-DT-STDVDRAM GH70N Adapter: 0 ID: 4
Режим чтения : ДостоверностьИспользование точного потока : ДаОтключение кэша аудио : ДаИспользование указателей C2 : Нет
Коррекция смещения при чтении : 667Способность читать области Lead-in и Lead-out : НетЗаполнение пропущенных сэмплов тишиной : ДаУдаление блоков с тишиной в начале и конце : НетПри вычислениях CRC использовались нулевые сэмплы : ДаИнтерфейс : Встроенный Win32-интерфейс для Win NT/2000
Выходной формат : Пользовательский кодировщикВыбранный битрейт : 1024 kBit/sКачество : ВысокийДобавление ID3-тега : НетУтилита сжатия : C:\Program Files (x86)\Exact Audio Copy\Flac\flac.exeДополнительные параметры : -V -8 %source%
TOC извлечённого CD
Трек | Старт | Длительность | Начальный сектор | Конечный сектор --------------------------------------------------------------------- 1 | 0:00.00 | 4:22.23 | 0 | 19672 2 | 4:22.23 | 1:24.19 | 19673 | 25991 3 | 5:46.42 | 3:54.05 | 25992 | 43546 4 | 9:40.47 | 1:01.49 | 43547 | 48170 5 | 10:42.21 | 1:30.30 | 48171 | 54950 6 | 12:12.51 | 4:46.03 | 54951 | 76403 7 | 16:58.54 | 3:12.68 | 76404 | 90871 8 | 20:11.47 | 2:11.11 | 90872 | 100707 9 | 22:22.58 | 2:49.16 | 100708 | 113398 10 | 25:11.74 | 3:07.00 | 113399 | 127423 11 | 28:18.74 | 3:08.42 | 127424 | 141565 12 | 31:27.41 | 4:06.14 | 141566 | 160029 13 | 35:33.55 | 3:07.42 | 160030 | 174096 14 | 38:41.22 | 3:52.31 | 174097 | 191527 15 | 42:33.53 | 4:02.38 | 191528 | 209715 16 | 46:36.16 | 3:12.72 | 209716 | 224187 17 | 49:49.13 | 4:18.46 | 224188 | 243583
Характеристики диапазона извлечения и сообщения об ошибках
Выбранный диапазон
Имя файла D:\Архив\Крематорий - Крематорий 2.wav
Пиковый уровень 79.4 % Скорость извлечения 1.7 X Качество диапазона 99.9 % CRC теста 7FB2359F CRC копии 7FB2359F Копирование... OK
Ошибок не произошло
AccurateRip: сводка
Трек 1 : извлечено точно (доверие 2) [D7C4F089] (AR v1)Трек 2 : извлечено точно (доверие 2) [629B854B] (AR v1)Трек 3 : извлечено точно (доверие 2) [09B7CD08] (AR v1)Трек 4 : извлечено точно (доверие 2) [28B26357] (AR v1)Трек 5 : извлечено точно (доверие 2) [81ADD39A] (AR v1)Трек 6 : извлечено точно (доверие 2) [C300E78A] (AR v1)Трек 7 : извлечено точно (доверие 2) [8FCEEB3B] (AR v1)Трек 8 : извлечено точно (доверие 2) [261AD03D] (AR v1)Трек 9 : извлечено точно (доверие 2) [C3EE7463] (AR v1)Трек 10 : извлечено точно (доверие 2) [0680FDC4] (AR v1)Трек 11 : извлечено точно (доверие 2) [BDA0314F] (AR v1)Трек 12 : извлечено точно (доверие 2) [CC20CAE1] (AR v1)Трек 13 : извлечено точно (доверие 2) [626B6252] (AR v1)Трек 14 : извлечено точно (доверие 2) [373CBED7] (AR v1)Трек 15 : извлечено точно (доверие 2) [B2088FA7] (AR v1)Трек 16 : извлечено точно (доверие 2) [8801684A] (AR v1)Трек 17 : извлечено точно (доверие 2) [7CDC828D] (AR v1)
Все треки извлечены точно
Конец отчёта
==== Контрольная сумма отчёта D8C3E38544D05B3DA9FC3F62F82E284F2CF7C5A5074FAB46B897D46F7D17B591 ====

Содержание индексной карты (.CUE)

REM GENRE "Rock"REM DATE 1984REM DISCID DF0CAF11PERFORMER "Крематорий"TITLE "Крематорий II"REM DISCNUMBER 1REM TOTALDISCS 1FILE "01. Лепрозорий.m4a" WAVE TRACK 01 AUDIO TITLE "Лепрозорий" PERFORMER "Крематорий" INDEX 01 00:00:00 TRACK 02 AUDIO TITLE "Крематорий" PERFORMER "Крематорий" INDEX 00 04:04:48FILE "02. Крематорий.m4a" WAVE INDEX 01 00:00:00FILE "03. Аутсайдер.m4a" WAVE TRACK 03 AUDIO TITLE "Аутсайдер" PERFORMER "Крематорий" INDEX 01 00:00:00 TRACK 04 AUDIO TITLE "Конфуз" PERFORMER "Крематорий" INDEX 00 03:34:30FILE "04. Конфуз.m4a" WAVE INDEX 01 00:00:00 TRACK 05 AUDIO TITLE "Стрёмный корабль" PERFORMER "Крематорий" INDEX 00 00:58:49FILE "05. Стрёмный корабль.m4a" WAVE INDEX 01 00:00:00 TRACK 06 AUDIO TITLE "Пророк на карусели" PERFORMER "Крематорий" INDEX 00 01:22:54FILE "06. Пророк на карусели.m4a" WAVE INDEX 01 00:00:00 TRACK 07 AUDIO TITLE "Моя соседка" PERFORMER "Крематорий" INDEX 00 04:19:06FILE "07. Моя соседка.m4a" WAVE INDEX 01 00:00:00 TRACK 08 AUDIO TITLE "Посвящение бывшей подруге" PERFORMER "Крематорий" INDEX 00 03:05:27FILE "08. Посвящение бывшей подруге.m4a" WAVE INDEX 01 00:00:00 TRACK 09 AUDIO TITLE "Vinus Memoirs" PERFORMER "Крематорий" INDEX 00 02:09:64FILE "09. Vinus Memoirs.m4a" WAVE INDEX 01 00:00:00 TRACK 10 AUDIO TITLE "Житейская смерть" PERFORMER "Крематорий" INDEX 00 02:47:16FILE "10. Житейская смерть.m4a" WAVE INDEX 01 00:00:00FILE "11. Я тихо и скромно.m4a" WAVE TRACK 11 AUDIO TITLE "Я тихо и скромно" PERFORMER "Крематорий" INDEX 01 00:00:00 TRACK 12 AUDIO TITLE "Сидя на рейсшине" PERFORMER "Крематорий" INDEX 00 02:57:31FILE "12. Сидя на рейсшине.m4a" WAVE INDEX 01 00:00:00 TRACK 13 AUDIO TITLE "Я увидел тебя" PERFORMER "Крематорий" INDEX 00 03:53:28FILE "13. Я увидел тебя.m4a" WAVE INDEX 01 00:00:00 TRACK 14 AUDIO TITLE "Проснись, нас обокрали" PERFORMER "Крематорий" INDEX 00 02:48:31FILE "14. Проснись, нас обокрали.m4a" WAVE INDEX 01 00:00:00 TRACK 15 AUDIO TITLE "Моя крепость" PERFORMER "Крематорий" INDEX 00 03:50:31FILE "15. Моя крепость.m4a" WAVE INDEX 01 00:00:00 TRACK 16 AUDIO TITLE "Танец ''Альфонсо''" PERFORMER "Крематорий" INDEX 00 04:00:38FILE "16. Танец ''Альфонсо''.m4a" WAVE INDEX 01 00:00:00 TRACK 17 AUDIO TITLE "Последнее слово" PERFORMER "Крематорий" INDEX 00 03:10:72FILE "17. Последнее слово.m4a" WAVE INDEX 01 00:00:00

Лог проверки качества

[CUETools log; Date: 30.01.2018 14:33:18; Version: 2.1.6][CTDB TOCID: cUweYiSVlzW6c0kxQ5qqU9EHsxA-] found.Track | CTDB Status 1 | (10/10) Accurately ripped 2 | (10/10) Accurately ripped 3 | (10/10) Accurately ripped 4 | (10/10) Accurately ripped 5 | (10/10) Accurately ripped 6 | (10/10) Accurately ripped 7 | (10/10) Accurately ripped 8 | (10/10) Accurately ripped 9 | (10/10) Accurately ripped 10 | (10/10) Accurately ripped 11 | (10/10) Accurately ripped 12 | (10/10) Accurately ripped 13 | (10/10) Accurately ripped 14 | (10/10) Accurately ripped 15 | (10/10) Accurately ripped 16 | (10/10) Accurately ripped 17 | (10/10) Accurately ripped[AccurateRip ID: 001f379a-018fe13e-df0caf11] found.Track [ CRC | V2 ] Status 01 [d7c4f089|a485a9a9] (2+3/8) Accurately ripped 02 [629b854b|b952bdbc] (2+3/8) Accurately ripped 03 [09b7cd08|0d2b52e4] (2+3/8) Accurately ripped 04 [28b26357|75187606] (2+3/8) Accurately ripped 05 [81add39a|ef36e40c] (2+3/8) Accurately ripped 06 [c300e78a|5845a4b7] (2+3/8) Accurately ripped 07 [8fceeb3b|09c558d2] (2+3/8) Accurately ripped 08 [261ad03d|6d6d8723] (2+3/8) Accurately ripped 09 [c3ee7463|69e76ddc] (2+3/8) Accurately ripped 10 [0680fdc4|e3e45d1d] (2+3/8) Accurately ripped 11 [bda0314f|1b89ab27] (2+3/8) Accurately ripped 12 [cc20cae1|c95e68a3] (2+3/8) Accurately ripped 13 [626b6252|f191060a] (2+3/8) Accurately ripped 14 [373cbed7|5a79ffa8] (2+3/8) Accurately ripped 15 [b2088fa7|a84b4c91] (2+3/8) Accurately ripped 16 [8801684a|9033fa6f] (2+3/8) Accurately ripped 17 [7cdc828d|27c7cdaf] (2+3/8) Accurately rippedOffsetted by -271: 01 [6e5810dc] (0/8) No match (V2 was not tested) 02 [a21c8aa0] (0/8) No match (V2 was not tested) 03 [e3f20958] (0/8) No match (V2 was not tested) 04 [6f803b5b] (0/8) No match (V2 was not tested) 05 [06e2f14c] (0/8) No match (V2 was not tested) 06 [0a7a3b2d] (0/8) No match (V2 was not tested) 07 [f87d2438] (0/8) No match (V2 was not tested) 08 [11c623ed] (0/8) No match (V2 was not tested) 09 [4d52a5e3] (0/8) No match (V2 was not tested) 10 [13cc8453] (0/8) No match (V2 was not tested) 11 [93b006e1] (0/8) No match (V2 was not tested) 12 [a1a4d4c6] (0/8) No match (V2 was not tested) 13 [f2d3f7aa] (0/8) No match (V2 was not tested) 14 [955997a1] (0/8) No match (V2 was not tested) 15 [bacee10e] (0/8) No match (V2 was not tested) 16 [25e7b420] (0/8) No match (V2 was not tested) 17 [87ce4102] (0/8) No match (V2 was not tested)
Track Peak [ CRC32 ] [W/O NULL] [ LOG ] -- 79,4 [7FB2359F] [BF139C1A] CRC32 01 79,4 [225A2398] [7DA406A5] 02 44,2 [DD9518AA] [737871B1] 03 53,0 [0418AD80] [FA9080F7] 04 19,9 [970FCF9F] [3FD2C034] 05 15,6 [39CE3B29] [E3C3E0C9] 06 50,4 [01705C51] [A26786FF] 07 24,7 [34B453A6] [C20E8FFF] 08 50,1 [6BAD1A1F] [6881F2CF] 09 55,0 [8ABCAA23] [9FAB5C97] 10 50,7 [286E5CA5] [79C73FD8] 11 62,9 [59E23692] [3E1A11F6] 12 47,5 [82A088BC] [31D13AD4] 13 50,7 [425FF1BA] [F5BA52A6] 14 46,8 [469F34BC] [42BC2EF0] 15 70,7 [62B6CE64] [90C57DCD] 16 70,7 [22C7E5CA] [B6A05A62] 17 70,7 [0D642F9E] [59026DE7]

1986 - Иллюзорный Мiр

Продолжительность: 00:41:51
Треклист:
1. Sky
2. Иллюзорный мiр
3. Кокаин (Когда кончится ночь)
4. Африканский царь
5. Ты бежал за мной
6. Опус X
7. Sexy Cat
8. Медуза-Горгона
9. Себастия
10. Крылатые слоны
11. Танец "Альфонсо"
12. Наше время
13. Америка
14. Маленькая девочка
15. Круг сумасшедшей Анны

Лог создания рипа

Отчёт EAC об извлечении, выполненном 5. апреля 2008, 20:19 для диска:Крематорий / Илюзорный Мир
Дисковод: HL-DT-STDVD-RW GWA-4082N Adapter: 1 ID: 0Режим чтения: Достоверный (C2: нет, Точный поток: да, Отключение кэша: да)Коррекция смещения при чтении: 667Способность читать области Lead-in и Lead-out : Нет
Выходной формат: Внутренние WAV-операции 44.100 Гц; 16 бит; стерео
Другие параметры: Заполнение пропущенных сэмплов тишиной : Да Удаление блоков с тишиной в начале и конце : Нет Встроенный Win32-интерфейс для Win NT/2000
Характеристики диапазона извлечения и сообщения об ошибкахВыбранный диапазон Имя файла D:\crematorium\Крематорий - Илюзорный Мир\Крематорий - Илюзорный Мир.wav
Пиковый уровень 99.9 % Качество диапазона 100.0 % CRC 910EE7F0 Копирование... OK
Ошибок не произошло
Конец отчёта

Содержание индексной карты (.CUE)

REM GENRE "Rock"REM DATE 1986REM DISCID CD09CE0FREM COMMENT "ExactAudioCopy v0.95b4"PERFORMER "Крематорий"TITLE "Иллюзорный Мiр"REM DISCNUMBER 1REM TOTALDISCS 1FILE "01. Sky.m4a" WAVE TRACK 01 AUDIO TITLE "Sky" PERFORMER "Крематорий" INDEX 01 00:00:00 TRACK 02 AUDIO TITLE "Иллюзорный мiр" PERFORMER "Крематорий" INDEX 00 01:20:40FILE "02. Иллюзорный мiр.m4a" WAVE INDEX 01 00:00:00 TRACK 03 AUDIO TITLE "Кокаин (Когда кончится ночь)" PERFORMER "Крематорий" INDEX 00 03:17:09FILE "03. Кокаин (Когда кончится ночь).m4a" WAVE INDEX 01 00:00:00 TRACK 04 AUDIO TITLE "Африканский царь" PERFORMER "Крематорий" INDEX 00 03:39:15FILE "04. Африканский царь.m4a" WAVE INDEX 01 00:00:00 TRACK 05 AUDIO TITLE "Ты бежал за мной" PERFORMER "Крематорий" INDEX 00 02:06:17FILE "05. Ты бежал за мной.m4a" WAVE INDEX 01 00:00:00 TRACK 06 AUDIO TITLE "Опус X" PERFORMER "Крематорий" INDEX 00 00:56:52FILE "06. Опус X.m4a" WAVE INDEX 01 00:00:00 TRACK 07 AUDIO TITLE "Sexy Cat" PERFORMER "Крематорий" INDEX 00 02:00:08FILE "07. Sexy Cat.m4a" WAVE INDEX 01 00:00:00 TRACK 08 AUDIO TITLE "Медуза-Горгона" PERFORMER "Крематорий" INDEX 00 02:12:62FILE "08. Медуза-Горгона.m4a" WAVE INDEX 01 00:00:00 TRACK 09 AUDIO TITLE "Себастия" PERFORMER "Крематорий" INDEX 00 03:24:28FILE "09. Себастия.m4a" WAVE INDEX 01 00:00:00 TRACK 10 AUDIO TITLE "Крылатые слоны" PERFORMER "Крематорий" INDEX 00 02:28:46FILE "10. Крылатые слоны.m4a" WAVE INDEX 01 00:00:00 TRACK 11 AUDIO TITLE "Танец ''Альфонсо''" PERFORMER "Крематорий" INDEX 00 04:10:41FILE "11. Танец ''Альфонсо''.m4a" WAVE INDEX 01 00:00:00 TRACK 12 AUDIO TITLE "Наше время" PERFORMER "Крематорий" INDEX 00 02:42:44FILE "12. Наше время.m4a" WAVE INDEX 01 00:00:00 TRACK 13 AUDIO TITLE "Америка" PERFORMER "Крематорий" INDEX 00 04:18:70FILE "13. Америка.m4a" WAVE INDEX 01 00:00:00 TRACK 14 AUDIO TITLE "Маленькая девочка" PERFORMER "Крематорий" INDEX 00 02:59:14FILE "14. Маленькая девочка.m4a" WAVE INDEX 01 00:00:00 TRACK 15 AUDIO TITLE "Круг сумасшедшей Анны" PERFORMER "Крематорий" INDEX 00 02:22:13FILE "15. Круг сумасшедшей Анны.m4a" WAVE INDEX 01 00:00:00

Лог проверки качества

[CUETools log; Date: 30.01.2018 14:34:50; Version: 2.1.6][CTDB TOCID: nRo2QV0QOljC1CJwJce6yE3CAjo-] found.Track | CTDB Status 1 | (8/8) Accurately ripped 2 | (8/8) Accurately ripped 3 | (8/8) Accurately ripped 4 | (8/8) Accurately ripped 5 | (8/8) Accurately ripped 6 | (8/8) Accurately ripped 7 | (8/8) Accurately ripped 8 | (8/8) Accurately ripped 9 | (8/8) Accurately ripped 10 | (8/8) Accurately ripped 11 | (8/8) Accurately ripped 12 | (8/8) Accurately ripped 13 | (8/8) Accurately ripped 14 | (8/8) Accurately ripped 15 | (8/8) Accurately ripped[AccurateRip ID: 00156232-00f7405c-cd09ce0f] found.Track [ CRC | V2 ] Status 01 [c815da8f|8ef19d8d] (2+3/5) Accurately ripped 02 [114d9e20|ccd9bde5] (2+3/5) Accurately ripped 03 [68f4bc59|a0bab02b] (2+3/5) Accurately ripped 04 [0364bdfa|2c71e46b] (2+3/5) Accurately ripped 05 [d32d10bf|4379d1c8] (2+3/5) Accurately ripped 06 [c3529fb3|7276ff3d] (2+3/5) Accurately ripped 07 [c32f83f7|ca46146e] (2+3/5) Accurately ripped 08 [ff4ddb7c|a803841c] (2+3/5) Accurately ripped 09 [305ff967|dd37b9f8] (2+3/5) Accurately ripped 10 [c16bc7ad|9717a609] (2+3/5) Accurately ripped 11 [2820d908|886a1c88] (2+3/5) Accurately ripped 12 [348ebfba|57845d2a] (2+3/5) Accurately ripped 13 [2b0aa655|dbdceeb2] (2+3/5) Accurately ripped 14 [2eb9819a|c7d68689] (2+3/5) Accurately ripped 15 [424e7e7d|63129ea8] (2+3/5) Accurately rippedOffsetted by -669: 01 [f0e99ba2] (0/5) No match (V2 was not tested) 02 [65f6225c] (0/5) No match (V2 was not tested) 03 [03c0dc40] (0/5) No match (V2 was not tested) 04 [a14c4d0a] (0/5) No match (V2 was not tested) 05 [06dbbaa9] (0/5) No match (V2 was not tested) 06 [a6cde34e] (0/5) No match (V2 was not tested) 07 [425d560c] (0/5) No match (V2 was not tested) 08 [34a2227d] (0/5) No match (V2 was not tested) 09 [7d9c2353] (0/5) No match (V2 was not tested) 10 [842666d1] (0/5) No match (V2 was not tested) 11 [8027d34a] (0/5) No match (V2 was not tested) 12 [ffaa71b9] (0/5) No match (V2 was not tested) 13 [e94003f8] (0/5) No match (V2 was not tested) 14 [e305e4e7] (0/5) No match (V2 was not tested) 15 [d00f6d13] (0/5) No match (V2 was not tested)Offsetted by -71: 01 [470b445c] (0/5) No match (V2 was not tested) 02 [c9edda14] (0/5) No match (V2 was not tested) 03 [aef4f85e] (0/5) No match (V2 was not tested) 04 [15aeae2a] (0/5) No match (V2 was not tested) 05 [853db05d] (0/5) No match (V2 was not tested) 06 [3811a494] (0/5) No match (V2 was not tested) 07 [216ca126] (0/5) No match (V2 was not tested) 08 [f771aef4] (0/5) No match (V2 was not tested) 09 [7bbab726] (0/5) No match (V2 was not tested) 10 [576d37d9] (0/5) No match (V2 was not tested) 11 [bbfe622e] (0/5) No match (V2 was not tested) 12 [028e3e87] (0/5) No match (V2 was not tested) 13 [a00a92ce] (0/5) No match (V2 was not tested) 14 [289a94f1] (0/5) No match (V2 was not tested) 15 [969cc05f] (0/5) No match (V2 was not tested)Offsetted by 697: 01 [d6fe282f] (0/5) No match 02 [16169614] (0/5) No match 03 [345aff5e] (0/5) No match 04 [5aabbe2a] (0/5) No match 05 [02bc5a5d] (0/5) No match 06 [57a8df94] (0/5) No match 07 [a0a51626] (0/5) No match 08 [cb9da876] (0/5) No match 09 [34230284] (0/5) No match (V2 was not tested) 10 [12dbdbd9] (0/5) No match 11 [cf7a642e] (0/5) No match 12 [e5bb5d87] (0/5) No match 13 [1aa2d5ce] (0/5) No match 14 [385541f1] (0/5) No match 15 [b026965f] (0/5) No match
Track Peak [ CRC32 ] [W/O NULL] -- 99,9 [A513B73A] [910EE7F0] 01 89,1 [037B3679] [511B7B48] 02 99,9 [BB5C521C] [A78A4302] 03 89,1 [0B815BE5] [7EE731CF] 04 89,1 [B2D058B8] [F4CD57E8] 05 89,1 [7331A9DA] [CEB73A6B] 06 79,4 [E25F8CFE] [1C892E32] 07 89,1 [B14B0DCC] [C0E956EE] 08 89,1 [A144B7AC] [E737B7DA] 09 89,0 [21368A4E] [DDA07676] 10 79,4 [D12B6282] [E0A6BD76] 11 79,4 [D40CD171] [5A68BC73] 12 79,4 [B4A8161C] [9F16EC0A] 13 89,1 [E3557673] [3D90B93C] 14 89,1 [B3842094] [55D18EF7] 15 89,1 [019D8163] [9F60FC42]

1988 - Кома

Продолжительность: 00:46:47
Треклист:
1. Introduction (Кома)
2. Реанимационная машина
3. Безобразная Эльза
4. Африка
5. Клаустрофобия
6. Хабибулин
7. Кондратий
8. Моя деревня (Хит-парад '88)
9. Мусорный ветер
10. Гимн мёртвым
11. Пир белых мумий
12. Гончие псы
13. Харе Рама
14. El Final De La Vida
15. Feast Of White Mummies (bonus track)

Лог создания рипа

Exact Audio Copy V0.99 prebeta 4 from 23. January 2008
Отчёт EAC об извлечении, выполненном 14. апреля 2008, 3:33
Крематорий / Кома
Дисковод: ASUS DRW-1814BLT Adapter: 1 ID: 0
Режим чтения : ДостоверностьИспользование точного потока : ДаОтключение кэша аудио : ДаИспользование указателей C2 : Нет
Коррекция смещения при чтении : 6Способность читать области Lead-in и Lead-out : НетЗаполнение пропущенных сэмплов тишиной : ДаУдаление блоков с тишиной в начале и конце : НетПри вычислениях CRC использовались нулевые сэмплы : ДаИнтерфейс : Установленный внешний ASPI-интерфейс
Выходной формат : Внутренние WAV-операцииФормат файла сэмплов : 44.100 Гц; 16 бит; стерео
Характеристики диапазона извлечения и сообщения об ошибках
Выбранный диапазон
Имя файла C:\tmp2\Крематорий - Кома.wav
Пиковый уровень 89.1 % Качество диапазона 100 % CRC копии 77D857BE Копирование... OK
Ошибок не произошло
Конец отчёта

Содержание индексной карты (.CUE)

REM GENRE "Rock"REM DATE 1988REM DISCID BF0AF70FREM COMMENT "ExactAudioCopy v0.99pb4"PERFORMER "Крематорий"TITLE "Кома"REM DISCNUMBER 1REM TOTALDISCS 1FILE "01. Introduction (Кома).m4a" WAVE TRACK 01 AUDIO TITLE "Introduction (Кома)" PERFORMER "Крематорий" INDEX 01 00:00:00 TRACK 02 AUDIO TITLE "Реанимационная машина" PERFORMER "Крематорий" INDEX 00 00:26:74FILE "02. Реанимационная машина.m4a" WAVE INDEX 01 00:00:00 TRACK 03 AUDIO TITLE "Безобразная Эльза" PERFORMER "Крематорий" INDEX 00 04:35:72FILE "03. Безобразная Эльза.m4a" WAVE INDEX 01 00:00:00 TRACK 04 AUDIO TITLE "Африка" PERFORMER "Крематорий" INDEX 00 02:56:08FILE "04. Африка.m4a" WAVE INDEX 01 00:00:00 TRACK 05 AUDIO TITLE "Клаустрофобия" PERFORMER "Крематорий" INDEX 00 03:28:13FILE "05. Клаустрофобия.m4a" WAVE INDEX 01 00:00:00 TRACK 06 AUDIO TITLE "Хабибулин" PERFORMER "Крематорий" INDEX 00 05:28:40FILE "06. Хабибулин.m4a" WAVE INDEX 01 00:00:00FILE "07. Кондратий.m4a" WAVE TRACK 07 AUDIO TITLE "Кондратий" PERFORMER "Крематорий" INDEX 01 00:00:00 TRACK 08 AUDIO TITLE "Моя деревня (Хит-парад '88)" PERFORMER "Крематорий" INDEX 00 01:21:64FILE "08. Моя деревня (Хит-парад '88).m4a" WAVE INDEX 01 00:00:00 TRACK 09 AUDIO TITLE "Мусорный ветер" PERFORMER "Крематорий" INDEX 00 02:31:05FILE "09. Мусорный ветер.m4a" WAVE INDEX 01 00:00:00 TRACK 10 AUDIO TITLE "Гимн мёртвым" PERFORMER "Крематорий" INDEX 00 03:02:55FILE "10. Гимн мёртвым.m4a" WAVE INDEX 01 00:00:00 TRACK 11 AUDIO TITLE "Пир белых мумий" PERFORMER "Крематорий" INDEX 00 02:54:41FILE "11. Пир белых мумий.m4a" WAVE INDEX 01 00:00:00 TRACK 12 AUDIO TITLE "Гончие псы" PERFORMER "Крематорий" INDEX 00 04:15:18FILE "12. Гончие псы.m4a" WAVE INDEX 01 00:00:00 TRACK 13 AUDIO TITLE "Харе Рама" PERFORMER "Крематорий" INDEX 00 03:30:21FILE "13. Харе Рама.m4a" WAVE INDEX 01 00:00:00FILE "14. El Final De La Vida.m4a" WAVE TRACK 14 AUDIO TITLE "El Final De La Vida" PERFORMER "Крематорий" INDEX 01 00:00:00 TRACK 15 AUDIO TITLE "Feast Of White Mummies (bonus track)" PERFORMER "Крематорий" INDEX 00 00:28:27FILE "15. Feast Of White Mummies (bonus track).m4a" WAVE INDEX 01 00:00:00

Лог проверки качества

[CUETools log; Date: 30.01.2018 14:36:27; Version: 2.1.6][CTDB TOCID: 5zWi8GzI_wnyjOUU5WN_228A83Q-] found.Track | CTDB Status 1 | (8/8) Accurately ripped 2 | (8/8) Accurately ripped 3 | (8/8) Accurately ripped 4 | (8/8) Accurately ripped 5 | (8/8) Accurately ripped 6 | (8/8) Accurately ripped 7 | (8/8) Accurately ripped 8 | (8/8) Accurately ripped 9 | (8/8) Accurately ripped 10 | (8/8) Accurately ripped 11 | (7/8) Accurately ripped 12 | (8/8) Accurately ripped 13 | (8/8) Accurately ripped 14 | (8/8) Accurately ripped 15 | (7/8) Accurately ripped[AccurateRip ID: 00199c7c-0124b858-bf0af70f] found.Track [ CRC | V2 ] Status 01 [11458666|2a65510d] (0+2/9) Accurately ripped 02 [8d226ac3|740dfc2d] (0+2/8) Accurately ripped 03 [a7a4543f|adff93f3] (0+2/8) Accurately ripped 04 [87c81008|43344253] (0+2/8) Accurately ripped 05 [bc27616e|3949b70e] (0+2/7) Accurately ripped 06 [f5601775|dcb73ad9] (0+2/7) Accurately ripped 07 [214bfef4|0a634923] (0+2/8) Accurately ripped 08 [2c252a53|1bfceb2b] (0+2/8) Accurately ripped 09 [d420cb72|dbe73576] (0+2/8) Accurately ripped 10 [122ac4a3|6f41c5ec] (0+2/8) Accurately ripped 11 [6ffc7476|1094bfbc] (0+2/7) Accurately ripped 12 [622a06f3|28e2e09a] (0+2/8) Accurately ripped 13 [86b42b7e|2c2b41d6] (0+2/7) Accurately ripped 14 [0e8bce88|1f9e264d] (0+2/8) Accurately ripped 15 [c1bbbb14|12bfde3a] (0+2/8) Accurately rippedOffsetted by 71: 01 [682ae4b7] (3/9) Accurately ripped 02 [7a778e95] (3/8) Accurately ripped 03 [c13afa21] (3/8) Accurately ripped 04 [0091e3c6] (3/8) Accurately ripped 05 [2f5bceca] (3/7) Accurately ripped 06 [b7c0a5c7] (3/7) Accurately ripped 07 [b78ac1df] (3/8) Accurately ripped 08 [6b594659] (3/8) Accurately ripped 09 [d511e3ff] (3/8) Accurately ripped 10 [99d3c0a3] (3/8) Accurately ripped 11 [bac4fc14] (3/7) Accurately ripped 12 [aa3d82d1] (3/8) Accurately ripped 13 [94e21969] (3/7) Accurately ripped 14 [5eef4b27] (3/8) Accurately ripped 15 [db232f21] (3/8) Accurately ripped
Track Peak [ CRC32 ] [W/O NULL] [ LOG ] -- 89,1 [77D857BE] [C2DE234A] CRC32 01 64,7 [C8124C68] [EECFAE88] 02 89,1 [21EA75CE] [38123F3E] 03 89,1 [2B04863C] [4DF1FD8D] 04 89,1 [7F2EFA59] [BF8153D0] 05 89,1 [B8D5E037] [4909D626] 06 89,1 [038D1A27] [25425B8A] 07 86,8 [944330EE] [308C8568] 08 89,1 [A1C64B25] [D5D1E4B1] 09 89,1 [4742171E] [EDCE5DFE] 10 89,1 [85D56BEA] [31EADA4D] 11 89,1 [8828A82C] [06608F2F] 12 89,1 [521FEF7E] [3F8931CF] 13 89,1 [83B867D8] [94FDFD16] 14 89,1 [A3EB60B0] [72CE25DE] 15 89,1 [EFCC6108] [1FEAC153]

1989 - Клубника со льдом

Продолжительность: 00:44:50
Треклист:
1. Мир, полный любви
2. Женщины города роз
3. Хардрокер
4. Архип Архипыч (Космос)
5. Павлик Морозов
6. Фригия
7. Собачий вальс
8. Последний шанс (Собачка)
9. Клубника со льдом
10. Собачий вальс (bonus track версия 1988 года)

Лог создания рипа

Exact Audio Copy V1.0 beta 3 from 29. August 2011
Отчёт EAC об извлечении, выполненном 8. апреля 2013, 10:33
Крематорий / Клубника Со Льдом
Дисковод: HL-DT-STDVDRAM GH70N Adapter: 0 ID: 4
Режим чтения : ДостоверностьИспользование точного потока : ДаОтключение кэша аудио : ДаИспользование указателей C2 : Нет
Коррекция смещения при чтении : 667Способность читать области Lead-in и Lead-out : НетЗаполнение пропущенных сэмплов тишиной : ДаУдаление блоков с тишиной в начале и конце : НетПри вычислениях CRC использовались нулевые сэмплы : ДаИнтерфейс : Встроенный Win32-интерфейс для Win NT/2000
Выходной формат : Пользовательский кодировщикВыбранный битрейт : 1024 kBit/sКачество : ВысокийДобавление ID3-тега : НетУтилита сжатия : C:\Program Files (x86)\Exact Audio Copy\Flac\flac.exeДополнительные параметры : -V -8 %source%
TOC извлечённого CD
Трек | Старт | Длительность | Начальный сектор | Конечный сектор --------------------------------------------------------------------- 1 | 0:00.00 | 5:41.34 | 0 | 25608 2 | 5:41.34 | 5:57.44 | 25609 | 52427 3 | 11:39.03 | 4:04.73 | 52428 | 70800 4 | 15:44.01 | 4:41.22 | 70801 | 91897 5 | 20:25.23 | 5:17.72 | 91898 | 115744 6 | 25:43.20 | 5:01.16 | 115745 | 138335 7 | 30:44.36 | 3:58.33 | 138336 | 156218 8 | 34:42.69 | 3:37.09 | 156219 | 172502 9 | 38:20.03 | 3:09.22 | 172503 | 186699 10 | 41:29.25 | 3:20.67 | 186700 | 201766
Характеристики диапазона извлечения и сообщения об ошибках
Выбранный диапазон
Имя файла D:\Архив\Крематорий - Клубника Со Льдом.wav
Пиковый уровень 89.1 % Скорость извлечения 1.7 X Качество диапазона 99.9 % CRC теста 4CE21FC4 CRC копии 4CE21FC4 Копирование... OK
Ошибок не произошло
AccurateRip: сводка
Трек 1 : извлечено точно (доверие 2) [E9AE5FD2] (AR v1)Трек 2 : извлечено точно (доверие 2) [61EFEC92] (AR v1)Трек 3 : извлечено точно (доверие 2) [E108D027] (AR v1)Трек 4 : извлечено точно (доверие 2) [15CE8195] (AR v1)Трек 5 : извлечено точно (доверие 2) [88100EFE] (AR v1)Трек 6 : извлечено точно (доверие 2) [DB73CC55] (AR v1)Трек 7 : извлечено точно (доверие 2) [E5769A36] (AR v1)Трек 8 : извлечено точно (доверие 2) [66785D28] (AR v1)Трек 9 : извлечено точно (доверие 2) [9561F283] (AR v1)Трек 10 : извлечено точно (доверие 2) [9D6D5520] (AR v1)
Все треки извлечены точно
Конец отчёта
==== Контрольная сумма отчёта 73A7A8BC4FA17A8F338B377641DAE0FDD321C38BB684A5F5C400060CD7BA4A76 ====

Содержание индексной карты (.CUE)

REM GENRE "Rock"REM DATE 1989REM DISCID 7A0A820AREM COMMENT "ExactAudioCopy v1.0b3"PERFORMER "Крематорий"TITLE "Клубника со льдом"REM DISCNUMBER 1REM TOTALDISCS 1FILE "01. Мир, полный любви.m4a" WAVE TRACK 01 AUDIO TITLE "Мир, полный любви" PERFORMER "Крематорий" INDEX 01 00:00:00FILE "02. Женщины города роз.m4a" WAVE TRACK 02 AUDIO TITLE "Женщины города роз" PERFORMER "Крематорий" INDEX 01 00:00:00 TRACK 03 AUDIO TITLE "Хардрокер" PERFORMER "Крематорий" INDEX 00 05:54:44FILE "03. Хардрокер.m4a" WAVE INDEX 01 00:00:00 TRACK 04 AUDIO TITLE "Архип Архипыч (Космос)" PERFORMER "Крематорий" INDEX 00 04:01:73FILE "04. Архип Архипыч (Космос).m4a" WAVE INDEX 01 00:00:00 TRACK 05 AUDIO TITLE "Павлик Морозов" PERFORMER "Крематорий" INDEX 00 04:38:22FILE "05. Павлик Морозов.m4a" WAVE INDEX 01 00:00:00 TRACK 06 AUDIO TITLE "Фригия" PERFORMER "Крематорий" INDEX 00 05:14:72FILE "06. Фригия.m4a" WAVE INDEX 01 00:00:00 TRACK 07 AUDIO TITLE "Собачий вальс" PERFORMER "Крематорий" INDEX 00 04:58:16FILE "07. Собачий вальс.m4a" WAVE INDEX 01 00:00:00FILE "08. Последний шанс (Собачка).m4a" WAVE TRACK 08 AUDIO TITLE "Последний шанс (Собачка)" PERFORMER "Крематорий" INDEX 01 00:00:00 TRACK 09 AUDIO TITLE "Клубника со льдом" PERFORMER "Крематорий" INDEX 00 03:34:09FILE "09. Клубника со льдом.m4a" WAVE INDEX 01 00:00:00 TRACK 10 AUDIO TITLE "Собачий вальс (bonus track версия 1998 года)" PERFORMER "Крематорий" INDEX 00 02:59:22FILE "10. Собачий вальс (bonus track версия 1998 года).m4a" WAVE INDEX 01 00:00:00

Лог проверки качества

[CUETools log; Date: 30.01.2018 14:38:56; Version: 2.1.6][CTDB TOCID: 5144LLxr27Y0AWMG5xIUiXkCnyA-] found.Track | CTDB Status 1 | (9/9) Accurately ripped 2 | (9/9) Accurately ripped 3 | (9/9) Accurately ripped 4 | (9/9) Accurately ripped 5 | (9/9) Accurately ripped 6 | (9/9) Accurately ripped 7 | (9/9) Accurately ripped 8 | (9/9) Accurately ripped 9 | (9/9) Accurately ripped 10 | (9/9) Accurately ripped[AccurateRip ID: 00127e66-0091000f-7a0a820a] found.Track [ CRC | V2 ] Status 01 [e9ae5fd2|93fc3755] (2+4/8) Accurately ripped 02 [61efec92|da0fb5c0] (2+4/8) Accurately ripped 03 [e108d027|11d90de1] (2+4/8) Accurately ripped 04 [15ce8195|c58ca439] (2+4/8) Accurately ripped 05 [88100efe|3cde8948] (2+4/8) Accurately ripped 06 [db73cc55|d6eb3f51] (2+4/8) Accurately ripped 07 [e5769a36|d33b5622] (2+4/8) Accurately ripped 08 [66785d28|17a193bb] (2+4/8) Accurately ripped 09 [9561f283|baa09df8] (2+4/8) Accurately ripped 10 [9d6d5520|7890d118] (2+4/8) Accurately rippedOffsetted by -1328: 01 [08561f56] (0/8) No match (V2 was not tested) 02 [455ab7c3] (0/8) No match (V2 was not tested) 03 [4aa474d7] (0/8) No match (V2 was not tested) 04 [2a2f7955] (0/8) No match (V2 was not tested) 05 [4e456f8e] (0/8) No match (V2 was not tested) 06 [0987e8a5] (0/8) No match (V2 was not tested) 07 [4969e165] (0/8) No match (V2 was not tested) 08 [78cf055d] (0/8) No match (V2 was not tested) 09 [c7bb8eb3] (0/8) No match (V2 was not tested) 10 [02694ffa] (0/8) No match (V2 was not tested)Offsetted by -984: 01 [5976f31b] (0/8) No match (V2 was not tested) 02 [116d55e9] (0/8) No match (V2 was not tested) 03 [435595bf] (0/8) No match (V2 was not tested) 04 [35ded675] (0/8) No match (V2 was not tested) 05 [cf5c9f06] (0/8) No match (V2 was not tested) 06 [1645033d] (0/8) No match (V2 was not tested) 07 [0c62571f] (0/8) No match (V2 was not tested) 08 [255253eb] (0/8) No match (V2 was not tested) 09 [3dc645db] (0/8) No match (V2 was not tested) 10 [f7de6580] (0/8) No match (V2 was not tested)
Track Peak [ CRC32 ] [W/O NULL] [ LOG ] -- 89,1 [4CE21FC4] [5298B4F3] CRC32 01 89,1 [80581779] [8210A195] 02 89,1 [13B12D7C] [A9A9BD4C] 03 79,4 [35733870] [225C0C76] 04 89,1 [FC24452E] [34A5E15F] 05 89,1 [F8F75FBC] [9921FAC6] 06 89,1 [93B578C4] [C17714A3] 07 89,1 [1A88230E] [6A2DFD97] 08 89,1 [FFD1E1AB] [C5EAA050] 09 89,1 [F635969A] [0C863BB5] 10 89,1 [4A55D7E4] [76603159]

1991 - Зомби

Продолжительность: 00:43:11
Треклист:
1. Клофелин
2. Зомби
3. Больной
4. Калигула
5. Твари
6. Яд
7. Ура!
8. Шпалер
9. Черви
10. Газы
11. Уродина
12. Осень
13. Баллада

Лог создания рипа

Exact Audio Copy V1.0 beta 3 from 29. August 2011
Отчёт EAC об извлечении, выполненном 13. апреля 2013, 10:12
Крематорий / Зомби
Дисковод: HL-DT-STDVDRAM GH70N Adapter: 0 ID: 4
Режим чтения : ДостоверностьИспользование точного потока : ДаОтключение кэша аудио : ДаИспользование указателей C2 : Нет
Коррекция смещения при чтении : 667Способность читать области Lead-in и Lead-out : НетЗаполнение пропущенных сэмплов тишиной : ДаУдаление блоков с тишиной в начале и конце : НетПри вычислениях CRC использовались нулевые сэмплы : ДаИнтерфейс : Встроенный Win32-интерфейс для Win NT/2000
Выходной формат : Пользовательский кодировщикВыбранный битрейт : 1024 kBit/sКачество : ВысокийДобавление ID3-тега : НетУтилита сжатия : C:\Program Files (x86)\Exact Audio Copy\Flac\flac.exeДополнительные параметры : -V -8 %source%
TOC извлечённого CD
Трек | Старт | Длительность | Начальный сектор | Конечный сектор --------------------------------------------------------------------- 1 | 0:00.00 | 1:38.73 | 0 | 7422 2 | 1:38.73 | 4:05.57 | 7423 | 25854 3 | 5:44.55 | 3:48.00 | 25855 | 42954 4 | 9:32.55 | 4:14.18 | 42955 | 62022 5 | 13:46.73 | 3:10.28 | 62023 | 76300 6 | 16:57.26 | 3:30.33 | 76301 | 92083 7 | 20:27.59 | 1:23.05 | 92084 | 98313 8 | 21:50.64 | 3:50.04 | 98314 | 115567 9 | 25:40.68 | 3:24.60 | 115568 | 130927 10 | 29:05.53 | 2:56.37 | 130928 | 144164 11 | 32:02.15 | 4:30.71 | 144165 | 164485 12 | 36:33.11 | 2:26.40 | 164486 | 175475 13 | 38:59.51 | 4:11.22 | 175476 | 194322
Характеристики диапазона извлечения и сообщения об ошибках
Выбранный диапазон
Имя файла D:\Архив\Крематорий - Зомби.wav
Пиковый уровень 89.1 % Скорость извлечения 6.5 X Качество диапазона 99.9 % CRC копии D7EB6BC7 Копирование... OK
Ошибок не произошло
AccurateRip: сводка
Трек 1 : извлечено точно (доверие 2) [9B09579D] (AR v1)Трек 2 : извлечено точно (доверие 2) [9B14A0E3] (AR v1)Трек 3 : извлечено точно (доверие 2) [81ADE4D8] (AR v1)Трек 4 : извлечено точно (доверие 2) [CB0FD9E5] (AR v1)Трек 5 : извлечено точно (доверие 2) [A0DBC758] (AR v1)Трек 6 : извлечено точно (доверие 2) [0A874898] (AR v1)Трек 7 : извлечено точно (доверие 2) [1034E662] (AR v1)Трек 8 : извлечено точно (доверие 2) [32A86A8C] (AR v1)Трек 9 : извлечено точно (доверие 2) [8099AFFA] (AR v1)Трек 10 : извлечено точно (доверие 2) [2644B64E] (AR v1)Трек 11 : извлечено точно (доверие 2) [4AB4E994] (AR v1)Трек 12 : извлечено точно (доверие 2) [84FB8EB3] (AR v1)Трек 13 : извлечено точно (доверие 2) [9C912F0C] (AR v1)
Все треки извлечены точно
Конец отчёта
==== Контрольная сумма отчёта 2C95E1570D02A8DD1A679E9EBB35B701BEC2D0D05BC23849FFBB7776A299C897 ====

Содержание индексной карты (.CUE)

REM GENRE "Rock"REM DATE 1991REM DISCID 9C0A1E0DREM COMMENT "ExactAudioCopy v1.0b3"PERFORMER "Крематорий"TITLE "Зомби"REM DISCNUMBER 1REM TOTALDISCS 1FILE "01. Клофелин.m4a" WAVE TRACK 01 AUDIO TITLE "Клофелин" PERFORMER "Крематорий" INDEX 01 00:00:00FILE "02. Зомби.m4a" WAVE TRACK 02 AUDIO TITLE "Зомби" PERFORMER "Крематорий" INDEX 01 00:00:00FILE "03. Больной.m4a" WAVE TRACK 03 AUDIO TITLE "Больной" PERFORMER "Крематорий" INDEX 01 00:00:00 TRACK 04 AUDIO TITLE "Калигула" PERFORMER "Крематорий" INDEX 00 03:45:01FILE "04. Калигула.m4a" WAVE INDEX 01 00:00:00 TRACK 05 AUDIO TITLE "Твари" PERFORMER "Крематорий" FLAGS PRE INDEX 00 04:11:18FILE "05. Твари.m4a" WAVE INDEX 01 00:00:00 TRACK 06 AUDIO TITLE "Яд" PERFORMER "Крематорий" INDEX 00 03:07:28FILE "06. Яд.m4a" WAVE INDEX 01 00:00:00 TRACK 07 AUDIO TITLE "Ура!" PERFORMER "Крематорий" INDEX 00 03:27:33FILE "07. Ура!.m4a" WAVE INDEX 01 00:00:00 TRACK 08 AUDIO TITLE "Шпалер" PERFORMER "Крематорий" INDEX 00 01:20:05FILE "08. Шпалер.m4a" WAVE INDEX 01 00:00:00 TRACK 09 AUDIO TITLE "Черви" PERFORMER "Крематорий" INDEX 00 03:47:04FILE "09. Черви.m4a" WAVE INDEX 01 00:00:00 TRACK 10 AUDIO TITLE "Газы" PERFORMER "Крематорий" INDEX 00 03:21:60FILE "10. Газы.m4a" WAVE INDEX 01 00:00:00 TRACK 11 AUDIO TITLE "Уродина" PERFORMER "Крематорий" INDEX 00 02:53:37FILE "11. Уродина.m4a" WAVE INDEX 01 00:00:00 TRACK 12 AUDIO TITLE "Осень" PERFORMER "Крематорий" INDEX 00 04:27:71FILE "12. Осень.m4a" WAVE INDEX 01 00:00:00 TRACK 13 AUDIO TITLE "Баллада" PERFORMER "Крематорий" INDEX 00 02:16:40FILE "13. Баллада.m4a" WAVE INDEX 01 00:00:00

Лог проверки качества

[CUETools log; Date: 30.01.2018 14:40:09; Version: 2.1.6][CTDB TOCID: ALHxkrkEepB5oR.z9k73mnmn2YU-] found.Track | CTDB Status 1 | (16/16) Accurately ripped 2 | (16/16) Accurately ripped 3 | (16/16) Accurately ripped 4 | (16/16) Accurately ripped 5 | (16/16) Accurately ripped 6 | (16/16) Accurately ripped 7 | (16/16) Accurately ripped 8 | (16/16) Accurately ripped 9 | (16/16) Accurately ripped 10 | (16/16) Accurately ripped 11 | (16/16) Accurately ripped 12 | (16/16) Accurately ripped 13 | (15/16) Accurately ripped[AccurateRip ID: 00144aed-00cc1232-9c0a1e0d] found.Track [ CRC | V2 ] Status 01 [9b09579d|2b6a88f7] (02+04/15) Accurately ripped 02 [9b14a0e3|a9892829] (02+04/15) Accurately ripped 03 [81ade4d8|acae552f] (02+04/15) Accurately ripped 04 [cb0fd9e5|5b6cdb21] (02+04/16) Accurately ripped 05 [a0dbc758|57500fb0] (02+04/15) Accurately ripped 06 [0a874898|369d1c46] (02+04/16) Accurately ripped 07 [1034e662|f9818c94] (02+04/15) Accurately ripped 08 [32a86a8c|7a41d7bc] (02+04/16) Accurately ripped 09 [8099affa|75e21041] (02+04/16) Accurately ripped 10 [2644b64e|d40b5513] (02+04/15) Accurately ripped 11 [4ab4e994|d966a192] (02+04/14) Accurately ripped 12 [84fb8eb3|a487944e] (02+04/14) Accurately ripped 13 [9c912f0c|c309cdc4] (02+04/13) Accurately rippedOffsetted by 71: 01 [c16816fe] (05/15) Accurately ripped 02 [a27c2f83] (05/15) Accurately ripped 03 [1f5fb460] (05/15) Accurately ripped 04 [1ba4bbcd] (05/16) Accurately ripped 05 [e650abaf] (05/15) Accurately ripped 06 [1ee641cc] (05/16) Accurately ripped 07 [cd35e253] (05/15) Accurately ripped 08 [e22f58a0] (05/16) Accurately ripped 09 [db09b08e] (05/16) Accurately ripped 10 [c0fc133c] (05/15) Accurately ripped 11 [0bfb32d5] (04/14) Accurately ripped 12 [098d514c] (04/14) Accurately ripped 13 [d28d1479] (04/13) Accurately rippedOffsetted by -681: 01 [39848734] (00/15) No match (V2 was not tested) 02 [875fbf90] (00/15) No match (V2 was not tested) 03 [a7fd5dd3] (00/15) No match (V2 was not tested) 04 [1916e14d] (00/16) No match (V2 was not tested) 05 [0ddf8fbf] (00/15) No match (V2 was not tested) 06 [38b7708c] (00/16) No match (V2 was not tested) 07 [ba772dc3] (00/15) No match (V2 was not tested) 08 [d18f6960] (00/16) No match (V2 was not tested) 09 [b0fed94e] (00/16) No match (V2 was not tested) 10 [d87f375c] (00/15) No match (V2 was not tested) 11 [de07f145] (00/14) No match (V2 was not tested) 12 [0ba2563c] (00/14) No match (V2 was not tested) 13 [c9a0a992] (00/13) No match (V2 was not tested)
Track Peak [ CRC32 ] [W/O NULL] [ LOG ] -- 89,1 [D7EB6BC7] [95C9BA61] CRC32 01 44,6 [F094E638] [FAFC885E] 02 59,2 [2CFC50EA] [581977D2] 03 89,1 [6718648B] [1D1F0DCC] 04 79,4 [EB31271A] [523825B4] 05 89,1 [E3EFE648] [66DC23B4] 06 70,7 [E57B9174] [535C88B6] 07 70,7 [A3F29C89] [66E39643] 08 79,4 [5B00F427] [11DC3A25] 09 89,1 [3F13ECB9] [E8F8F5EA] 10 89,1 [829900E6] [DAC61BC1] 11 89,1 [DFFE1A3E] [14FAC319] 12 79,4 [FE96866E] [E7C3F160] 13 89,1 [9753E416] [C85C7794]

1994 - Танго на облаке

Продолжительность: 00:37:44
Треклист:
1. Невинный тунец (Фантазия)
2. Мурзилкины сны
3. Остров сирен
4. Брат во Христе
5. Некрофилия
6. Тру-ля-ля
7. Jedem das Seine
8. Jeff - белая кровь
9. Бомба
10. Квазимодо (Конец идиота)
11. Лазарь
12. Танго на облаке

Лог создания рипа

Exact Audio Copy V1.0 beta 3 from 29. August 2011
Отчёт EAC об извлечении, выполненном 8. июля 2013, 15:00
Крематорий / Танго На Облаке
Дисковод: TSSTcorpDVD-ROM SH-D162C Adapter: 0 ID: 1
Режим чтения : ДостоверностьИспользование точного потока : ДаОтключение кэша аудио : ДаИспользование указателей C2 : Нет
Коррекция смещения при чтении : 6Способность читать области Lead-in и Lead-out : НетЗаполнение пропущенных сэмплов тишиной : ДаУдаление блоков с тишиной в начале и конце : НетПри вычислениях CRC использовались нулевые сэмплы : ДаИнтерфейс : Встроенный Win32-интерфейс для Win NT/2000
Выходной формат : Пользовательский кодировщикВыбранный битрейт : 1024 kBit/sКачество : ВысокийДобавление ID3-тега : НетУтилита сжатия : C:\Program Files\FLAC\flac.exeДополнительные параметры : -V -8 %source%
TOC извлечённого CD
Трек | Старт | Длительность | Начальный сектор | Конечный сектор --------------------------------------------------------------------- 1 | 0:00.00 | 3:41.35 | 0 | 16609 2 | 3:41.35 | 3:26.25 | 16610 | 32084 3 | 7:07.60 | 3:53.02 | 32085 | 49561 4 | 11:00.62 | 3:27.70 | 49562 | 65156 5 | 14:28.57 | 3:26.23 | 65157 | 80629 6 | 17:55.05 | 3:04.07 | 80630 | 94436 7 | 20:59.12 | 3:10.00 | 94437 | 108686 8 | 24:09.12 | 2:58.30 | 108687 | 122066 9 | 27:07.42 | 2:27.03 | 122067 | 133094 10 | 29:34.45 | 4:08.55 | 133095 | 151749 11 | 33:43.25 | 0:58.40 | 151750 | 156139 12 | 34:41.65 | 3:02.10 | 156140 | 169799
Характеристики диапазона извлечения и сообщения об ошибках
Выбранный диапазон
Имя файла E:\Крематорий\1994 - Танго на облаке [Moroz Records]\Крематорий - 1994 - Танго На Облаке.wav
Пиковый уровень 73.7 % Скорость извлечения 2.3 X Качество диапазона 99.9 % CRC теста 9D3E7D23 CRC копии 9D3E7D23 Копирование... OK
Ошибок не произошло
AccurateRip: сводка
Трек 1 : извлечено точно (доверие 4) [39C59B49] (AR v1)Трек 2 : извлечено точно (доверие 4) [CCA4E301] (AR v1)Трек 3 : извлечено точно (доверие 4) [0FDBCFC2] (AR v1)Трек 4 : извлечено точно (доверие 4) [F7CCF132] (AR v1)Трек 5 : извлечено точно (доверие 4) [C1B3635F] (AR v1)Трек 6 : извлечено точно (доверие 4) [188E79C5] (AR v1)Трек 7 : извлечено точно (доверие 4) [2A990BE1] (AR v1)Трек 8 : извлечено точно (доверие 4) [FBA4EC81] (AR v1)Трек 9 : извлечено точно (доверие 4) [82A1A6B7] (AR v1)Трек 10 : извлечено точно (доверие 4) [797C591C] (AR v1)Трек 11 : извлечено точно (доверие 4) [4A14A986] (AR v1)Трек 12 : извлечено точно (доверие 5) [AE25706B] (AR v1)
Все треки извлечены точно
Конец отчёта
==== Контрольная сумма отчёта 33DEDE6CCA8D8139FA264BE9CD3228C2316CC2D7D1832419C2A944C27CFB2CAD ====

Содержание индексной карты (.CUE)

REM GENRE "Rock"REM DATE 1994REM DISCID 9608D80CPERFORMER "Крематорий"TITLE "Танго На Облаке"REM DISCNUMBER 1REM TOTALDISCS 1FILE "01. Невинный тунец (Фантазия).m4a" WAVE TRACK 01 AUDIO TITLE "Невинный тунец (Фантазия)" PERFORMER "Крематорий" INDEX 01 00:00:00 TRACK 02 AUDIO TITLE "Мурзилкины сны" PERFORMER "Крематорий" INDEX 00 03:40:00FILE "02. Мурзилкины сны.m4a" WAVE INDEX 01 00:00:00 TRACK 03 AUDIO TITLE "Остров сирен" PERFORMER "Крематорий" INDEX 00 03:24:20FILE "03. Остров сирен.m4a" WAVE INDEX 01 00:00:00 TRACK 04 AUDIO TITLE "Брат во Христе" PERFORMER "Крематорий" INDEX 00 03:51:20FILE "04. Брат во Христе.m4a" WAVE INDEX 01 00:00:00 TRACK 05 AUDIO TITLE "Некрофилия" PERFORMER "Крематорий" INDEX 00 03:25:63FILE "05. Некрофилия.m4a" WAVE INDEX 01 00:00:00 TRACK 06 AUDIO TITLE "Тру-ля-ля" PERFORMER "Крематорий" INDEX 00 03:23:55FILE "06. Тру-ля-ля.m4a" WAVE INDEX 01 00:00:00 TRACK 07 AUDIO TITLE "Jedem das Seine" PERFORMER "Крематорий" INDEX 00 03:01:65FILE "07. Jedem das Seine.m4a" WAVE INDEX 01 00:00:00 TRACK 08 AUDIO TITLE "Jeff - белая кровь" PERFORMER "Крематорий" INDEX 00 03:08:25FILE "08. Jeff - белая кровь.m4a" WAVE INDEX 01 00:00:00 TRACK 09 AUDIO TITLE "Бомба" PERFORMER "Крематорий" INDEX 00 02:56:43FILE "09. Бомба.m4a" WAVE INDEX 01 00:00:00 TRACK 10 AUDIO TITLE "Квазимодо (Конец идиота)" PERFORMER "Крематорий" INDEX 00 02:25:08FILE "10. Квазимодо (Конец идиота).m4a" WAVE INDEX 01 00:00:00 TRACK 11 AUDIO TITLE "Лазарь" PERFORMER "Крематорий" INDEX 00 04:06:67FILE "11. Лазарь.m4a" WAVE INDEX 01 00:00:00 TRACK 12 AUDIO TITLE "Танго на облаке" PERFORMER "Крематорий" INDEX 00 00:55:70FILE "12. Танго на облаке.m4a" WAVE INDEX 01 00:00:00

Лог проверки качества

[CUETools log; Date: 30.01.2018 14:41:49; Version: 2.1.6][CTDB TOCID: teaKIiB3ug45S4AfH.72Ch2T1NU-] found.Track | CTDB Status 1 | (12/12) Accurately ripped 2 | (12/12) Accurately ripped 3 | (12/12) Accurately ripped 4 | (12/12) Accurately ripped 5 | (10/12) Accurately ripped 6 | (12/12) Accurately ripped 7 | (11/12) Accurately ripped 8 | (12/12) Accurately ripped 9 | (11/12) Accurately ripped 10 | (12/12) Accurately ripped 11 | (11/12) Accurately ripped 12 | (11/12) Accurately ripped[AccurateRip ID: 00120174-00a585ef-9608d80c] found.Track [ CRC | V2 ] Status 01 [39c59b49|623e615d] (04+02/17) Accurately ripped 02 [cca4e301|f6013e17] (04+02/17) Accurately ripped 03 [0fdbcfc2|9b02f057] (04+02/17) Accurately ripped 04 [f7ccf132|c89a1846] (04+02/17) Accurately ripped 05 [c1b3635f|b81ae07b] (04+02/17) Accurately ripped 06 [188e79c5|801a458b] (04+02/17) Accurately ripped 07 [2a990be1|a99ab37e] (04+02/17) Accurately ripped 08 [fba4ec81|e2fb52d0] (04+02/17) Accurately ripped 09 [82a1a6b7|f1c1eb79] (04+02/17) Accurately ripped 10 [797c591c|7c081464] (04+02/17) Accurately ripped 11 [4a14a986|c6d47a22] (04+02/17) Accurately ripped 12 [ae25706b|90c0b9e6] (05+02/18) Accurately rippedOffsetted by -657: 01 [0e682097] (05/17) Accurately ripped 02 [08c58dd6] (05/17) Accurately ripped 03 [7011eafb] (05/17) Accurately ripped 04 [9f15b039] (05/17) Accurately ripped 05 [bd4fe524] (05/17) Accurately ripped 06 [8439389d] (05/17) Accurately ripped 07 [5602eed8] (05/17) Accurately ripped 08 [25cb55a7] (05/17) Accurately ripped 09 [1c232968] (05/17) Accurately ripped 10 [0bd87339] (05/17) Accurately ripped 11 [90ab9c28] (05/17) Accurately ripped 12 [f3c2988f] (05/18) Accurately rippedOffsetted by -681: 01 [785db2e7] (00/17) No match (V2 was not tested) 02 [24af5e4e] (00/17) No match (V2 was not tested) 03 [57879ed3] (00/17) No match (V2 was not tested) 04 [ae8c1261] (00/17) No match (V2 was not tested) 05 [42c5f3f4] (00/17) No match (V2 was not tested) 06 [fa5a3905] (00/17) No match (V2 was not tested) 07 [fb7f5048] (00/17) No match (V2 was not tested) 08 [79b2736f] (00/17) No match (V2 was not tested) 09 [93dabc58] (00/17) No match (V2 was not tested) 10 [d3af8685] (00/17) No match (V2 was not tested) 11 [2307806c] (00/17) No match (V2 was not tested) 12 [e4cb973b] (00/18) No match (V2 was not tested)
Track Peak [ CRC32 ] [W/O NULL] [ LOG ] -- 73,7 [9D3E7D23] [7128A897] CRC32 01 69,9 [F2B2F32E] [2F758482] 02 69,9 [8D70940E] [6D4ADA27] 03 69,9 [D779052C] [7A7AF9A3] 04 62,7 [1F587CEB] [43962548] 05 69,3 [D281049F] [14DDEE97] 06 39,9 [09EF05B8] [574C9D5F] 07 69,9 [E2104C7D] [916596F2] 08 71,8 [DF68E88D] [FC9503D9] 09 69,9 [F02586FA] [1A9085B2] 10 73,7 [C85942C0] [21FF4FA0] 11 63,0 [66065419] [C932EC05] 12 42,4 [ED5116D4] [3BBB7D41]

1995 - Текиловые сны

Продолжительность: 00:45:20
Треклист:
1. Данте Алигьери (Одинокие пиплы)
2. Белые столбы
3. Разбитое сердце
4. Миклуха
5. Прощай моё солнце (Гонцы за вином)
6. Эротические монстры
7. Туда, где отдают концы
8. Андромеда
9. Окно
10. Палковводец Красс
11. 100 лет, прожитых зря
12. Бесы в моих снах
13. Амба
14. Гаф-гаф
15. Сине-розовый Марс
16. Прощальные сны

Лог создания рипа

Exact Audio Copy V1.0 beta 3 from 29. August 2011
Отчёт EAC об извлечении, выполненном 8. июля 2013, 17:24
Крематорий / Текиловые Сны
Дисковод: TSSTcorpDVD-ROM SH-D162C Adapter: 0 ID: 1
Режим чтения : ДостоверностьИспользование точного потока : ДаОтключение кэша аудио : ДаИспользование указателей C2 : Нет
Коррекция смещения при чтении : 6Способность читать области Lead-in и Lead-out : НетЗаполнение пропущенных сэмплов тишиной : ДаУдаление блоков с тишиной в начале и конце : НетПри вычислениях CRC использовались нулевые сэмплы : ДаИнтерфейс : Встроенный Win32-интерфейс для Win NT/2000
Выходной формат : Пользовательский кодировщикВыбранный битрейт : 1024 kBit/sКачество : ВысокийДобавление ID3-тега : НетУтилита сжатия : C:\Program Files\FLAC\flac.exeДополнительные параметры : -V -8 %source%
TOC извлечённого CD
Трек | Старт | Длительность | Начальный сектор | Конечный сектор --------------------------------------------------------------------- 1 | 0:00.00 | 3:53.45 | 0 | 17519 2 | 3:53.45 | 3:19.32 | 17520 | 32476 3 | 7:13.02 | 2:29.40 | 32477 | 43691 4 | 9:42.42 | 2:54.48 | 43692 | 56789 5 | 12:37.15 | 3:13.25 | 56790 | 71289 6 | 15:50.40 | 3:18.57 | 71290 | 86196 7 | 19:09.22 | 2:15.73 | 86197 | 96394 8 | 21:25.20 | 1:13.47 | 96395 | 101916 9 | 22:38.67 | 2:42.35 | 101917 | 114101 10 | 25:21.27 | 0:52.50 | 114102 | 118051 11 | 26:14.02 | 3:50.28 | 118052 | 135329 12 | 30:04.30 | 2:37.02 | 135330 | 147106 13 | 32:41.32 | 3:21.23 | 147107 | 162204 14 | 36:02.55 | 2:55.27 | 162205 | 175356 15 | 38:58.07 | 2:51.43 | 175357 | 188224 16 | 41:49.50 | 3:30.27 | 188225 | 204001
Характеристики диапазона извлечения и сообщения об ошибках
Выбранный диапазон
Имя файла E:\Крематорий\1995 - Текиловые сны [Moroz Records]\Крематорий - 1995 - Текиловые Сны.wav
Пиковый уровень 100.0 % Скорость извлечения 3.5 X Качество диапазона 100.0 % CRC теста 474613EC CRC копии 474613EC Копирование... OK
Ошибок не произошло
AccurateRip: сводка
Трек 1 : извлечено точно (доверие 8) [CB2D463C] (AR v1)Трек 2 : извлечено точно (доверие 8) [5C478A21] (AR v1)Трек 3 : извлечено точно (доверие 8) [A1042EEF] (AR v1)Трек 4 : извлечено точно (доверие 8) [F28B09CE] (AR v1)Трек 5 : извлечено точно (доверие 8) [826B04BD] (AR v1)Трек 6 : извлечено точно (доверие 8) [543F3079] (AR v1)Трек 7 : извлечено точно (доверие 8) [FC1D9D8F] (AR v1)Трек 8 : извлечено точно (доверие 8) [7B1B1FA8] (AR v1)Трек 9 : извлечено точно (доверие 8) [AE01075F] (AR v1)Трек 10 : извлечено точно (доверие 8) [E4B8A7C5] (AR v1)Трек 11 : извлечено точно (доверие 8) [F65919A3] (AR v1)Трек 12 : извлечено точно (доверие 8) [09C1C677] (AR v1)Трек 13 : извлечено точно (доверие 7) [82CABF11] (AR v1)Трек 14 : извлечено точно (доверие 8) [F675C8A1] (AR v1)Трек 15 : извлечено точно (доверие 8) [9AB968B8] (AR v1)Трек 16 : извлечено точно (доверие 8) [DA755D88] (AR v1)
Все треки извлечены точно
Конец отчёта
==== Контрольная сумма отчёта EC7435D5DC089E5B481BACFE3B1102479992FC0B1364759254445F6127BD84D5 ====

Содержание индексной карты (.CUE)

REM GENRE "Rock"REM DATE 1995REM DISCID D10AA010PERFORMER "Крематорий"TITLE "Текиловые Сны"REM DISCNUMBER 1REM TOTALDISCS 1FILE "01. Данте Алигьери (Одинокие пиплы).m4a" WAVE TRACK 01 AUDIO TITLE "Данте Алигьери (Одинокие пиплы)" PERFORMER "Крематорий" INDEX 01 00:00:00 TRACK 02 AUDIO TITLE "Белые столбы" PERFORMER "Крематорий" INDEX 00 03:51:45FILE "02. Белые столбы.m4a" WAVE INDEX 01 00:00:00 TRACK 03 AUDIO TITLE "Разбитое сердце" PERFORMER "Крематорий" INDEX 00 03:16:02FILE "03. Разбитое сердце.m4a" WAVE INDEX 01 00:00:00 TRACK 04 AUDIO TITLE "Миклуха" PERFORMER "Крематорий" INDEX 00 02:26:03FILE "04. Миклуха.m4a" WAVE INDEX 01 00:00:00 TRACK 05 AUDIO TITLE "Прощай моё солнце (Гонцы за вином)" PERFORMER "Крематорий" INDEX 00 02:50:63FILE "05. Прощай моё солнце (Гонцы за вином).m4a" WAVE INDEX 01 00:00:00 TRACK 06 AUDIO TITLE "Эротические монстры" PERFORMER "Крематорий" INDEX 00 03:10:30FILE "06. Эротические монстры.m4a" WAVE INDEX 01 00:00:00 TRACK 07 AUDIO TITLE "Туда, где отдают концы" PERFORMER "Крематорий" INDEX 00 03:14:72FILE "07. Туда, где отдают концы.m4a" WAVE INDEX 01 00:00:00 TRACK 08 AUDIO TITLE "Андромеда" PERFORMER "Крематорий" INDEX 00 02:14:03FILE "08. Андромеда.m4a" WAVE INDEX 01 00:00:00 TRACK 09 AUDIO TITLE "Окно" PERFORMER "Крематорий" INDEX 00 01:10:32FILE "09. Окно.m4a" WAVE INDEX 01 00:00:00 TRACK 10 AUDIO TITLE "Палковводец Красс" PERFORMER "Крематорий" INDEX 00 02:39:35FILE "10. Палковводец Красс.m4a" WAVE INDEX 01 00:00:00 TRACK 11 AUDIO TITLE "100 лет, прожитых зря" PERFORMER "Крематорий" INDEX 00 00:49:27FILE "11. 100 лет, прожитых зря.m4a" WAVE INDEX 01 00:00:00 TRACK 12 AUDIO TITLE "Бесы в моих снах" PERFORMER "Крематорий" INDEX 00 03:47:53FILE "12. Бесы в моих снах.m4a" WAVE INDEX 01 00:00:00 TRACK 13 AUDIO TITLE "Амба" PERFORMER "Крематорий" INDEX 00 02:34:40FILE "13. Амба.m4a" WAVE INDEX 01 00:00:00 TRACK 14 AUDIO TITLE "Гаф-гаф" PERFORMER "Крематорий" INDEX 00 03:19:18FILE "14. Гаф-гаф.m4a" WAVE INDEX 01 00:00:00 TRACK 15 AUDIO TITLE "Сине-розовый Марс" PERFORMER "Крематорий" INDEX 00 02:53:10FILE "15. Сине-розовый Марс.m4a" WAVE INDEX 01 00:00:00 TRACK 16 AUDIO TITLE "Прощальные сны" PERFORMER "Крематорий" INDEX 00 02:50:00FILE "16. Прощальные сны.m4a" WAVE INDEX 01 00:00:00

Лог проверки качества

[CUETools log; Date: 30.01.2018 14:44:30; Version: 2.1.6][CTDB TOCID: EwC0u4JR7m3bPCehFcoRzYc6sqQ-] found.Track | CTDB Status 1 | (16/16) Accurately ripped 2 | (15/16) Accurately ripped 3 | (16/16) Accurately ripped 4 | (16/16) Accurately ripped 5 | (16/16) Accurately ripped 6 | (16/16) Accurately ripped 7 | (16/16) Accurately ripped 8 | (16/16) Accurately ripped 9 | (16/16) Accurately ripped 10 | (16/16) Accurately ripped 11 | (16/16) Accurately ripped 12 | (16/16) Accurately ripped 13 | (16/16) Accurately ripped 14 | (16/16) Accurately ripped 15 | (16/16) Accurately ripped 16 | (15/16) Accurately ripped[AccurateRip ID: 001ab682-013b5c84-d10aa010] found.Track [ CRC | V2 ] Status 01 [cb2d463c|d0fb9e56] (08+04/18) Accurately ripped 02 [5c478a21|df1f61eb] (08+04/18) Accurately ripped 03 [a1042eef|a4276f6e] (08+04/18) Accurately ripped 04 [f28b09ce|41b0df61] (08+04/18) Accurately ripped 05 [826b04bd|610bece8] (08+04/18) Accurately ripped 06 [543f3079|d291db3d] (08+04/18) Accurately ripped 07 [fc1d9d8f|024b87bd] (08+04/18) Accurately ripped 08 [7b1b1fa8|7a5a9cc7] (08+04/18) Accurately ripped 09 [ae01075f|5f724b8e] (08+04/18) Accurately ripped 10 [e4b8a7c5|80848449] (08+04/18) Accurately ripped 11 [f65919a3|1c677566] (08+04/18) Accurately ripped 12 [09c1c677|a801c56e] (08+04/18) Accurately ripped 13 [82cabf11|3160d933] (07+04/17) Accurately ripped 14 [f675c8a1|7794ac2d] (08+04/18) Accurately ripped 15 [9ab968b8|5af3a50a] (08+04/18) Accurately ripped 16 [da755d88|c929e0b4] (08+04/18) Accurately rippedOffsetted by -659: 01 [015b3afe] (03/18) Accurately ripped 02 [7e04b960] (03/18) Accurately ripped 03 [7f082349] (03/18) Accurately ripped 04 [a3004461] (03/18) Accurately ripped 05 [cff9b58f] (03/18) Accurately ripped 06 [953a9e09] (03/18) Accurately ripped 07 [ecddd307] (03/18) Accurately ripped 08 [53a7ab9b] (03/18) Accurately ripped 09 [1efd8ef5] (03/18) Accurately ripped 10 [f38ac341] (03/18) Accurately ripped 11 [e28871a9] (03/18) Accurately ripped 12 [55e01f70] (03/18) Accurately ripped 13 [eb4adf6b] (03/17) Accurately ripped 14 [58153bb5] (03/18) Accurately ripped 15 [cb808a9b] (03/18) Accurately ripped 16 [50712548] (03/18) Accurately ripped
Track Peak [ CRC32 ] [W/O NULL] [ LOG ] -- 99,9 [474613EC] [160B0CFF] CRC32 01 91,5 [F9DAFB6B] [467369D7] 02 99,5 [2F92DC66] [13B8D325] 03 78,4 [7F6C670C] [662F1DA3] 04 91,3 [B40AF120] [E078EE5F] 05 72,8 [A05F4298] [600E8444] 06 94,9 [214B44C7] [EFD84302] 07 99,9 [0B1FEF23] [9A68BF83] 08 40,8 [95CE3C6F] [1F83C816] 09 93,1 [B5115D1F] [D0F642B5] 10 60,1 [64F30B5E] [9AA95134] 11 99,9 [2F4F2972] [AE61C48F] 12 93,4 [417B8091] [99E01372] 13 91,9 [6180E356] [92710B54] 14 97,6 [E044FA90] [09DFAB42] 15 89,7 [D534A231] [78359FBD] 16 99,4 [EB9F6675] [C47C940B]

1996 - Гигантомания

Продолжительность: 00:38:40
Треклист:
1. Пиноккио
2. Китай-город
3. Мата Хари блюз
4. Песня о ней
5. Virus C
6. 2001 год
7. Грета Гарбо
8. Лунный всадник
9. Яд
10. Ала Маона
11. Эпитафия
12. Гигантомания
13. Virus A repeat

Лог создания рипа

Exact Audio Copy V1.0 beta 3 from 29. August 2011
Отчёт EAC об извлечении, выполненном 13. апреля 2013, 13:42
Крематорий / Гигантомания
Дисковод: HL-DT-STDVDRAM GH70N Adapter: 0 ID: 4
Режим чтения : ДостоверностьИспользование точного потока : ДаОтключение кэша аудио : ДаИспользование указателей C2 : Нет
Коррекция смещения при чтении : 667Способность читать области Lead-in и Lead-out : НетЗаполнение пропущенных сэмплов тишиной : ДаУдаление блоков с тишиной в начале и конце : НетПри вычислениях CRC использовались нулевые сэмплы : ДаИнтерфейс : Встроенный Win32-интерфейс для Win NT/2000
Выходной формат : Пользовательский кодировщикВыбранный битрейт : 1024 kBit/sКачество : ВысокийДобавление ID3-тега : НетУтилита сжатия : C:\Program Files (x86)\Exact Audio Copy\Flac\flac.exeДополнительные параметры : -V -8 %source%
TOC извлечённого CD
Трек | Старт | Длительность | Начальный сектор | Конечный сектор --------------------------------------------------------------------- 1 | 0:00.00 | 4:20.71 | 0 | 19570 2 | 4:20.71 | 2:21.38 | 19571 | 30183 3 | 6:42.34 | 5:41.13 | 30184 | 55771 4 | 12:23.47 | 3:13.16 | 55772 | 70262 5 | 15:36.63 | 1:45.18 | 70263 | 78155 6 | 17:22.06 | 3:35.00 | 78156 | 94280 7 | 20:57.06 | 3:25.34 | 94281 | 109689 8 | 24:22.40 | 1:30.26 | 109690 | 116465 9 | 25:52.66 | 3:29.62 | 116466 | 132202 10 | 29:22.53 | 1:05.22 | 132203 | 137099 11 | 30:28.00 | 2:36.63 | 137100 | 148862 12 | 33:04.63 | 5:00.44 | 148863 | 171406 13 | 38:05.32 | 0:35.27 | 171407 | 174058
Характеристики диапазона извлечения и сообщения об ошибках
Выбранный диапазон
Имя файла D:\Архив\Крематорий - Гигантомания.wav
Пиковый уровень 89.1 % Скорость извлечения 1.7 X Качество диапазона 100.0 % CRC теста B6E50E6B CRC копии B6E50E6B Копирование... OK
Ошибок не произошло
AccurateRip: сводка
Трек 1 : извлечено точно (доверие 2) [BDD1902A] (AR v1)Трек 2 : извлечено точно (доверие 2) [BD4D9BF1] (AR v1)Трек 3 : извлечено точно (доверие 2) [8E2C2DFE] (AR v1)Трек 4 : извлечено точно (доверие 2) [43ACF61D] (AR v1)Трек 5 : извлечено точно (доверие 2) [A9EA83D8] (AR v1)Трек 6 : извлечено точно (доверие 2) [2ED6CC00] (AR v1)Трек 7 : извлечено точно (доверие 2) [FB4FCBA0] (AR v1)Трек 8 : извлечено точно (доверие 2) [95724165] (AR v1)Трек 9 : извлечено точно (доверие 2) [39AA4550] (AR v1)Трек 10 : извлечено точно (доверие 2) [2A87C7AC] (AR v1)Трек 11 : извлечено точно (доверие 2) [90A7D73A] (AR v1)Трек 12 : извлечено точно (доверие 2) [AEDA4875] (AR v1)Трек 13 : извлечено точно (доверие 2) [52E9F773] (AR v1)
Все треки извлечены точно
Конец отчёта
==== Контрольная сумма отчёта FCEC092F1FE53BECB5CFABB2D5F0C6359053B55EB38653E89475F58B5F71EE8A ====

Содержание индексной карты (.CUE)

REM GENRE "Rock"REM DATE 1996REM DISCID B909100DPERFORMER "Крематорий"TITLE "Гигантомания"REM DISCNUMBER 1REM TOTALDISCS 1FILE "01. Пиноккио.m4a" WAVE TRACK 01 AUDIO TITLE "Пиноккио" PERFORMER "Крематорий" INDEX 01 00:00:00 TRACK 02 AUDIO TITLE "Китай-город" PERFORMER "Крематорий" INDEX 00 04:17:71FILE "02. Китай-город.m4a" WAVE INDEX 01 00:00:00 TRACK 03 AUDIO TITLE "Мата Хари блюз" PERFORMER "Крематорий" INDEX 00 02:18:38FILE "03. Мата Хари блюз.m4a" WAVE INDEX 01 00:00:00 TRACK 04 AUDIO TITLE "Песня о ней" PERFORMER "Крематорий" INDEX 00 05:38:13FILE "04. Песня о ней.m4a" WAVE INDEX 01 00:00:00 TRACK 05 AUDIO TITLE "Virus C" PERFORMER "Крематорий" INDEX 00 03:10:16FILE "05. Virus C.m4a" WAVE INDEX 01 00:00:00 TRACK 06 AUDIO TITLE "2001 год" PERFORMER "Крематорий" INDEX 00 01:42:18FILE "06. 2001 год.m4a" WAVE INDEX 01 00:00:00 TRACK 07 AUDIO TITLE "Грета Гарбо" PERFORMER "Крематорий" INDEX 00 03:32:00FILE "07. Грета Гарбо.m4a" WAVE INDEX 01 00:00:00 TRACK 08 AUDIO TITLE "Лунный всадник" PERFORMER "Крематорий" INDEX 00 03:22:34FILE "08. Лунный всадник.m4a" WAVE INDEX 01 00:00:00 TRACK 09 AUDIO TITLE "Яд" PERFORMER "Крематорий" INDEX 00 01:27:26FILE "09. Яд.m4a" WAVE INDEX 01 00:00:00 TRACK 10 AUDIO TITLE "Ала Маона" PERFORMER "Крематорий" INDEX 00 03:26:62FILE "10. Ала Маона.m4a" WAVE INDEX 01 00:00:00 TRACK 11 AUDIO TITLE "Эпитафия" PERFORMER "Крематорий" INDEX 00 01:02:22FILE "11. Эпитафия.m4a" WAVE INDEX 01 00:00:00 TRACK 12 AUDIO TITLE "Гигантомания" PERFORMER "Крематорий" INDEX 00 02:33:63FILE "12. Гигантомания.m4a" WAVE INDEX 01 00:00:00 TRACK 13 AUDIO TITLE "Virus A repeat" PERFORMER "Крематорий" INDEX 00 04:57:44FILE "13. Virus A repeat.m4a" WAVE INDEX 01 00:00:00

Лог проверки качества

[CUETools log; Date: 30.01.2018 14:46:02; Version: 2.1.6][CTDB TOCID: .2wQNn2LU8y.mqH.9GMD0sEskEs-] found.Track | CTDB Status 1 | (6/6) Accurately ripped 2 | (6/6) Accurately ripped 3 | (6/6) Accurately ripped 4 | (6/6) Accurately ripped 5 | (6/6) Accurately ripped 6 | (6/6) Accurately ripped 7 | (6/6) Accurately ripped 8 | (6/6) Accurately ripped 9 | (6/6) Accurately ripped 10 | (6/6) Accurately ripped 11 | (6/6) Accurately ripped 12 | (6/6) Accurately ripped 13 | (6/6) Accurately ripped[AccurateRip ID: 00146a9f-00c6fabe-b909100d] found.Track [ CRC | V2 ] Status 01 [bdd1902a|3995392d] (2+3/8) Accurately ripped 02 [bd4d9bf1|e4cc59e3] (2+3/9) Accurately ripped 03 [8e2c2dfe|6bd1579b] (2+3/8) Accurately ripped 04 [43acf61d|a82c21b9] (2+3/8) Accurately ripped 05 [a9ea83d8|866b72bf] (2+3/8) Accurately ripped 06 [2ed6cc00|952b1ee0] (2+3/8) Accurately ripped 07 [fb4fcba0|952d73f8] (2+3/8) Accurately ripped 08 [95724165|104a4344] (2+3/8) Accurately ripped 09 [39aa4550|5329888e] (2+3/8) Accurately ripped 10 [2a87c7ac|673a4ba3] (2+3/8) Accurately ripped 11 [90a7d73a|64c63be2] (2+3/8) Accurately ripped 12 [aeda4875|2adfeedc] (2+3/8) Accurately ripped 13 [52e9f773|38d837c2] (2+3/8) Accurately rippedOffsetted by 2401: 01 [de89118a] (3/8) Accurately ripped 02 [3ac18159] (4/9) Accurately ripped 03 [b291d03e] (3/8) Accurately ripped 04 [2348da98] (3/8) Accurately ripped 05 [96b0b05b] (3/8) Accurately ripped 06 [ff8f930d] (3/8) Accurately ripped 07 [7f1940f0] (3/8) Accurately ripped 08 [c25194d4] (3/8) Accurately ripped 09 [f1adfa3c] (3/8) Accurately ripped 10 [ce01029e] (3/8) Accurately ripped 11 [d60f81d3] (3/8) Accurately ripped 12 [1d1964b1] (3/8) Accurately ripped 13 [7b7788e6] (0/8) No match (V2 was not tested)
Track Peak [ CRC32 ] [W/O NULL] [ LOG ] -- 89,1 [B6E50E6B] [9E748BB0] CRC32 01 89,1 [9F8EC3AE] [249F951B] 02 89,1 [00E6CEE5] [8DFB4C72] 03 89,1 [235892C1] [BEF543A7] 04 89,1 [16B44EA7] [E95EEA48] 05 89,1 [D21704BB] [CE4C3E50] 06 89,1 [76786C41] [539C46A0] 07 89,1 [80800AA1] [34DD9228] 08 89,1 [C90514FA] [D59CA41F] 09 89,1 [0493B34D] [4D15F77D] 10 89,1 [7363DB7F] [BC513222] 11 89,1 [3951FBB6] [9F74E672] 12 89,1 [8E5BC244] [6F60B7C8] 13 89,1 [47185025] [4318A99B]

1996 - Микронезия

Продолжительность: 00:40:03
Треклист:
1. Virus A
2. Добро пожаловать в лето
3. Притча о цветных губах
4. Дискотека на улице Морг
5. Ангел
6. Три гиены
7. Женская песня
8. Бандерлоги
9. Песня старого хиппа
10. Блюз-minuet
11. Ура!
12. Штраус
13. Вся моя жизнь
14. 30 лет
15. Бегство (Конь)
16. Зеркальная ода (Ниагара)
17. Сон
18. Палома-попс
19. Старушка Занзибар
20. Virus B
21. ОНСБ
22. Микронезия
23. Палковводец Красс
24. Призрак Пиноккио

Лог создания рипа

Exact Audio Copy V1.0 beta 3 from 29. August 2011
Отчёт EAC об извлечении, выполненном 13. апреля 2013, 12:47
Крематорий / Микронезия
Дисковод: HL-DT-STDVDRAM GH70N Adapter: 0 ID: 4
Режим чтения : ДостоверностьИспользование точного потока : ДаОтключение кэша аудио : ДаИспользование указателей C2 : Нет
Коррекция смещения при чтении : 667Способность читать области Lead-in и Lead-out : НетЗаполнение пропущенных сэмплов тишиной : ДаУдаление блоков с тишиной в начале и конце : НетПри вычислениях CRC использовались нулевые сэмплы : ДаИнтерфейс : Встроенный Win32-интерфейс для Win NT/2000
Выходной формат : Пользовательский кодировщикВыбранный битрейт : 1024 kBit/sКачество : ВысокийДобавление ID3-тега : НетУтилита сжатия : C:\Program Files (x86)\Exact Audio Copy\Flac\flac.exeДополнительные параметры : -V -8 %source%
TOC извлечённого CD
Трек | Старт | Длительность | Начальный сектор | Конечный сектор --------------------------------------------------------------------- 1 | 0:00.00 | 0:22.00 | 0 | 1649 2 | 0:22.00 | 2:15.31 | 1650 | 11805 3 | 2:37.31 | 0:59.18 | 11806 | 16248 4 | 3:36.49 | 0:45.22 | 16249 | 19645 5 | 4:21.71 | 1:37.49 | 19646 | 26969 6 | 5:59.45 | 3:03.25 | 26970 | 40719 7 | 9:02.70 | 1:22.71 | 40720 | 46940 8 | 10:25.66 | 2:10.61 | 46941 | 56751 9 | 12:36.52 | 0:35.31 | 56752 | 59407 10 | 13:12.08 | 2:06.60 | 59408 | 68917 11 | 15:18.68 | 1:42.33 | 68918 | 76600 12 | 17:01.26 | 2:15.21 | 76601 | 86746 13 | 19:16.47 | 2:13.45 | 86747 | 96766 14 | 21:30.17 | 0:53.33 | 96767 | 100774 15 | 22:23.50 | 1:01.68 | 100775 | 105417 16 | 23:25.43 | 2:14.48 | 105418 | 115515 17 | 25:40.16 | 0:28.47 | 115516 | 117662 18 | 26:08.63 | 2:27.01 | 117663 | 128688 19 | 28:35.64 | 1:29.51 | 128689 | 135414 20 | 30:05.40 | 0:58.59 | 135415 | 139823 21 | 31:04.24 | 1:24.71 | 139824 | 146194 22 | 32:29.20 | 2:06.43 | 146195 | 155687 23 | 34:35.63 | 1:05.29 | 155688 | 160591 24 | 35:41.17 | 4:22.30 | 160592 | 180271
Характеристики диапазона извлечения и сообщения об ошибках
Выбранный диапазон
Имя файла D:\Архив\Крематорий - Микронезия.wav
Пиковый уровень 100.0 % Скорость извлечения 1.6 X Качество диапазона 100.0 % CRC теста 17D827F5 CRC копии 17D827F5 Копирование... OK
Ошибок не произошло
AccurateRip: сводка
Трек 1 : извлечено точно (доверие 3) [46A51F5C] (AR v1)Трек 2 : извлечено точно (доверие 3) [3A97D8F4] (AR v1)Трек 3 : извлечено точно (доверие 3) [DC5F51C9] (AR v1)Трек 4 : извлечено точно (доверие 3) [C57EC6BE] (AR v1)Трек 5 : извлечено точно (доверие 3) [CED4FA8E] (AR v1)Трек 6 : извлечено точно (доверие 3) [BD5843F8] (AR v1)Трек 7 : извлечено точно (доверие 3) [F1188DF8] (AR v1)Трек 8 : извлечено точно (доверие 3) [2B57B695] (AR v1)Трек 9 : извлечено точно (доверие 3) [63FA382D] (AR v1)Трек 10 : извлечено точно (доверие 3) [C3052082] (AR v1)Трек 11 : извлечено точно (доверие 3) [C5C70CDF] (AR v1)Трек 12 : извлечено точно (доверие 3) [75686ABD] (AR v1)Трек 13 : извлечено точно (доверие 3) [66292B27] (AR v1)Трек 14 : извлечено точно (доверие 3) [43734EAA] (AR v1)Трек 15 : извлечено точно (доверие 3) [C0DC8A0C] (AR v1)Трек 16 : извлечено точно (доверие 3) [5B403007] (AR v1)Трек 17 : извлечено точно (доверие 3) [3CA1DF75] (AR v1)Трек 18 : извлечено точно (доверие 3) [DE4C96AA] (AR v1)Трек 19 : извлечено точно (доверие 3) [B7377A8C] (AR v1)Трек 20 : извлечено точно (доверие 3) [2D607EE7] (AR v1)Трек 21 : извлечено точно (доверие 3) [F54835FD] (AR v1)Трек 22 : извлечено точно (доверие 3) [3F700FF7] (AR v1)Трек 23 : извлечено точно (доверие 3) [AF52DDC1] (AR v1)Трек 24 : извлечено точно (доверие 3) [3CAF6BFA] (AR v1)
Все треки извлечены точно
Конец отчёта
==== Контрольная сумма отчёта B40DCC4D39B7E973BB8ECE06149796625850B11E6B2F8632C08C4EAC9E49D37B ====

Содержание индексной карты (.CUE)

REM DATE 1996REM DISCID 3B096318PERFORMER "Крематорий"TITLE "Микронезия"REM DISCNUMBER 1REM TOTALDISCS 1FILE "01. Virus A.m4a" WAVE TRACK 01 AUDIO TITLE "Virus A" PERFORMER "Крематорий" INDEX 01 00:00:00FILE "02. Добро пожаловать в лето.m4a" WAVE TRACK 02 AUDIO TITLE "Добро пожаловать в лето" PERFORMER "Крематорий" INDEX 01 00:00:00 TRACK 03 AUDIO TITLE "Притча о цветных губах" PERFORMER "Крематорий" INDEX 00 02:11:66FILE "03. Притча о цветных губах.m4a" WAVE INDEX 01 00:00:00 TRACK 04 AUDIO TITLE "Дискотека на улице Морг" PERFORMER "Крематорий" INDEX 00 00:55:53FILE "04. Дискотека на улице Морг.m4a" WAVE INDEX 01 00:00:00 TRACK 05 AUDIO TITLE "Ангел" PERFORMER "Крематорий" INDEX 00 00:41:57FILE "05. Ангел.m4a" WAVE INDEX 01 00:00:00 TRACK 06 AUDIO TITLE "Три гиены" PERFORMER "Крематорий" INDEX 00 01:34:09FILE "06. Три гиены.m4a" WAVE INDEX 01 00:00:00 TRACK 07 AUDIO TITLE "Женская песня" PERFORMER "Крематорий" INDEX 00 02:59:60FILE "07. Женская песня.m4a" WAVE INDEX 01 00:00:00 TRACK 08 AUDIO TITLE "Бандерлоги" PERFORMER "Крематорий" INDEX 00 01:19:31FILE "08. Бандерлоги.m4a" WAVE INDEX 01 00:00:00 TRACK 09 AUDIO TITLE "Песня старого хипа" PERFORMER "Крематорий" INDEX 00 02:07:21FILE "09. Песня старого хипа.m4a" WAVE INDEX 01 00:00:00 TRACK 10 AUDIO TITLE "Блюз-minuet" PERFORMER "Крематорий" INDEX 00 00:31:66FILE "10. Блюз-minuet.m4a" WAVE INDEX 01 00:00:00 TRACK 11 AUDIO TITLE "Ура!" PERFORMER "Крематорий" INDEX 00 02:03:20FILE "11. Ура!.m4a" WAVE INDEX 01 00:00:00 TRACK 12 AUDIO TITLE "Штраус" PERFORMER "Крематорий" INDEX 00 01:38:68FILE "12. Штраус.m4a" WAVE INDEX 01 00:00:00 TRACK 13 AUDIO TITLE "Вся моя жизнь" PERFORMER "Крематорий" INDEX 00 02:11:56FILE "13. Вся моя жизнь.m4a" WAVE INDEX 01 00:00:00 TRACK 14 AUDIO TITLE "30 лет" PERFORMER "Крематорий" INDEX 00 02:10:05FILE "14. 30 лет.m4a" WAVE INDEX 01 00:00:00 TRACK 15 AUDIO TITLE "Бегство (Конь)" PERFORMER "Крематорий" INDEX 00 00:49:68FILE "15. Бегство (Конь).m4a" WAVE INDEX 01 00:00:00 TRACK 16 AUDIO TITLE "Зеркальная ода (Ниагара)" PERFORMER "Крематорий" INDEX 00 00:58:28FILE "16. Зеркальная ода (Ниагара).m4a" WAVE INDEX 01 00:00:00 TRACK 17 AUDIO TITLE "Сон" PERFORMER "Крематорий" INDEX 00 02:11:08FILE "17. Сон.m4a" WAVE INDEX 01 00:00:00 TRACK 18 AUDIO TITLE "Палома-попс" PERFORMER "Крематорий" INDEX 00 00:25:07FILE "18. Палома-попс.m4a" WAVE INDEX 01 00:00:00 TRACK 19 AUDIO TITLE "Старушка Занзибар" PERFORMER "Крематорий" INDEX 00 02:23:36FILE "19. Старушка Занзибар.m4a" WAVE INDEX 01 00:00:00 TRACK 20 AUDIO TITLE "Virus B" PERFORMER "Крематорий" INDEX 00 01:26:11FILE "20. Virus B.m4a" WAVE INDEX 01 00:00:00 TRACK 21 AUDIO TITLE "ОНСБ" PERFORMER "Крематорий" INDEX 00 00:55:19FILE "21. ОНСБ.m4a" WAVE INDEX 01 00:00:00 TRACK 22 AUDIO TITLE "Микронезия" PERFORMER "Крематорий" INDEX 00 01:21:31FILE "22. Микронезия.m4a" WAVE INDEX 01 00:00:00 TRACK 23 AUDIO TITLE "Палковводец Красс" PERFORMER "Крематорий" INDEX 00 02:03:03FILE "23. Палковводец Красс.m4a" WAVE INDEX 01 00:00:00 TRACK 24 AUDIO TITLE "Призрак Пиноккио" PERFORMER "Крематорий" INDEX 00 01:00:64FILE "24. Призрак Пиноккио.m4a" WAVE INDEX 01 00:00:00

Лог проверки качества

[CUETools log; Date: 30.01.2018 14:51:44; Version: 2.1.6][CTDB TOCID: 48aCeWpgnGUhykS86HBJb6VCbZs-] found.Track | CTDB Status 1 | (15/15) Accurately ripped 2 | (15/15) Accurately ripped 3 | (15/15) Accurately ripped 4 | (15/15) Accurately ripped 5 | (15/15) Accurately ripped 6 | (15/15) Accurately ripped 7 | (15/15) Accurately ripped 8 | (15/15) Accurately ripped 9 | (15/15) Accurately ripped 10 | (14/15) Accurately ripped 11 | (15/15) Accurately ripped 12 | (15/15) Accurately ripped 13 | (15/15) Accurately ripped 14 | (15/15) Accurately ripped 15 | (15/15) Accurately ripped 16 | (15/15) Accurately ripped 17 | (15/15) Accurately ripped 18 | (15/15) Accurately ripped 19 | (15/15) Accurately ripped 20 | (15/15) Accurately ripped 21 | (15/15) Accurately ripped 22 | (15/15) Accurately ripped 23 | (15/15) Accurately ripped 24 | (15/15) Accurately ripped[AccurateRip ID: 001ff876-0231c788-3b096318] found.Track [ CRC | V2 ] Status 01 [46a51f5c|84d4dfd1] (03+02/10) Accurately ripped 02 [3a97d8f4|28ccfd8c] (03+02/11) Accurately ripped 03 [dc5f51c9|3cd2b60b] (03+02/10) Accurately ripped 04 [c57ec6be|7a3d7334] (03+02/10) Accurately ripped 05 [ced4fa8e|2e193387] (03+02/10) Accurately ripped 06 [bd5843f8|8b27323a] (03+02/10) Accurately ripped 07 [f1188df8|253d12d8] (03+02/10) Accurately ripped 08 [2b57b695|ae85e8d3] (03+02/10) Accurately ripped 09 [63fa382d|1d3915f1] (03+02/10) Accurately ripped 10 [c3052082|6b49d315] (03+02/10) Accurately ripped 11 [c5c70cdf|4e57fb8d] (03+02/10) Accurately ripped 12 [75686abd|bc747cb1] (03+02/10) Accurately ripped 13 [66292b27|8f3248b1] (03+02/10) Accurately ripped 14 [43734eaa|753c06c6] (03+02/10) Accurately ripped 15 [c0dc8a0c|e3ba7d04] (03+02/10) Accurately ripped 16 [5b403007|aef1f0c3] (03+02/10) Accurately ripped 17 [3ca1df75|f62bdbcb] (03+02/10) Accurately ripped 18 [de4c96aa|389d441c] (03+02/10) Accurately ripped 19 [b7377a8c|64eb20c9] (03+02/10) Accurately ripped 20 [2d607ee7|6b86f426] (03+02/10) Accurately ripped 21 [f54835fd|77e897b0] (03+02/10) Accurately ripped 22 [3f700ff7|edda5b95] (03+02/10) Accurately ripped 23 [af52ddc1|0d09b733] (03+02/10) Accurately ripped 24 [3caf6bfa|437c99fa] (03+02/10) Accurately rippedOffsetted by -71: 01 [f22be088] (03/10) Accurately ripped 02 [56d59b5a] (04/11) Accurately ripped 03 [775f8c48] (03/10) Accurately ripped 04 [2d7b7938] (03/10) Accurately ripped 05 [5d2e695c] (03/10) Accurately ripped 06 [4ad14ffd] (03/10) Accurately ripped 07 [d354df4f] (03/10) Accurately ripped 08 [a2560bc0] (03/10) Accurately ripped 09 [4b43a18f] (03/10) Accurately ripped 10 [923d168f] (03/10) Accurately ripped 11 [a5dee3b5] (03/10) Accurately ripped 12 [4131bc79] (03/10) Accurately ripped 13 [27773642] (03/10) Accurately ripped 14 [8881b32a] (03/10) Accurately ripped 15 [763528c1] (03/10) Accurately ripped 16 [625faf93] (03/10) Accurately ripped 17 [e7cf797d] (03/10) Accurately ripped 18 [5ffa6526] (03/10) Accurately ripped 19 [e0dd629a] (03/10) Accurately ripped 20 [bd5b8cc8] (03/10) Accurately ripped 21 [78a70520] (03/10) Accurately ripped 22 [f5ed4bfb] (03/10) Accurately ripped 23 [2b88acb5] (03/10) Accurately ripped 24 [ede7a801] (03/10) Accurately ripped
Track Peak [ CRC32 ] [W/O NULL] [ LOG ] -- 100,0 [17D827F5] [4403BEF4] CRC32 01 74,4 [88C4082F] [C7DAD308] 02 100,0 [12BAF4F0] [042FDF9B] 03 99,9 [6D5CFB84] [CC171266] 04 89,1 [88116ECA] [F6273344] 05 89,1 [EF0C662B] [FE65B049] 06 89,1 [58315425] [672CDB35] 07 89,1 [F5765751] [3D2CE2E3] 08 89,1 [0EB86519] [C0D730D0] 09 89,1 [3A2B07E0] [246B8AF3] 10 89,1 [9787F885] [8DF4DDF3] 11 89,1 [91DF9824] [99859D3B] 12 89,1 [560CE917] [E93A627A] 13 89,1 [6230B0CA] [5E0B9895] 14 89,1 [127D2907] [B9ED690E] 15 89,1 [175CD446] [A8FFF742] 16 89,1 [9F6745BE] [D8FEE75F] 17 89,1 [F7867334] [52885568] 18 89,1 [B344FD52] [5FC69D99] 19 89,1 [D939EAB7] [C5C9C44B] 20 89,1 [518B0619] [5060D8E7] 21 79,4 [E58D681E] [BA1A63E3] 22 89,1 [E24F09F8] [71032466] 23 99,9 [E86C2949] [483B8FAF] 24 100,0 [7C2FBAE8] [A748B216]

1997 - Ботаника

Продолжительность: 00:44:02
Треклист:
1. Пора смываться
2. Смерти больше нет
3. Метла
4. Дом "Голубые глаза"
5. Ботаника
6. В доме на улице Смольной
7. Танец маленьких свиней
8. Мой генерал
9. Фамильный вампир
10. Лучшие времена
11. Сон ни о чём
12. Без крыльев, как дым

Лог создания рипа

Exact Audio Copy V1.0 beta 3 from 29. August 2011
Отчёт EAC об извлечении, выполненном 9. июля 2013, 1:45
Крематорий / Ботаника
Дисковод: TSSTcorpDVD-ROM SH-D162C Adapter: 0 ID: 1
Режим чтения : ДостоверностьИспользование точного потока : ДаОтключение кэша аудио : ДаИспользование указателей C2 : Нет
Коррекция смещения при чтении : 6Способность читать области Lead-in и Lead-out : НетЗаполнение пропущенных сэмплов тишиной : ДаУдаление блоков с тишиной в начале и конце : НетПри вычислениях CRC использовались нулевые сэмплы : ДаИнтерфейс : Встроенный Win32-интерфейс для Win NT/2000
Выходной формат : Пользовательский кодировщикВыбранный битрейт : 1024 kBit/sКачество : ВысокийДобавление ID3-тега : НетУтилита сжатия : C:\Program Files\FLAC\flac.exeДополнительные параметры : -V -8 %source%
TOC извлечённого CD
Трек | Старт | Длительность | Начальный сектор | Конечный сектор --------------------------------------------------------------------- 1 | 0:00.00 | 3:26.19 | 0 | 15468 2 | 3:26.19 | 5:26.21 | 15469 | 39939 3 | 8:52.40 | 3:47.25 | 39940 | 56989 4 | 12:39.65 | 2:37.14 | 56990 | 68778 5 | 15:17.04 | 3:51.50 | 68779 | 86153 6 | 19:08.54 | 2:59.45 | 86154 | 99623 7 | 22:08.24 | 3:23.44 | 99624 | 114892 8 | 25:31.68 | 3:16.52 | 114893 | 129644 9 | 28:48.45 | 4:44.04 | 129645 | 150948 10 | 33:32.49 | 4:06.58 | 150949 | 169456 11 | 37:39.32 | 3:23.45 | 169457 | 184726 12 | 41:03.02 | 2:58.71 | 184727 | 198147
Характеристики диапазона извлечения и сообщения об ошибках
Выбранный диапазон
Имя файла E:\Крематорий\1997 - Ботаника [Moroz Records]\Крематорий - 1997 - Ботаника.wav
Пиковый уровень 94.7 % Скорость извлечения 3.5 X Качество диапазона 100.0 % CRC теста E898F5CF CRC копии E898F5CF Копирование... OK
Ошибок не произошло
AccurateRip: сводка
Трек 1 точность не определена (достоверность 3) [A71BA317], AccurateRip вернул [67C717B0] (AR v2)Трек 2 точность не определена (достоверность 3) [FDD3358E], AccurateRip вернул [21ED3560] (AR v2)Трек 3 точность не определена (достоверность 3) [0033FE01], AccurateRip вернул [951C6989] (AR v2)Трек 4 точность не определена (достоверность 4) [17897D5D], AccurateRip вернул [A5932605] (AR v2)Трек 5 точность не определена (достоверность 3) [0557C611], AccurateRip вернул [8682C152] (AR v2)Трек 6 точность не определена (достоверность 3) [2461C421], AccurateRip вернул [82C8E682] (AR v2)Трек 7 точность не определена (достоверность 3) [073E49A5], AccurateRip вернул [79FDA5D9] (AR v2)Трек 8 точность не определена (достоверность 3) [908E1F47], AccurateRip вернул [D037AD6D] (AR v2)Трек 9 точность не определена (достоверность 3) [83F99281], AccurateRip вернул [13C43817] (AR v2)Трек 10 точность не определена (достоверность 3) [A54424E3], AccurateRip вернул [1AB4FF2F] (AR v2)Трек 11 точность не определена (достоверность 3) [DFB917DB], AccurateRip вернул [BD6963DB] (AR v2)Трек 12 точность не определена (достоверность 3) [AB1B59D4], AccurateRip вернул [B28D198F] (AR v2)
Ни один трек не прошёл проверки на точностьВ вашей базе может быть иной вариант штамповки диска
Конец отчёта
==== Контрольная сумма отчёта C2BF4BD74AFF8BB538AA6B079E6B5E079BD52DBE6BF1648E3CB8946AF1E6AF54 ====

Содержание индексной карты (.CUE)

REM GENRE "Rock"REM DATE 1997REM DISCID 810A510CPERFORMER "Крематорий"TITLE "Ботаника"REM DISCNUMBER 1REM TOTALDISCS 1FILE "01. Пора смываться.m4a" WAVE TRACK 01 AUDIO TITLE "Пора смываться" PERFORMER "Крематорий" FLAGS DCP INDEX 01 00:00:00 TRACK 02 AUDIO TITLE "Смерти больше нет" PERFORMER "Крематорий" FLAGS DCP INDEX 00 03:24:59FILE "02. Смерти больше нет.m4a" WAVE INDEX 01 00:00:00 TRACK 03 AUDIO TITLE "Метла" PERFORMER "Крематорий" FLAGS DCP INDEX 00 05:24:61FILE "03. Метла.m4a" WAVE INDEX 01 00:00:00 TRACK 04 AUDIO TITLE "Дом ''Голубые глаза''" PERFORMER "Крематорий" FLAGS DCP INDEX 00 03:45:65FILE "04. Дом ''Голубые глаза''.m4a" WAVE INDEX 01 00:00:00 TRACK 05 AUDIO TITLE "Ботаника" PERFORMER "Крематорий" FLAGS DCP INDEX 00 02:35:54FILE "05. Ботаника.m4a" WAVE INDEX 01 00:00:00 TRACK 06 AUDIO TITLE "В доме на улице Смольной" PERFORMER "Крематорий" FLAGS DCP INDEX 00 03:50:15FILE "06. В доме на улице Смольной.m4a" WAVE INDEX 01 00:00:00 TRACK 07 AUDIO TITLE "Танец маленьких свиней" PERFORMER "Крематорий" FLAGS DCP INDEX 00 02:58:10FILE "07. Танец маленьких свиней.m4a" WAVE INDEX 01 00:00:00 TRACK 08 AUDIO TITLE "Мой генерал" PERFORMER "Крематорий" FLAGS DCP INDEX 00 03:22:09FILE "08. Мой генерал.m4a" WAVE INDEX 01 00:00:00 TRACK 09 AUDIO TITLE "Фамильный вампир" PERFORMER "Крематорий" FLAGS DCP INDEX 00 03:15:17FILE "09. Фамильный вампир.m4a" WAVE INDEX 01 00:00:00 TRACK 10 AUDIO TITLE "Лучшие времена" PERFORMER "Крематорий" FLAGS DCP INDEX 00 04:42:44FILE "10. Лучшие времена.m4a" WAVE INDEX 01 00:00:00 TRACK 11 AUDIO TITLE "Сон ни о чём" PERFORMER "Крематорий" FLAGS DCP INDEX 00 04:05:23FILE "11. Сон ни о чём.m4a" WAVE INDEX 01 00:00:00 TRACK 12 AUDIO TITLE "Без крыльев, как дым" PERFORMER "Крематорий" FLAGS DCP INDEX 00 03:22:10FILE "12. Без крыльев, как дым.m4a" WAVE INDEX 01 00:00:00

Лог проверки качества

[CUETools log; Date: 30.01.2018 14:53:10; Version: 2.1.6][CTDB TOCID: twcKxHM5sRPu0MXqsA0jilVEK1c-] found.Track | CTDB Status 1 | (17/17) Accurately ripped 2 | (17/17) Accurately ripped 3 | (17/17) Accurately ripped 4 | (17/17) Accurately ripped 5 | (17/17) Accurately ripped 6 | (17/17) Accurately ripped 7 | (17/17) Accurately ripped 8 | (17/17) Accurately ripped 9 | (17/17) Accurately ripped 10 | (16/17) Accurately ripped 11 | (16/17) Accurately ripped 12 | (16/17) Accurately ripped[AccurateRip ID: 00140fd7-00b9fd5c-810a510c] found.Track [ CRC | V2 ] Status 01 [5485e6fc|a71ba317] (00+03/09) Accurately ripped 02 [7d492560|fdd3358e] (00+03/09) Accurately ripped 03 [bc795d3d|0033fe01] (00+03/09) Accurately ripped 04 [3d8b2a85|17897d5d] (00+03/10) Accurately ripped 05 [8de8e012|0557c611] (00+03/09) Accurately ripped 06 [d98105b2|2461c421] (00+03/09) Accurately ripped 07 [69ee0259|073e49a5] (00+03/09) Accurately ripped 08 [b66cee0d|908e1f47] (00+03/09) Accurately ripped 09 [d5cb0c37|83f99281] (00+03/09) Accurately ripped 10 [c00bc1eb|a54424e3] (00+03/09) Accurately ripped 11 [3f2d3563|dfb917db] (00+03/09) Accurately ripped 12 [761da63e|ab1b59d4] (00+03/08) Accurately rippedOffsetted by -720: 01 [efa44ccc] (00/09) No match (V2 was not tested) 02 [b3156560] (00/09) No match (V2 was not tested) 03 [0d90ab6d] (00/09) No match (V2 was not tested) 04 [0aba3885] (00/10) No match (V2 was not tested) 05 [6e0d1512] (00/09) No match (V2 was not tested) 06 [e33794f2] (00/09) No match (V2 was not tested) 07 [a9f1b059] (00/09) No match (V2 was not tested) 08 [cb8d938d] (00/09) No match (V2 was not tested) 09 [209c43b7] (00/09) No match (V2 was not tested) 10 [8a1575fb] (00/09) No match (V2 was not tested) 11 [8a0e3143] (00/09) No match (V2 was not tested) 12 [d5f3fb0e] (00/08) No match (V2 was not tested)Offsetted by -659: 01 [fccf975f] (00/09) No match 02 [4b536160] (00/09) No match (V2 was not tested) 03 [d879019a] (00/09) No match 04 [8d4141a5] (00/10) No match 05 [6a59a8c2] (00/09) No match 06 [453d17be] (00/09) No match 07 [54e04f79] (00/09) No match 08 [8a1e5db5] (00/09) No match 09 [9ff5eabf] (00/09) No match 10 [2f02dc6a] (00/09) No match 11 [4be3aa25] (00/09) No match (V2 was not tested) 12 [1b56fb47] (00/08) No match
Track Peak [ CRC32 ] [W/O NULL] [ LOG ] -- 94,7 [E898F5CF] [7F1DCD95] CRC32 01 63,6 [2C2A6F76] [35144FC8] 02 78,9 [1A5A9D3B] [88D0F472] 03 89,4 [AE5FFC0C] [71BD6C2F] 04 79,6 [F45165F0] [30A93E61] 05 93,4 [D2A9130F] [9A153EBB] 06 78,9 [CD46081C] [46CC1C82] 07 89,9 [839BC473] [1B40B6A8] 08 82,4 [4C8EFF96] [F748B63B] 09 77,6 [D834DA96] [0FC970C7] 10 94,7 [C93205C1] [2D7BC22E] 11 76,7 [A48C9E54] [57BCE0C6] 12 65,0 [868D827C] [7741E1EA]

2000 - Три Источника

Продолжительность: 00:52:52
Треклист:
1. Геенна Огненная
2. Три источника
3. Убежище
4. Каины-Дизаины
5. Кот (Сублимация)
6. Мсье Серж
7. Лето
8. Зебры
9. Катманду
10. Ева (Герой ежедневной войны)
11. Африканка (Трансконтинентальный SEX)
12. Звероящер
13. Римский блюз
14. 2001 год (remake)

Лог создания рипа

Exact Audio Copy V0.99 prebeta 4 from 23. January 2008
Отчёт EAC об извлечении, выполненном 10. апреля 2008, 19:56
Крематорий / Три источника
Дисковод: ASUS DRW-1814BLT Adapter: 1 ID: 0
Режим чтения : ДостоверностьИспользование точного потока : ДаОтключение кэша аудио : ДаИспользование указателей C2 : Нет
Коррекция смещения при чтении : 6Способность читать области Lead-in и Lead-out : НетЗаполнение пропущенных сэмплов тишиной : ДаУдаление блоков с тишиной в начале и конце : НетПри вычислениях CRC использовались нулевые сэмплы : ДаИнтерфейс : Установленный внешний ASPI-интерфейс
Выходной формат : Внутренние WAV-операцииФормат файла сэмплов : 44.100 Гц; 16 бит; стерео
Характеристики диапазона извлечения и сообщения об ошибках
Выбранный диапазон
Имя файла C:\tmp2\Крематорий - Три источника.wav
Пиковый уровень 100 % Качество диапазона 100 % CRC копии 642835A0 Копирование... OK
Ошибок не произошло
Конец отчёта

Содержание индексной карты (.CUE)

REM GENRE "Rock"REM DATE 2000REM DISCID DB0C630EREM COMMENT "ExactAudioCopy v0.99pb4"PERFORMER "Крематорий"TITLE "Три источника"REM DISCNUMBER 1REM TOTALDISCS 1FILE "01. Геенна Огненная.m4a" WAVE TRACK 01 AUDIO TITLE "Геенна Огненная" PERFORMER "Крематорий" INDEX 01 00:00:00FILE "02. Три источника.m4a" WAVE TRACK 02 AUDIO TITLE "Три источника" PERFORMER "Крематорий" INDEX 01 00:00:00FILE "03. Убежище.m4a" WAVE TRACK 03 AUDIO TITLE "Убежище" PERFORMER "Крематорий" INDEX 01 00:00:00FILE "04. Каины-Дизаины.m4a" WAVE TRACK 04 AUDIO TITLE "Каины-Дизаины" PERFORMER "Крематорий" INDEX 01 00:00:00FILE "05. Кот (Сублимация).m4a" WAVE TRACK 05 AUDIO TITLE "Кот (Сублимация)" PERFORMER "Крематорий" INDEX 01 00:00:00FILE "06. Мсье Серж.m4a" WAVE TRACK 06 AUDIO TITLE "Мсье Серж" PERFORMER "Крематорий" INDEX 01 00:00:00FILE "07. Лето.m4a" WAVE TRACK 07 AUDIO TITLE "Лето" PERFORMER "Крематорий" INDEX 01 00:00:00FILE "08. Зебры.m4a" WAVE TRACK 08 AUDIO TITLE "Зебры" PERFORMER "Крематорий" INDEX 01 00:00:00FILE "09. Катманду.m4a" WAVE TRACK 09 AUDIO TITLE "Катманду" PERFORMER "Крематорий" INDEX 01 00:00:00FILE "10. Ева (Герой ежедневной войны).m4a" WAVE TRACK 10 AUDIO TITLE "Ева (Герой ежедневной войны)" PERFORMER "Крематорий" INDEX 01 00:00:00FILE "11. Африканка (Трансконтинентальный sex).m4a" WAVE TRACK 11 AUDIO TITLE "Африканка (Трансконтинентальный sex)" PERFORMER "Крематорий" INDEX 01 00:00:00FILE "12. Звероящер.m4a" WAVE TRACK 12 AUDIO TITLE "Звероящер" PERFORMER "Крематорий" INDEX 01 00:00:00FILE "13. Римский блюз.m4a" WAVE TRACK 13 AUDIO TITLE "Римский блюз" PERFORMER "Крематорий" INDEX 01 00:00:00FILE "14. 2001 год (remake).m4a" WAVE TRACK 14 AUDIO TITLE "2001 год (remake)" PERFORMER "Крематорий" INDEX 01 00:00:00

Лог проверки качества

[CUETools log; Date: 30.01.2018 14:55:45; Version: 2.1.6][CTDB TOCID: Sy61r4VPE7DSy8wTnfgXsP5mHNI-] found.Track | CTDB Status 1 | (14/15) Accurately ripped 2 | (15/15) Accurately ripped 3 | (14/15) Accurately ripped 4 | (15/15) Accurately ripped 5 | (15/15) Accurately ripped 6 | (14/15) Accurately ripped 7 | (15/15) Accurately ripped 8 | (15/15) Accurately ripped 9 | (15/15) Accurately ripped 10 | (15/15) Accurately ripped 11 | (15/15) Accurately ripped 12 | (15/15) Accurately ripped 13 | (14/15) Accurately ripped 14 | (15/15) Accurately ripped[AccurateRip ID: 001a9e28-011d1321-db0c630e] found.Track [ CRC | V2 ] Status 01 [0e13ab56|2cd7e361] (00+00/12) No match 02 [d0bb68d5|d86a78af] (00+00/13) No match 03 [1f412da0|df2afada] (00+00/12) No match 04 [5bdc9862|32bfa308] (00+00/14) No match 05 [f0e313bb|ae82d086] (00+00/14) No match 06 [aa909431|a6e70e6e] (00+00/14) No match 07 [379e4b08|334f9b06] (00+00/14) No match 08 [41c9fb1d|8ff153e9] (00+00/14) No match 09 [1af9f564|e4959ba8] (00+00/14) No match 10 [997723f6|a741a9a2] (00+00/16) No match 11 [5808ded7|eeffe679] (00+00/14) No match 12 [8410e325|7583b322] (00+00/14) No match 13 [7371c1bb|01857731] (00+00/13) No match 14 [45da2f00|63f8d1fe] (00+00/14) No matchOffsetted by 102: 01 [b070a28c] (07/12) Accurately ripped 02 [1b5efa6b] (08/13) Accurately ripped 03 [43b01ad2] (07/12) Accurately ripped 04 [6ec7e5f4] (08/14) Accurately ripped 05 [5b0d5abb] (08/14) Accurately ripped 06 [cb59c3c1] (08/14) Accurately ripped 07 [535cc728] (08/14) Accurately ripped 08 [dda5ebdb] (08/14) Accurately ripped 09 [9c1d7604] (08/14) Accurately ripped 10 [b731ca9a] (08/16) Accurately ripped 11 [486b511e] (08/14) Accurately ripped 12 [07c192f6] (08/14) Accurately ripped 13 [5fd16a4d] (07/13) Accurately ripped 14 [82b928a8] (08/14) Accurately rippedOffsetted by -567: 01 [ad2d01d7] (00/12) No match (V2 was not tested) 02 [fd1f19e6] (00/13) No match (V2 was not tested) 03 [fc4dea1f] (00/12) No match (V2 was not tested) 04 [72b1874d] (00/14) No match (V2 was not tested) 05 [049db63b] (00/14) No match (V2 was not tested) 06 [65414809] (00/14) No match (V2 was not tested) 07 [0e55c638] (00/14) No match (V2 was not tested) 08 [2ab08c2a] (00/14) No match (V2 was not tested) 09 [63b49b54] (00/14) No match (V2 was not tested) 10 [8343ef0c] (02/16) Accurately ripped 11 [638e2a57] (00/14) No match (V2 was not tested) 12 [cda8c389] (00/14) No match (V2 was not tested) 13 [c26d1126] (00/13) No match (V2 was not tested) 14 [91994abc] (00/14) No match (V2 was not tested)Offsetted by 124: 01 [1ec0ebf2] (00/12) No match (V2 was not tested) 02 [6cb97931] (00/13) No match (V2 was not tested) 03 [a523192c] (00/12) No match (V2 was not tested) 04 [b736caa6] (00/14) No match (V2 was not tested) 05 [35b719bb] (00/14) No match (V2 was not tested) 06 [5ef89bd1] (00/14) No match (V2 was not tested) 07 [e5e53c48] (00/14) No match (V2 was not tested) 08 [95da6109] (00/14) No match (V2 was not tested) 09 [3a7a73a4] (00/14) No match (V2 was not tested) 10 [310ec15e] (00/16) No match (V2 was not tested) 11 [ae768831] (00/14) No match (V2 was not tested) 12 [1a1ee0bb] (00/14) No match (V2 was not tested) 13 [74aed4ef] (00/13) No match (V2 was not tested) 14 [cc166d90] (00/14) No match (V2 was not tested)
Track Peak [ CRC32 ] [W/O NULL] [ LOG ] -- 100,0 [C6345BA5] [642835A0] W/O NULL 01 84,7 [6C2A479B] [896B062C] 02 79,0 [0684ED74] [C6DBBA5C] 03 78,1 [DCF32DD1] [F15E3FFC] 04 100,0 [39DCD862] [03BA99D3] 05 79,0 [FB68F37C] [12AB13AE] 06 100,0 [068EE377] [820E6E4F] 07 80,0 [0D4052F2] [D73FA9F4] 08 100,0 [660D2F0C] [BC6335B6] 09 84,7 [C60AF351] [A013DC94] 10 84,7 [BA35296D] [47A62323] 11 79,0 [D96356DB] [C2D269F8] 12 79,0 [45081E38] [88D05FCA] 13 84,7 [412B3A8D] [AB1771C9] 14 100,0 [9F532246] [4DCFAAC1]
ПРОДОЛЖЕНИЕ НИЖЕ


[islamvillage.com]_t_5611411.torrent
Торрент: Зарегистрирован ·  [ 2018-10-10 19:04 ] ·  e83910d0854158bc066f41b96d8316af94aa7f5e

152 KB

Статус: проверено
Скачан: 0 раз
Размер: 8.12 GB
Оценка: 
(Голосов: 0)
Сказали спасибо: 0  Спасибо
Похожие темы
[Профиль]    [ЛС]
Показать сообщения:    
Ответить на тему

Текущее время: Сегодня 12:12

Часовой пояс: GMT + 7



Вы не можете начинать темы
Вы не можете отвечать на сообщения
Вы не можете редактировать свои сообщения
Вы не можете удалять свои сообщения
Вы не можете голосовать в опросах
Вы не можете прикреплять файлы к сообщениям
Вы можете скачивать файлы


Taio Cruz | blue planet | Sean Schemmel