(Rap) [CD] Эйсик - Высота - 2009, ALAC (tracks+.cue), lossless

Ответить на тему
Статистика раздачи [Обновить пиров]
Размер:  419 MB   |    Зарегистрирован:  2 месяца 30 дней   |    Скачан:  0 раз

Полного источника не было: Никогда

 
   
 
 
 
Автор Сообщение

islamvillage.com

Создавать темы 17-Окт-2018 22:49

[Цитировать]

Эйсик / Высота
Жанр: Rap
Носитель: CD
Страна-производитель диска: Россия
Год издания: 2009
Издатель (лейбл): Hip-Hop Place
Страна исполнителя (группы): Россия
Аудио кодек: ALAC (*.m4a)
Тип рипа: tracks+.cue
Программа-конвертер: Собственный рип (EAC)
Битрейт аудио: lossless
Продолжительность: 00:51:41
Наличие сканов в содержимом раздачи: да
Тексты: вшиты частично
Источник : Собственный диск
Треклист:
01. Бензиновое зазеркалье (есть текст)
02. Светило ft. РМД (есть текст)
03. Конец света (нет текста)
04. Бег (есть текст)
05. Символ мира (есть текст)
06. Больное земное (нет текста)
07. Имя мне легион ft. Ига Флоу, БЛК, РМД, Скато (есть текст)
08. Один против тысячи (есть текст)
09. Белый флаг (нет текста)
10. Там, где коршуны (есть текст)
11. Саянаро (есть текст)
12. Поиск (нет текста)
13. Волчья (есть текст)
14. Пара крыльев ft. РМД (есть текст)
15. Я часть вселенной (нет текста)
16. Высота (есть текст)
17. Виктория (есть текст)
18. Мир тонкий (есть текст)
19. ТТ лирика (есть текст)
20. Вега (есть текст)

Лог создания рипа

Exact Audio Copy V1.3 from 2. September 2016
Отчёт EAC об извлечении, выполненном 15. октября 2018, 23:44
Эйсик / Высота
Дисковод: HL-DT-STDVDRAM GP60NB50 Adapter: 1 ID: 0
Режим чтения : ДостоверностьИспользование точного потока : ДаОтключение кэша аудио : ДаИспользование указателей C2 : Нет
Коррекция смещения при чтении : 6Способность читать области Lead-in и Lead-out : НетЗаполнение пропущенных сэмплов тишиной : ДаУдаление блоков с тишиной в начале и конце : НетПри вычислениях CRC использовались нулевые сэмплы : ДаИнтерфейс : Встроенный Win32-интерфейс для Win NT/2000Обработка зазоров : Добавлено к предыдущему треку
Выходной формат : Пользовательский кодировщикВыбранный битрейт : 128 kBit/sКачество : ВысокийДобавление ID3-тега : НетУтилита сжатия : C:\Users\Антон\Downloads\qaac_2.66\qaac_2.66\x64\refalac64.exeДополнительные параметры : -s --ignorelength --artist "%artist%" --title "%title%" --album "%albumtitle%" --date "%year%" --track "%tracknr%" --genre "%genre%" -o %dest% %source%
TOC извлечённого CD
Трек | Старт | Длительность | Начальный сектор | Конечный сектор --------------------------------------------------------------------- 1 | 0:00.00 | 3:02.37 | 0 | 13686 2 | 3:02.37 | 2:33.56 | 13687 | 25217 3 | 5:36.18 | 0:33.12 | 25218 | 27704 4 | 6:09.30 | 2:22.45 | 27705 | 38399 5 | 8:32.00 | 2:56.00 | 38400 | 51599 6 | 11:28.00 | 0:34.00 | 51600 | 54149 7 | 12:02.00 | 5:34.37 | 54150 | 79236 8 | 17:36.37 | 3:22.00 | 79237 | 94386 9 | 20:58.37 | 0:28.66 | 94387 | 96552 10 | 21:27.28 | 3:07.09 | 96553 | 110586 11 | 24:34.37 | 2:57.38 | 110587 | 123899 12 | 27:32.00 | 0:25.18 | 123900 | 125792 13 | 27:57.18 | 2:27.57 | 125793 | 136874 14 | 30:25.00 | 2:13.13 | 136875 | 146862 15 | 32:38.13 | 0:31.50 | 146863 | 149237 16 | 33:09.63 | 4:02.49 | 149238 | 167436 17 | 37:12.37 | 3:08.49 | 167437 | 181585 18 | 40:21.11 | 2:36.59 | 181586 | 193344 19 | 42:57.70 | 2:34.08 | 193345 | 204902 20 | 45:32.03 | 6:08.53 | 204903 | 232555
Трек 1
Имя файла C:\Users\Антон\Downloads\Музыка\Эйсик - Высота (2009)\01 Бензиновое зазеркалье.wav
Длина предзазора 0:00:02.00
Пиковый уровень 98.8 % Скорость извлечения 2.5 X Качество трека 100.0 % CRC теста 8F14C306 CRC копии 8F14C306 Точное извлечение (достоверность 1) [B803C39E] (AR v1) Копирование... OK
Трек 2
Имя файла C:\Users\Антон\Downloads\Музыка\Эйсик - Высота (2009)\02 Светило ft. РМД.wav
Пиковый уровень 98.9 % Скорость извлечения 2.6 X Качество трека 100.0 % CRC теста D067B317 CRC копии D067B317 Точное извлечение (достоверность 1) [49A3A458] (AR v1) Копирование... OK
Трек 3
Имя файла C:\Users\Антон\Downloads\Музыка\Эйсик - Высота (2009)\03 Конец света.wav
Пиковый уровень 98.8 % Скорость извлечения 1.5 X Качество трека 100.0 % CRC теста 041C77D0 CRC копии 041C77D0 Точное извлечение (достоверность 1) [CBBF8C3E] (AR v1) Копирование... OK
Трек 4
Имя файла C:\Users\Антон\Downloads\Музыка\Эйсик - Высота (2009)\04 Бег.wav
Пиковый уровень 98.8 % Скорость извлечения 2.8 X Качество трека 100.0 % CRC теста FE1B7A19 CRC копии FE1B7A19 Точное извлечение (достоверность 1) [A721B5F1] (AR v1) Копирование... OK
Трек 5
Имя файла C:\Users\Антон\Downloads\Музыка\Эйсик - Высота (2009)\05 Символ мира.wav
Пиковый уровень 98.8 % Скорость извлечения 3.1 X Качество трека 100.0 % CRC теста 22D5E0C7 CRC копии 22D5E0C7 Точное извлечение (достоверность 1) [526B5B14] (AR v1) Копирование... OK
Трек 6
Имя файла C:\Users\Антон\Downloads\Музыка\Эйсик - Высота (2009)\06 Больное земное.wav
Пиковый уровень 98.8 % Скорость извлечения 1.8 X Качество трека 100.0 % CRC теста 86455375 CRC копии 86455375 Точное извлечение (достоверность 1) [6825F2A8] (AR v1) Копирование... OK
Трек 7
Имя файла C:\Users\Антон\Downloads\Музыка\Эйсик - Высота (2009)\07 Имя мне легион ft. Ига Флоу, БЛК, РМД, Скато.wav
Пиковый уровень 98.8 % Скорость извлечения 3.7 X Качество трека 100.0 % CRC теста 3F0F80A0 CRC копии 3F0F80A0 Точное извлечение (достоверность 1) [1D226206] (AR v1) Копирование... OK
Трек 8
Имя файла C:\Users\Антон\Downloads\Музыка\Эйсик - Высота (2009)\08 Один против тысячи.wav
Пиковый уровень 98.8 % Скорость извлечения 3.7 X Качество трека 100.0 % CRC теста 5AB8A809 CRC копии 5AB8A809 Точное извлечение (достоверность 1) [0003E47A] (AR v1) Копирование... OK
Трек 9
Имя файла C:\Users\Антон\Downloads\Музыка\Эйсик - Высота (2009)\09 Белый флаг.wav
Пиковый уровень 98.8 % Скорость извлечения 0.5 X Качество трека 99.6 % CRC теста A2138585 CRC копии A2138585 Точное извлечение (достоверность 1) [8AE8926F] (AR v1) Копирование... OK
Трек 10
Имя файла C:\Users\Антон\Downloads\Музыка\Эйсик - Высота (2009)\10 Там, где коршуны.wav
Пиковый уровень 98.9 % Скорость извлечения 1.6 X Качество трека 100.0 % CRC теста C4833A6D CRC копии C4833A6D Точное извлечение (достоверность 1) [6029E663] (AR v1) Копирование... OK
Трек 11
Имя файла C:\Users\Антон\Downloads\Музыка\Эйсик - Высота (2009)\11 Саянаро.wav
Пиковый уровень 98.9 % Скорость извлечения 3.9 X Качество трека 100.0 % CRC теста 784E045C CRC копии 784E045C Точное извлечение (достоверность 1) [10A4BFCD] (AR v1) Копирование... OK
Трек 12
Имя файла C:\Users\Антон\Downloads\Музыка\Эйсик - Высота (2009)\12 Поиск.wav
Пиковый уровень 98.8 % Скорость извлечения 0.5 X Качество трека 99.5 % CRC теста 7F7834C5 CRC копии 7F7834C5 Точное извлечение (достоверность 1) [2FE264F3] (AR v1) Копирование... OK
Трек 13
Имя файла C:\Users\Антон\Downloads\Музыка\Эйсик - Высота (2009)\13 Волчья.wav
Пиковый уровень 98.9 % Скорость извлечения 1.7 X Качество трека 100.0 % CRC теста CF615BB6 CRC копии CF615BB6 Точное извлечение (достоверность 1) [892774CF] (AR v1) Копирование... OK
Трек 14
Имя файла C:\Users\Антон\Downloads\Музыка\Эйсик - Высота (2009)\14 Пара крыльев ft. РМД.wav
Пиковый уровень 98.8 % Скорость извлечения 3.9 X Качество трека 100.0 % CRC теста B1562A47 CRC копии B1562A47 Точное извлечение (достоверность 1) [DD49A5A1] (AR v1) Копирование... OK
Трек 15
Имя файла C:\Users\Антон\Downloads\Музыка\Эйсик - Высота (2009)\15 Я часть вселенной.wav
Пиковый уровень 98.8 % Скорость извлечения 1.0 X Качество трека 100.0 % CRC теста ADC35F61 CRC копии ADC35F61 Точное извлечение (достоверность 1) [809286BD] (AR v1) Копирование... OK
Трек 16
Имя файла C:\Users\Антон\Downloads\Музыка\Эйсик - Высота (2009)\16 Высота.wav
Пиковый уровень 98.8 % Скорость извлечения 1.7 X Качество трека 99.9 % CRC теста 56101B8F CRC копии 56101B8F Точное извлечение (достоверность 1) [4956F56C] (AR v1) Копирование... OK
Трек 17
Имя файла C:\Users\Антон\Downloads\Музыка\Эйсик - Высота (2009)\17 Виктория.wav
Пиковый уровень 98.8 % Скорость извлечения 1.9 X Качество трека 100.0 % CRC теста E710CDAA CRC копии E710CDAA Точное извлечение (достоверность 1) [039FA1BA] (AR v1) Копирование... OK
Трек 18
Имя файла C:\Users\Антон\Downloads\Музыка\Эйсик - Высота (2009)\18 Мир тонкий.wav
Пиковый уровень 98.9 % Скорость извлечения 1.9 X Качество трека 100.0 % CRC теста 2606539C CRC копии 2606539C Точное извлечение (достоверность 1) [C573B23F] (AR v1) Копирование... OK
Трек 19
Имя файла C:\Users\Антон\Downloads\Музыка\Эйсик - Высота (2009)\19 ТТ лирика.wav
Пиковый уровень 98.8 % Скорость извлечения 1.9 X Качество трека 100.0 % CRC теста 7884A05B CRC копии 7884A05B Точное извлечение (достоверность 1) [424D885B] (AR v1) Копирование... OK
Трек 20
Имя файла C:\Users\Антон\Downloads\Музыка\Эйсик - Высота (2009)\20 Вега.wav
Пиковый уровень 98.8 % Скорость извлечения 2.3 X Качество трека 100.0 % CRC теста D0C2E1D9 CRC копии D0C2E1D9 Точное извлечение (достоверность 1) [38D8F63E] (AR v1) Копирование... OK
Все треки извлечены точно
Ошибок не произошло
Конец отчёта
---- CUETools DB Plugin V2.1.6
[CTDB TOCID: W0finkirt7eu7aG6FLgAZAbJDQw-] disk not present in databaseSubmit result: W0finkirt7eu7aG6FLgAZAbJDQw- has been uploaded
==== Контрольная сумма отчёта 35895647FBA6B0B877FD3E1A037CBC16866CCB6E23F76657278D333193CE493D ====

Содержание индексной карты (.CUE)

REM GENRE RapREM DATE 2009REM DISCID 260C1C14REM COMMENT "ExactAudioCopy v1.3"PERFORMER "Эйсик"TITLE "Высота"REM COMPOSER ""FILE "01 Бензиновое зазеркалье.wav" WAVE TRACK 01 AUDIO TITLE "Бензиновое зазеркалье" PERFORMER "Эйсик" REM COMPOSER "" INDEX 01 00:00:00FILE "02 Светило ft. РМД.wav" WAVE TRACK 02 AUDIO TITLE "Светило ft. РМД" PERFORMER "Эйсик" REM COMPOSER "" INDEX 01 00:00:00FILE "03 Конец света.wav" WAVE TRACK 03 AUDIO TITLE "Конец света" PERFORMER "Эйсик" REM COMPOSER "" INDEX 01 00:00:00FILE "04 Бег.wav" WAVE TRACK 04 AUDIO TITLE "Бег" PERFORMER "Эйсик" REM COMPOSER "" INDEX 01 00:00:00FILE "05 Символ мира.wav" WAVE TRACK 05 AUDIO TITLE "Символ мира" PERFORMER "Эйсик" REM COMPOSER "" INDEX 01 00:00:00FILE "06 Больное земное.wav" WAVE TRACK 06 AUDIO TITLE "Больное земное" PERFORMER "Эйсик" REM COMPOSER "" INDEX 01 00:00:00FILE "07 Имя мне легион ft. Ига Флоу, БЛК, РМД, Скато.wav" WAVE TRACK 07 AUDIO TITLE "Имя мне легион ft. Ига Флоу, БЛК, РМД, Скато" PERFORMER "Эйсик" REM COMPOSER "" INDEX 01 00:00:00FILE "08 Один против тысячи.wav" WAVE TRACK 08 AUDIO TITLE "Один против тысячи" PERFORMER "Эйсик" REM COMPOSER "" INDEX 01 00:00:00FILE "09 Белый флаг.wav" WAVE TRACK 09 AUDIO TITLE "Белый флаг" PERFORMER "Эйсик" REM COMPOSER "" INDEX 01 00:00:00FILE "10 Там, где коршуны.wav" WAVE TRACK 10 AUDIO TITLE "Там, где коршуны" PERFORMER "Эйсик" REM COMPOSER "" INDEX 01 00:00:00FILE "11 Саянаро.wav" WAVE TRACK 11 AUDIO TITLE "Саянаро" PERFORMER "Эйсик" REM COMPOSER "" INDEX 01 00:00:00FILE "12 Поиск.wav" WAVE TRACK 12 AUDIO TITLE "Поиск" PERFORMER "Эйсик" REM COMPOSER "" INDEX 01 00:00:00FILE "13 Волчья.wav" WAVE TRACK 13 AUDIO TITLE "Волчья" PERFORMER "Эйсик" REM COMPOSER "" INDEX 01 00:00:00FILE "14 Пара крыльев ft. РМД.wav" WAVE TRACK 14 AUDIO TITLE "Пара крыльев ft. РМД" PERFORMER "Эйсик" REM COMPOSER "" INDEX 01 00:00:00FILE "15 Я часть вселенной.wav" WAVE TRACK 15 AUDIO TITLE "Я часть вселенной" PERFORMER "Эйсик" REM COMPOSER "" INDEX 01 00:00:00FILE "16 Высота.wav" WAVE TRACK 16 AUDIO TITLE "Высота" PERFORMER "Эйсик" REM COMPOSER "" INDEX 01 00:00:00FILE "17 Виктория.wav" WAVE TRACK 17 AUDIO TITLE "Виктория" PERFORMER "Эйсик" REM COMPOSER "" INDEX 01 00:00:00FILE "18 Мир тонкий.wav" WAVE TRACK 18 AUDIO TITLE "Мир тонкий" PERFORMER "Эйсик" REM COMPOSER "" INDEX 01 00:00:00FILE "19 ТТ лирика.wav" WAVE TRACK 19 AUDIO TITLE "ТТ лирика" PERFORMER "Эйсик" REM COMPOSER "" INDEX 01 00:00:00FILE "20 Вега.wav" WAVE TRACK 20 AUDIO TITLE "Вега" PERFORMER "Эйсик" REM COMPOSER "" INDEX 01 00:00:00

Лог проверки качества

CUE Corrector v. 8.3.4 / b. 880 (Oct. 14, 2018)————————————————————————————————————————————————————————————————————————--- / Высота
Folder: Эйсик - Высота (2009)Audio files: 01 Бензиновое зазеркалье.m4a [03:02.493; ALAC • 1044 kbps • 16 bit \ 44100 Hz • stereo; 22.74 MB (23 848 024 B)] 02 Светило ft. РМД.m4a [02:33.747; ALAC • 968 kbps • 16 bit \ 44100 Hz • stereo; 17.76 MB (18 622 073 B)] 03 Конец света.m4a [00:33.160; ALAC • 746 kbps • 16 bit \ 44100 Hz • stereo; 2.95 MB (3 095 941 B)] 04 Бег.m4a [02:22.600; ALAC • 1090 kbps • 16 bit \ 44100 Hz • stereo; 18.54 MB (19 441 746 B)] 05 Символ мира.m4a [02:56.000; ALAC • 1043 kbps • 16 bit \ 44100 Hz • stereo; 21.90 MB (22 962 513 B)] 06 Больное земное.m4a [00:34.000; ALAC • 768 kbps • 16 bit \ 44100 Hz • stereo; 3.12 MB (3 268 723 B)] 07 Имя мне легион ft. Ига Флоу, БЛК, РМД, Скато.m4a [05:34.493; ALAC • 1072 kbps • 16 bit \ 44100 Hz • stereo; 42.80 MB (44 882 863 B)] 08 Один против тысячи.m4a [03:22.000; ALAC • 1042 kbps • 16 bit \ 44100 Hz • stereo; 25.12 MB (26 338 154 B)] 09 Белый флаг.m4a [00:28.880; ALAC • 755 kbps • 16 bit \ 44100 Hz • stereo; 2.61 MB (2 731 735 B)] 10 Там, где коршуны.m4a [03:07.120; ALAC • 1062 kbps • 16 bit \ 44100 Hz • stereo; 23.71 MB (24 857 023 B)] 11 Саянаро.m4a [02:57.507; ALAC • 1078 kbps • 16 bit \ 44100 Hz • stereo; 22.82 MB (23 931 430 B)] 12 Поиск.m4a [00:25.240; ALAC • 708 kbps • 16 bit \ 44100 Hz • stereo; 2.14 MB (2 240 045 B)] 13 Волчья.m4a [02:27.760; ALAC • 1081 kbps • 16 bit \ 44100 Hz • stereo; 19.05 MB (19 978 009 B)] 14 Пара крыльев ft. РМД.m4a [02:13.173; ALAC • 1012 kbps • 16 bit \ 44100 Hz • stereo; 16.09 MB (16 866 410 B)] 15 Я часть вселенной.m4a [00:31.667; ALAC • 613 kbps • 16 bit \ 44100 Hz • stereo; 2.32 MB (2 432 882 B)] 16 Высота.m4a [04:02.653; ALAC • 1051 kbps • 16 bit \ 44100 Hz • stereo; 30.44 MB (31 914 812 B)] 17 Виктория.m4a [03:08.653; ALAC • 1008 kbps • 16 bit \ 44100 Hz • stereo; 22.68 MB (23 783 426 B)] 18 Мир тонкий.m4a [02:36.787; ALAC • 1075 kbps • 16 bit \ 44100 Hz • stereo; 20.11 MB (21 086 517 B)] 19 ТТ лирика.m4a [02:34.107; ALAC • 1016 kbps • 16 bit \ 44100 Hz • stereo; 18.68 MB (19 586 127 B)] 20 Вега.m4a [06:08.707; ALAC • 1026 kbps • 16 bit \ 44100 Hz • stereo; 45.15 MB (47 341 351 B)]
Accuracy: -m0
File 01 Бензиновое зазеркалье - 100% CDDA [03:02:37]
Detected average hi-boundary frequency : 20398.580 Hz Detected average lo-boundary frequency : 12749.030 Hz Detected average hi-cut frequency : 21218.460 Hz Detected average lo-cut frequency : 6930.912 Hz Maximum probablis boundary frequency : 21891.000 Hz Coefficient of nonlinearity of a phase : 0.85605430 First order smothness : 0.39083970 Second order smothness : 0.45292620
File 02 Светило ft. РМД - 100% CDDA [02:33:56]
Detected average hi-boundary frequency : 20331.410 Hz Detected average lo-boundary frequency : 13227.380 Hz Detected average hi-cut frequency : 21403.470 Hz Detected average lo-cut frequency : 12165.690 Hz Maximum probablis boundary frequency : 21477.000 Hz Coefficient of nonlinearity of a phase : 0.38192980 First order smothness : 0.45531400 Second order smothness : 0.54830920
File 03 Конец света - 86% CDDA [00:33:12]
Detected average hi-boundary frequency : 20238.760 Hz Detected average lo-boundary frequency : 12665.080 Hz Detected average hi-cut frequency : 20642.900 Hz Detected average lo-cut frequency : 12102.670 Hz Maximum probablis boundary frequency : 21891.000 Hz Coefficient of nonlinearity of a phase : 0.18192870 First order smothness : 0.44413410 Second order smothness : 0.73463690
File 04 Бег - 99% CDDA [02:22:45]
Detected average hi-boundary frequency : 19956.640 Hz Detected average lo-boundary frequency : 12670.520 Hz Detected average hi-cut frequency : 21018.470 Hz Detected average lo-cut frequency : 8378.273 Hz Maximum probablis boundary frequency : 21891.000 Hz Coefficient of nonlinearity of a phase : 1.18257200 First order smothness : 0.32226560 Second order smothness : 0.38151040
File 05 Символ мира - 100% CDDA [02:56:00]
Detected average hi-boundary frequency : 20257.470 Hz Detected average lo-boundary frequency : 13257.650 Hz Detected average hi-cut frequency : 21511.340 Hz Detected average lo-cut frequency : 10007.430 Hz Maximum probablis boundary frequency : 21891.000 Hz Coefficient of nonlinearity of a phase : 0.60398850 First order smothness : 0.37097630 Second order smothness : 0.53192610
File 06 Больное земное - 99% CDDA [00:34:00]
Detected average hi-boundary frequency : 20383.140 Hz Detected average lo-boundary frequency : 13998.060 Hz Detected average hi-cut frequency : 20411.230 Hz Detected average lo-cut frequency : 11588.460 Hz Maximum probablis boundary frequency : 21891.000 Hz Coefficient of nonlinearity of a phase : 0.16786560 First order smothness : 0.49046320 Second order smothness : 0.54223430
File 07 Имя мне легион ft. Ига Флоу, БЛК, РМД, Скато - 100% CDDA [05:34:37]
Detected average hi-boundary frequency : 20120.230 Hz Detected average lo-boundary frequency : 12829.580 Hz Detected average hi-cut frequency : 21126.890 Hz Detected average lo-cut frequency : 5840.434 Hz Maximum probablis boundary frequency : 21891.000 Hz Coefficient of nonlinearity of a phase : 0.26326460 First order smothness : 0.38173240 Second order smothness : 0.31177120
File 08 Один против тысячи - 100% CDDA [03:22:00]
Detected average hi-boundary frequency : 20169.560 Hz Detected average lo-boundary frequency : 12726.070 Hz Detected average hi-cut frequency : 21605.960 Hz Detected average lo-cut frequency : 7897.995 Hz Maximum probablis boundary frequency : 21891.000 Hz Coefficient of nonlinearity of a phase : 0.55809630 First order smothness : 0.39080460 Second order smothness : 0.56827590
File 09 Белый флаг - 99% CDDA [00:28:66]
Detected average hi-boundary frequency : 20423.280 Hz Detected average lo-boundary frequency : 14384.460 Hz Detected average hi-cut frequency : 20749.110 Hz Detected average lo-cut frequency : 12890.390 Hz Maximum probablis boundary frequency : 21891.000 Hz Coefficient of nonlinearity of a phase : 0.19136960 First order smothness : 0.50803860 Second order smothness : 0.63344050
File 10 Там, где коршуны - 100% CDDA [03:07:09]
Detected average hi-boundary frequency : 20206.670 Hz Detected average lo-boundary frequency : 12714.990 Hz Detected average hi-cut frequency : 21445.040 Hz Detected average lo-cut frequency : 6034.004 Hz Maximum probablis boundary frequency : 21891.000 Hz Coefficient of nonlinearity of a phase : 0.13523290 First order smothness : 0.39553350 Second order smothness : 0.45508680
File 11 Саянаро - 100% CDDA [02:57:38]
Detected average hi-boundary frequency : 20275.030 Hz Detected average lo-boundary frequency : 13640.300 Hz Detected average hi-cut frequency : 21586.570 Hz Detected average lo-cut frequency : 9596.871 Hz Maximum probablis boundary frequency : 21896.000 Hz Coefficient of nonlinearity of a phase : 0.17322990 First order smothness : 0.42102510 Second order smothness : 0.50000000
File 12 Поиск - 100% CDDA [00:25:18]
Detected average hi-boundary frequency : 20025.870 Hz Detected average lo-boundary frequency : 13871.060 Hz Detected average hi-cut frequency : 20504.520 Hz Detected average lo-cut frequency : 12809.560 Hz Maximum probablis boundary frequency : 21181.000 Hz Coefficient of nonlinearity of a phase : 0.16926170 First order smothness : 0.51102940 Second order smothness : 0.63602940
File 13 Волчья - 100% CDDA [02:27:57]
Detected average hi-boundary frequency : 20245.710 Hz Detected average lo-boundary frequency : 12568.360 Hz Detected average hi-cut frequency : 21579.640 Hz Detected average lo-cut frequency : 10557.180 Hz Maximum probablis boundary frequency : 21891.000 Hz Coefficient of nonlinearity of a phase : 0.90782570 First order smothness : 0.42551850 Second order smothness : 0.42866120
File 14 Пара крыльев ft. РМД - 100% CDDA [02:13:13]
Detected average hi-boundary frequency : 20803.720 Hz Detected average lo-boundary frequency : 14757.030 Hz Detected average hi-cut frequency : 21400.160 Hz Detected average lo-cut frequency : 16967.310 Hz Maximum probablis boundary frequency : 21891.000 Hz Coefficient of nonlinearity of a phase : 0.10987410 First order smothness : 0.45258020 Second order smothness : 0.68619250
File 15 Я часть вселенной - 100% CDDA [00:31:50]
Detected average hi-boundary frequency : 20302.630 Hz Detected average lo-boundary frequency : 13817.350 Hz Detected average hi-cut frequency : 20646.550 Hz Detected average lo-cut frequency : 13059.460 Hz Maximum probablis boundary frequency : 21891.000 Hz Coefficient of nonlinearity of a phase : 0.13683130 First order smothness : 0.43108500 Second order smothness : 0.56011730
File 16 Высота - 100% CDDA [04:02:49]
Detected average hi-boundary frequency : 20187.420 Hz Detected average lo-boundary frequency : 12613.520 Hz Detected average hi-cut frequency : 21403.920 Hz Detected average lo-cut frequency : 4484.657 Hz Maximum probablis boundary frequency : 21891.000 Hz Coefficient of nonlinearity of a phase : 1.20602000 First order smothness : 0.37083810 Second order smothness : 0.44087260
File 17 Виктория - 99% CDDA [03:08:49]
Detected average hi-boundary frequency : 20229.850 Hz Detected average lo-boundary frequency : 12992.530 Hz Detected average hi-cut frequency : 21330.370 Hz Detected average lo-cut frequency : 8788.774 Hz Maximum probablis boundary frequency : 21891.000 Hz Coefficient of nonlinearity of a phase : 0.58636130 First order smothness : 0.43307090 Second order smothness : 0.57135830
File 18 Мир тонкий - 100% CDDA [02:36:59]
Detected average hi-boundary frequency : 20483.220 Hz Detected average lo-boundary frequency : 14244.980 Hz Detected average hi-cut frequency : 21555.680 Hz Detected average lo-cut frequency : 12580.790 Hz Maximum probablis boundary frequency : 21891.000 Hz Coefficient of nonlinearity of a phase : 0.26569010 First order smothness : 0.44286560 Second order smothness : 0.56956780
File 19 ТТ лирика - 100% CDDA [02:34:08]
Detected average hi-boundary frequency : 20301.510 Hz Detected average lo-boundary frequency : 12909.780 Hz Detected average hi-cut frequency : 21405.120 Hz Detected average lo-cut frequency : 7291.605 Hz Maximum probablis boundary frequency : 21891.000 Hz Coefficient of nonlinearity of a phase : 0.16937640 First order smothness : 0.40783130 Second order smothness : 0.37469880
File 20 Вега - 100% CDDA [06:08:53]
Detected average hi-boundary frequency : 20190.750 Hz Detected average lo-boundary frequency : 13043.380 Hz Detected average hi-cut frequency : 21728.150 Hz Detected average lo-cut frequency : 10011.720 Hz Maximum probablis boundary frequency : 21891.000 Hz Coefficient of nonlinearity of a phase : 0.08734240 First order smothness : 0.44410800 Second order smothness : 0.52737820
————— Summary: —————These tracks looks like CDDA with probability 100%.————————————————————————————————————————————————————————————————————————
ANALYZER: auCDtect: CD records authenticity detector, version 0.8.2 Copyright (c) 2004 Oleg Berngardt. All rights reserved. Copyright (c) 2004 Alexander Djourik. All rights reserved.
Time elapsed: 3 m 31 sLog created at October 16, 2018 07:32:20
=== 67EAA94965ABF51D48E5E7DBB9744FFC2586AD7B62ECC6BA99F7CA25E989E408 ===

Скриншот(ы) тегов iTunes

Об альбоме (сборнике)

Сольная карьера талантливого рэппера Эйсика началась в 2005-ом году, с выходом его первого альбома «Солнечное сплетение». Всю музыку для этого альбома писал битмейкер из северной столицы Марат, один из участников питерской группы KREC. В альбоме приняли участие близкие друзья рэппера — группы Объединённая Каста, группы Песочные люди, Доброе зло, Триада, KREC, а также икона питерского андерграунд рэпа Смоки Мо. Альбом пользовался большим успехом у всех поклонников русского рэпа и надолго запомнился своей экспрессией и искренностью.
Новый альбом Эйсика — это призыв, призыв очень искренний, и очень сильный, временами яростный, временами задумчивый и мрачный, но всегда очень и очень тонкий, направленный к каждому слушателю, и проникающий глубоко в сознание.
Это один из тех альбомов, что можно прослушивать несколько раз, и каждый раз находить в нём что-то новое: для кого—то больше всего запомнится музыка, для кого-то — очень своеобразная подача рэппера, а кому-то очень и очень западут в душу слова, и останутся в памяти темы, что поднимает талантливый исполнитель на своём третьем сольном альбоме.


[islamvillage.com]_t_5629473.torrent
Торрент: Зарегистрирован ·  [ 2018-10-17 22:49 ] ·  efc3886c519dc206b6e73d961615d575c0ff4dfb

19 KB

Статус: проверено
Скачан: 0 раз
Размер: 419 MB
Оценка: 
(Голосов: 0)
Сказали спасибо: 0  Спасибо
[Профиль]    [ЛС]
Показать сообщения:    
Ответить на тему

Текущее время: Сегодня 12:13

Часовой пояс: GMT + 7



Вы не можете начинать темы
Вы не можете отвечать на сообщения
Вы не можете редактировать свои сообщения
Вы не можете удалять свои сообщения
Вы не можете голосовать в опросах
Вы не можете прикреплять файлы к сообщениям
Вы можете скачивать файлы


Spanish Goddess Craves Cum | └ Tickets & Experiences | [PixAndVideo - 21Sextury] Kirsten Plant (Nothing Complex)