Пьеса без названия (2 действия) (Лев Додин) [2009, драма, DVB] Академический Малый Драматический театр - Театр Европы

Ответить на тему
Статистика раздачи [Обновить пиров]
Размер:  6.73 GB   |    Зарегистрирован:  3 месяца 19 дней   |    Скачан:  0 раз

Полного источника не было: Никогда

 
   
 
 
 
Автор Сообщение

islamvillage.com

Создавать темы 02-Ноя-2018 23:27

[Цитировать]

Пьеса без названия (2 действия)
Название театра: Академический Малый Драматический театр - Театр Европы
Жанр: драма
Год выхода: 2009
Продолжительность: 01:48:48 + 01:09:53
Режиссёр: Лев Додин
В ролях: Татьяна Шестакова, Олег Дмитриев, Ирина Тычинина, Сергей Курышев, Мария Никифорова, Елена Калинина, Игорь Иванов, Олег Гаянов, Сергей Козырев, Александр Завьялов, Игорь Черневич, Адриан Ростовский, Владимир Селезнев, Виталий Пичик, Данил Лавренов, Владимир Захарьев, Олег Рязанцев, Константин Белодубровский, Виктор Городков.
Описание: Текст юношеской пьесы Чехова дал возможность всемирно известному режиссеру Л. Додину нарисовать портрет российского интеллигента Платонова – бездеятельного, спившегося, неразборчивого в связях с женщинами. Этого "героя", дошедшего до скотского состояния и облаченного в какую-то звериную шкуру, убивает в финале одна из его любовниц. Проникая в душу чеховских персонажей, режиссер раздевает их донага в прямом смысле: большую часть сценического времени они проводят в бассейне с водой, сооруженном прямо на сцене, или рядом, под душем, где они словно пытаются смыть следы пороков и заблуждений.
Доп. информация:
Запись потока *.ts со спутника Экспресс АМ6, 53° в.д., ремукс в *.mkv программой VideoReDo.
Качество видео: DVB
Формат файла: MKV
Видео: MPEG2 Video, 720(1024)x576 (4:3), 25,000 кадров/сек, 5032 Кбит/сек
Аудио: MPEG Audio, 48,0 КГц, 256 Кбит/сек, 2 канала

MediaInfo

General
Unique ID : 169545948547959220460093309766586391194 (0x7F8D5CA72B690562EA28AB39F3A4DA9A)
Complete name : D:\Torrent\ПЬЕССА БЕЗ НАЗВАНИЯ\ПЬЕССА БЕЗ НАЗВАНИЯ 01 16Х9 (Kultura 53).mkv
Format : Matroska
Format version : Version 2
File size : 4.10 GiB
Duration : 1 h 48 min
Overall bit rate mode : Variable
Overall bit rate : 5 395 kb/s
Writing application : Lavf54.63.104
Writing library : Lavf54.63.104
Video
ID : 1
Format : MPEG Video
Format version : Version 2
Format profile : Main@Main
Format settings : CustomMatrix / BVOP
Format settings, BVOP : Yes
Format settings, Matrix : Custom
Format settings, GOP : M=3, N=15
Format settings, picture st : Frame
Codec ID : V_MPEG2
Codec ID/Info : MPEG 1 or 2 Video
Duration : 1 h 48 min
Bit rate mode : Variable
Bit rate : 5 032 kb/s
Maximum bit rate : 9 800 kb/s
Width : 720 pixels
Height : 576 pixels
Display aspect ratio : 16:9
Original display aspect rat : 16:9
Frame rate mode : Constant
Frame rate : 25.000 FPS
Standard : PAL
Color space : YUV
Chroma subsampling : 4:2:0
Bit depth : 8 bits
Scan type : Interlaced
Scan order : Top Field First
Compression mode : Lossy
Bits/(Pixel*Frame) : 0.485
Stream size : 3.82 GiB (93%)
Default : No
Forced : No
Audio
ID : 2
Format : MPEG Audio
Format version : Version 1
Format profile : Layer 2
Codec ID : A_MPEG/L2
Codec ID/Hint : MP2
Duration : 1 h 48 min
Bit rate mode : Constant
Bit rate : 256 kb/s
Channel(s) : 2 channels
Sampling rate : 48.0 kHz
Compression mode : Lossy
Delay relative to video : 14 ms
Stream size : 199 MiB (5%)
Language : English
Default : Yes
Forced : No
General
Unique ID : 103535677537163002994041116565568945631 (0x4DE43F04DFCB3D96526FBD4987A6FDDF)
Complete name : D:\Torrent\ПЬЕССА БЕЗ НАЗВАНИЯ\ПЬЕССА БЕЗ НАЗВАНИЯ 02 16Х9 (Kultura 53).mkv
Format : Matroska
Format version : Version 2
File size : 2.63 GiB
Duration : 1 h 9 min
Overall bit rate mode : Variable
Overall bit rate : 5 392 kb/s
Writing application : Lavf54.63.104
Writing library : Lavf54.63.104
Video
ID : 1
Format : MPEG Video
Format version : Version 2
Format profile : Main@Main
Format settings : CustomMatrix / BVOP
Format settings, BVOP : Yes
Format settings, Matrix : Custom
Format settings, GOP : M=3, N=15
Format settings, picture st : Frame
Codec ID : V_MPEG2
Codec ID/Info : MPEG 1 or 2 Video
Duration : 1 h 9 min
Bit rate mode : Variable
Bit rate : 5 029 kb/s
Maximum bit rate : 9 800 kb/s
Width : 720 pixels
Height : 576 pixels
Display aspect ratio : 16:9
Original display aspect rat : 16:9
Frame rate mode : Constant
Frame rate : 25.000 FPS
Standard : PAL
Color space : YUV
Chroma subsampling : 4:2:0
Bit depth : 8 bits
Scan type : Interlaced
Scan order : Top Field First
Compression mode : Lossy
Bits/(Pixel*Frame) : 0.485
Stream size : 2.46 GiB (93%)
Default : No
Forced : No
Audio
ID : 2
Format : MPEG Audio
Format version : Version 1
Format profile : Layer 2
Codec ID : A_MPEG/L2
Codec ID/Hint : MP2
Duration : 1 h 9 min
Bit rate mode : Constant
Bit rate : 256 kb/s
Channel(s) : 2 channels
Sampling rate : 48.0 kHz
Compression mode : Lossy
Delay relative to video : 6 ms
Stream size : 128 MiB (5%)
Language : English
Default : Yes
Forced : No

Скриншот с названием постановки



[islamvillage.com]_t_5634749.torrent
Торрент: Зарегистрирован ·  [ 2018-11-02 23:27 ] ·  b2c9d96b1c577c36f2d5d85e0e264d6235edd7ba

34 KB

Статус: проверено
Скачан: 0 раз
Размер: 6.73 GB
Оценка: 
(Голосов: 0)
Сказали спасибо: 0  Спасибо
Похожие темы
[Профиль]    [ЛС]
Показать сообщения:    
Ответить на тему

Текущее время: Сегодня 23:55

Часовой пояс: GMT + 7



Вы не можете начинать темы
Вы не можете отвечать на сообщения
Вы не можете редактировать свои сообщения
Вы не можете удалять свои сообщения
Вы не можете голосовать в опросах
Вы не можете прикреплять файлы к сообщениям
Вы можете скачивать файлы


Battlefield | Le Bitcoin | FREE WILLY 2: THE ADVENTURE HOME (1995)