(JRock) [CDM] SAVAGE - Reiketsu na Komoriuta (Tsumi Ban) - 2017, FLAC (tracks+.cue), lossless

Ответить на тему
Статистика раздачи [Обновить пиров]
Размер:  102 MB   |    Зарегистрирован:  2 месяца 11 дней   |    Скачан:  0 раз

Полного источника не было: Никогда

 
   
 
 
 
Автор Сообщение

islamvillage.com

Создавать темы 05-Ноя-2018 19:40

[Цитировать]

SAVAGE / Reiketsu na Komoriuta (Tsumi Ban)
Жанр: JRock
Носитель: CDM
Страна-производитель диска (релиза): Taiwan
Год издания: 2017
Издатель (лейбл): Reverse Cross Music
Номер по каталогу: SVG-001 1S-A
Страна исполнителя (группы): Japan
Аудиокодек: FLAC (*.flac)
Тип рипа: tracks+.cue
Битрейт аудио: lossless
Продолжительность: 00:13:04
Источник (релизер): собственный диск
Наличие сканов в содержимом раздачи: нет
Треклист:
1.タナトス (Thanatos)
2.RED CHERRY MURDER SCENE
3.誰かさんの実験室 (Dareka-san no Jikkenshitsu)

Лог создания рипа

Exact Audio Copy V1.3 from 2. September 2016
EAC extraction logfile from 30. October 2018, 18:38
SAVAGE / Reiketsu na Komoriuta (Tsumi Ban)
Used drive : PIONEER BD-RW BDR-209D Adapter: 1 ID: 0
Read mode : SecureUtilize accurate stream : YesDefeat audio cache : YesMake use of C2 pointers : No
Read offset correction : 667Overread into Lead-In and Lead-Out : NoFill up missing offset samples with silence : YesDelete leading and trailing silent blocks : NoNull samples used in CRC calculations : YesUsed interface : Native Win32 interface for Win NT & 2000Gap handling : Appended to previous track
Used output format : User Defined EncoderSelected bitrate : 896 kBit/sQuality : HighAdd ID3 tag : NoCommand line compressor : C:\Program Files (x86)\Exact Audio Copy\Flac\flac.exeAdditional command line options : -V -8 -T "Genre=%genre%" -T "Artist=%artist%" -T "Title=%title%" -T "Album=%albumtitle%" -T "Date=%year%" -T "Tracknumber=%tracknr%" -T "Comment=%comment%" %source%
TOC of the extracted CD
Track | Start | Length | Start sector | End sector --------------------------------------------------------- 1 | 0:00.00 | 4:23.36 | 0 | 19760 2 | 4:23.36 | 4:19.10 | 19761 | 39195 3 | 8:42.46 | 4:21.29 | 39196 | 58799
Track 1
Filename D:\Flac\Новая папка\01 Thanatos.wav
Pre-gap length 0:00:02.00
Peak level 89.1 % Extraction speed 4.9 X Track quality 100.0 % Test CRC E665B586 Copy CRC E665B586 Copy OK
Track 2
Filename D:\Flac\Новая папка\02 RED CHERRY MURDER SCENE.wav
Peak level 89.1 % Extraction speed 5.5 X Track quality 100.0 % Test CRC A9AA70F4 Copy CRC A9AA70F4 Copy OK
Track 3
Filename D:\Flac\Новая папка\03 Dareka-san no Jikkenshitsu.wav
Peak level 89.1 % Extraction speed 5.9 X Track quality 100.0 % Test CRC B99D66DC Copy CRC B99D66DC Copy OK
No errors occurred
End of status report
==== Log checksum C6E0060466612B9AC72364DBCC08142BEBCE237DD19DE821BF0340D7EEBB99B4 ====

Содержание индексной карты (.CUE)

REM GENRE JRockREM DATE 2017REM DISCID 1A031003REM COMMENT "ExactAudioCopy v1.3"PERFORMER "SAVAGE"TITLE "Reiketsu na Komoriuta (Tsumi Ban)"REM COMPOSER ""FILE "01 Thanatos.wav" WAVE TRACK 01 AUDIO TITLE "Thanatos" PERFORMER "SAVAGE" REM COMPOSER "" INDEX 01 00:00:00FILE "02 RED CHERRY MURDER SCENE.wav" WAVE TRACK 02 AUDIO TITLE "RED CHERRY MURDER SCENE" PERFORMER "SAVAGE" REM COMPOSER "" INDEX 01 00:00:00FILE "03 Dareka-san no Jikkenshitsu.wav" WAVE TRACK 03 AUDIO TITLE "Dareka-san no Jikkenshitsu" PERFORMER "SAVAGE" REM COMPOSER "" INDEX 01 00:00:00


[islamvillage.com]_t_5636987.torrent
Торрент: Зарегистрирован ·  [ 2018-11-05 19:36 ] ·  fd662d8de8983158b68d87a826824dcab4962dd0

17 KB

Статус: проверено
Скачан: 0 раз
Размер: 102 MB
Оценка: 
(Голосов: 0)
Сказали спасибо: 0  Спасибо
Похожие темы
[Профиль]    [ЛС]
Показать сообщения:    
Ответить на тему

Текущее время: Сегодня 03:44

Часовой пояс: GMT + 7



Вы не можете начинать темы
Вы не можете отвечать на сообщения
Вы не можете редактировать свои сообщения
Вы не можете удалять свои сообщения
Вы не можете голосовать в опросах
Вы не можете прикреплять файлы к сообщениям
Вы можете скачивать файлы


50PCS Electrolytic Capacitor 100/220/330/470/680/820/1000/3300uF 25V 16V 10V 50V | Mehcad Brooks | Audi 100 C3 Typ 44 Sport Bj 12/90 mit TÜV jedoch Bremse Defekt Bastlerfahrzeug