(JRock) [CD] SAVAGE - Kaibo Film - 2018, FLAC (tracks+.cue), lossless

Ответить на тему
Статистика раздачи [Обновить пиров]
Размер:  223 MB   |    Зарегистрирован:  2 месяца 11 дней   |    Скачан:  0 раз

Полного источника не было: Никогда

 
   
 
 
 
Автор Сообщение

islamvillage.com

Создавать темы 05-Ноя-2018 19:40

[Цитировать]

SAVAGE / Kaibo Film
Жанр: JRock
Носитель: CD
Страна-производитель диска (релиза): Taiwan
Год издания: 2018
Издатель (лейбл): Reverse Cross Music
Номер по каталогу: SVG-001 3S
Страна исполнителя (группы): Japan
Аудиокодек: FLAC (*.flac)
Тип рипа: tracks+.cue
Битрейт аудио: lossless
Продолжительность: 00:29:28
Источник (релизер): собственный диск
Наличие сканов в содержимом раздачи: нет
Треклист:
1.Caress
2.紅色
3.失格ストロベリー
4.メビウス
5.裏切りの錯乱バニー
6.オーバーキル
7.鍵

Лог создания рипа

Exact Audio Copy V1.3 from 2. September 2016
EAC extraction logfile from 30. October 2018, 19:05
SAVAGE / [Kaibo Film]
Used drive : PIONEER BD-RW BDR-209D Adapter: 1 ID: 0
Read mode : SecureUtilize accurate stream : YesDefeat audio cache : YesMake use of C2 pointers : No
Read offset correction : 667Overread into Lead-In and Lead-Out : NoFill up missing offset samples with silence : YesDelete leading and trailing silent blocks : NoNull samples used in CRC calculations : YesUsed interface : Native Win32 interface for Win NT & 2000Gap handling : Appended to previous track
Used output format : User Defined EncoderSelected bitrate : 896 kBit/sQuality : HighAdd ID3 tag : NoCommand line compressor : C:\Program Files (x86)\Exact Audio Copy\Flac\flac.exeAdditional command line options : -V -8 -T "Genre=%genre%" -T "Artist=%artist%" -T "Title=%title%" -T "Album=%albumtitle%" -T "Date=%year%" -T "Tracknumber=%tracknr%" -T "Comment=%comment%" %source%
TOC of the extracted CD
Track | Start | Length | Start sector | End sector --------------------------------------------------------- 1 | 0:00.00 | 1:44.17 | 0 | 7816 2 | 1:44.17 | 5:25.52 | 7817 | 32243 3 | 7:09.69 | 3:51.07 | 32244 | 49575 4 | 11:01.01 | 4:52.54 | 49576 | 71529 5 | 15:53.55 | 4:25.73 | 71530 | 91477 6 | 20:19.53 | 4:30.47 | 91478 | 111774 7 | 24:50.25 | 4:37.54 | 111775 | 132603
Track 1
Filename D:\Flac\Новая папка\01 Caress.wav
Pre-gap length 0:00:02.00
Peak level 93.3 % Extraction speed 3.1 X Track quality 99.8 % Test CRC 4C6DE24A Copy CRC 4C6DE24A Copy OK
Track 2
Filename D:\Flac\Новая папка\02 紅色.wav
Peak level 93.3 % Extraction speed 4.7 X Track quality 99.9 % Test CRC 9C105CD6 Copy CRC 9C105CD6 Copy OK
Track 3
Filename D:\Flac\Новая папка\03 失格ストロベリー.wav
Peak level 93.3 % Extraction speed 4.9 X Track quality 99.9 % Test CRC 1B460FC1 Copy CRC 1B460FC1 Copy OK
Track 4
Filename D:\Flac\Новая папка\04 メビウス.wav
Peak level 93.3 % Extraction speed 6.1 X Track quality 100.0 % Test CRC 7E0496F3 Copy CRC 7E0496F3 Copy OK
Track 5
Filename D:\Flac\Новая папка\05 裏切りの錯乱バニー.wav
Peak level 93.3 % Extraction speed 6.4 X Track quality 100.0 % Test CRC 1005FA3B Copy CRC 1005FA3B Copy OK
Track 6
Filename D:\Flac\Новая папка\06 オーバーキル.wav
Peak level 93.3 % Extraction speed 6.8 X Track quality 100.0 % Test CRC FDBF2A3A Copy CRC FDBF2A3A Copy OK
Track 7
Filename D:\Flac\Новая папка\07 鍵.wav
Peak level 93.3 % Extraction speed 7.2 X Track quality 100.0 % Test CRC 93E20600 Copy CRC 93E20600 Copy OK
No errors occurred
End of status report
==== Log checksum 6004B693BC45BBABB918EB661D39B31431E3B6DCDC4F20DD95D24EB4C7B87ABC ====

Содержание индексной карты (.CUE)

REM GENRE JRockREM DATE 2018REM DISCID 4906E807REM COMMENT "ExactAudioCopy v1.3"PERFORMER "SAVAGE"TITLE "[Kaibo Film]"REM COMPOSER ""FILE "01 Caress.wav" WAVE TRACK 01 AUDIO TITLE "Caress" PERFORMER "SAVAGE" REM COMPOSER "" INDEX 01 00:00:00FILE "02 ...wav" WAVE TRACK 02 AUDIO TITLE ".." PERFORMER "SAVAGE" REM COMPOSER "" INDEX 01 00:00:00FILE "03 .........wav" WAVE TRACK 03 AUDIO TITLE "........" PERFORMER "SAVAGE" REM COMPOSER "" INDEX 01 00:00:00FILE "04 .....wav" WAVE TRACK 04 AUDIO TITLE "...." PERFORMER "SAVAGE" REM COMPOSER "" INDEX 01 00:00:00FILE "05 ..........wav" WAVE TRACK 05 AUDIO TITLE "........." PERFORMER "SAVAGE" REM COMPOSER "" INDEX 01 00:00:00FILE "06 .......wav" WAVE TRACK 06 AUDIO TITLE "......" PERFORMER "SAVAGE" REM COMPOSER "" INDEX 01 00:00:00FILE "07 ..wav" WAVE TRACK 07 AUDIO TITLE "." PERFORMER "SAVAGE" REM COMPOSER "" INDEX 01 00:00:00


[islamvillage.com]_t_5636983.torrent
Торрент: Зарегистрирован ·  [ 2018-11-05 19:36 ] ·  38c6274a94abb3809d0a5657b8bb57b340024cf4

18 KB

Статус: проверено
Скачан: 0 раз
Размер: 223 MB
Оценка: 
(Голосов: 0)
Сказали спасибо: 0  Спасибо
Похожие темы
[Профиль]    [ЛС]
Показать сообщения:    
Ответить на тему

Текущее время: Сегодня 03:15

Часовой пояс: GMT + 7



Вы не можете начинать темы
Вы не можете отвечать на сообщения
Вы не можете редактировать свои сообщения
Вы не можете удалять свои сообщения
Вы не можете голосовать в опросах
Вы не можете прикреплять файлы к сообщениям
Вы можете скачивать файлы


BlacKkKlansman (2018) 720p WEB-DL 1GB - rrent | Innovation Report- Toms Shoes | Read Essay