(Techno, Tech House) [2xCD] VA - André Galluzzi (Andre Galluzzi) And Marc Miroir - Airport Departure Mix Series Volume 2 - 2003, FLAC (tracks+.cue), lossless

Ответить на тему
Статистика раздачи [Обновить пиров]
Размер:  917 MB   |    Зарегистрирован:  3 месяца 14 дней   |    Скачан:  0 раз

Полного источника не было: Никогда

 
   
 
 
 
Автор Сообщение

islamvillage.com

Создавать темы 06-Ноя-2018 23:50

[Цитировать]

André Galluzzi And Marc Miroir - Airport Departure Mix Series Volume 2
[img=right]http://i3.imageban.ru/out/2018/11/04/18a4b3e943f9e...f9f0c5.jpg[/img]
Жанр: Techno, Tech House
Год выхода диска: 2003
Производитель диска: Airport Records
Аудио кодек: FLAC
Тип рипа: tracks+.cue
Битрейт аудио: lossless
Продолжительность: 02:29:22
Треклист:
CD ONE
01 - Chicks On Speed - We Don't Play (Guitars Chicken Lips Play Dub Version) [09:47]
02 - Robag Wruhme & Wighnomy Brothers - Zundblattchen [03:33]
03 - Joe Zas feat. Hughes Coltman - Astroglide [02:25]
04 - Destillat - Flugrost [05:10]
05 - Ada - Arriba Amoeba [04:58]
06 - James Cotton - I Seek [03:35]
07 - Dub Kult - Bells Of Death [04:33]
08 - Taksi - Mal Was Anderes [06:33]
09 - Joachim Spieth - Strauss [05:04]
10 - Alexander Kowalski - Emtec [03:36]
11 - Kobbe - USA Agression [05:46]
12 - Daze Maxim - Modern Disappearing [03:29]
13 - Reinhard Voigt - Kontakt B Side [05:53]
14 - Paul Jackson - The Push [08:07]
15 - Bangkok Impact - The Floor [03:49]
CD TWO
01 - Mathew Jonson - Typerope [07:03]
02 - Luciano & Quenum - Orange Mistake [08:11]
03 - Basterold - Against Luftwiderstand [06:19]
04 - Dietrich Schoenemann - Starecases (Tony Rohr Remix) [04:49]
05 - John Starlight - Deep Down [03:15]
06 - Namco Keaton - The Past [03:07]
07 - Renato Cohen - Abelhas [05:14]
08 - Marc Miroir - Catwalk [01:54]
09 - DisX3 - Waves 2.1 [04:48]
10 - Matt French - Die Rakete [05:26]
11 - Alexander Kowalski - You Think You Know? [04:02]
12 - Paul Kalkbrenner - Steinbeisser [04:23]
13 - Silversurfer - Welcome To Berlin [05:19]
14 - Kenneth Graham & Casey Hogan - Around You [03:27]
15 - Pascal F.E.O.S. - Heartbeat [05:34]
- -from red (updated 04.11.2018)

logs and sheetsLog EAC CD 1

Exact Audio Copy V1.0 beta 3 from 29. August 2011
EAC extraction logfile from 14. March 2013, 12:38
André Galluzzi / Airport Departure Mix Series Volume 2 CD1
Used drive : ASUS DRW-24B5ST Adapter: 4 ID: 0
Read mode : SecureUtilize accurate stream : YesDefeat audio cache : YesMake use of C2 pointers : No
Read offset correction : 6Overread into Lead-In and Lead-Out : NoFill up missing offset samples with silence : YesDelete leading and trailing silent blocks : NoNull samples used in CRC calculations : YesUsed interface : Native Win32 interface for Win NT & 2000Gap handling : Appended to previous track
Used output format : User Defined EncoderSelected bitrate : 896 kBit/sQuality : HighAdd ID3 tag : NoCommand line compressor : C:\Program Files (x86)\Exact Audio Copy\Flac\flac.exeAdditional command line options : -8 -V -T "ARTIST=%artist%" -T "TITLE=%title%" -T "ALBUM=%albumtitle%" -T "DATE=%year%" -T "TRACKNUMBER=%tracknr%" -T "GENRE=%genre%" -T "PERFORMER=%albuminterpret%" -T "COMPOSER=%composer%" %haslyrics%--tag-from-file=LYRICS="%lyricsfile%"%haslyrics% -T "ALBUMARTIST=%albumartist%" -T "DISCNUMBER=%cdnumber%" -T "TOTALDISCS=%totalcds%" -T "TOTALTRACKS=%numtracks%" -T "COMMENT=%comment%" %source% -o %dest%
TOC of the extracted CD
Track | Start | Length | Start sector | End sector --------------------------------------------------------- 1 | 0:00.00 | 9:47.32 | 0 | 44056 2 | 9:47.32 | 3:33.00 | 44057 | 60031 3 | 13:20.32 | 2:25.25 | 60032 | 70931 4 | 15:45.57 | 5:10.06 | 70932 | 94187 5 | 20:55.63 | 4:58.32 | 94188 | 116569 6 | 25:54.20 | 3:35.65 | 116570 | 132759 7 | 29:30.10 | 4:33.05 | 132760 | 153239 8 | 34:03.15 | 6:33.25 | 153240 | 182739 9 | 40:36.40 | 5:04.46 | 182740 | 205585 10 | 45:41.11 | 3:36.03 | 205586 | 221788 11 | 49:17.14 | 5:46.28 | 221789 | 247766 12 | 55:03.42 | 3:29.19 | 247767 | 263460 13 | 58:32.61 | 5:53.14 | 263461 | 289949 14 | 64:26.00 | 8:07.41 | 289950 | 326515 15 | 72:33.41 | 3:49.26 | 326516 | 343716
Track 1
Filename D:\MUSIC\VA - Airport Departure Mix Series Volume 2 (2003) [FLAC]\1-01. Chicks On Speed - We Don't Play (Guitars Chicken Lips Play Dub Version).wav
Pre-gap length 0:00:02.00
Peak level 97.7 % Extraction speed 6.7 X Track quality 100.0 % Test CRC 9668AE10 Copy CRC 9668AE10 Accurately ripped (confidence 1) [CC922317] (AR v1) Copy OK
Track 2
Filename D:\MUSIC\VA - Airport Departure Mix Series Volume 2 (2003) [FLAC]\1-02. Wighnomy Brothers & Robag Wruhme - Zündblättchen.wav
Peak level 97.7 % Extraction speed 6.8 X Track quality 100.0 % Test CRC 9388F47C Copy CRC 9388F47C Accurately ripped (confidence 1) [0C766425] (AR v1) Copy OK
Track 3
Filename D:\MUSIC\VA - Airport Departure Mix Series Volume 2 (2003) [FLAC]\1-03. Joe Zas - Astrogilde.wav
Peak level 97.7 % Extraction speed 6.7 X Track quality 100.0 % Test CRC 2CBC6C3F Copy CRC 2CBC6C3F Accurately ripped (confidence 1) [4851A579] (AR v1) Copy OK
Track 4
Filename D:\MUSIC\VA - Airport Departure Mix Series Volume 2 (2003) [FLAC]\1-04. Destillat - Flugrost.wav
Peak level 87.3 % Extraction speed 6.8 X Track quality 99.9 % Test CRC C177EB90 Copy CRC C177EB90 Accurately ripped (confidence 1) [98B94AED] (AR v1) Copy OK
Track 5
Filename D:\MUSIC\VA - Airport Departure Mix Series Volume 2 (2003) [FLAC]\1-05. Ada - Arriba Amoeba.wav
Peak level 97.7 % Extraction speed 8.4 X Track quality 100.0 % Test CRC 82260B98 Copy CRC 82260B98 Accurately ripped (confidence 1) [7306A1D7] (AR v1) Copy OK
Track 6
Filename D:\MUSIC\VA - Airport Departure Mix Series Volume 2 (2003) [FLAC]\1-06. James T. Cotton - I Seek.wav
Peak level 97.7 % Extraction speed 8.4 X Track quality 100.0 % Test CRC 77D9AADC Copy CRC 77D9AADC Accurately ripped (confidence 1) [B443752B] (AR v1) Copy OK
Track 7
Filename D:\MUSIC\VA - Airport Departure Mix Series Volume 2 (2003) [FLAC]\1-07. Dub Kult - Bells Of Death.wav
Peak level 97.7 % Extraction speed 9.1 X Track quality 100.0 % Test CRC 9B022E6D Copy CRC 9B022E6D Accurately ripped (confidence 1) [D514CBBA] (AR v1) Copy OK
Track 8
Filename D:\MUSIC\VA - Airport Departure Mix Series Volume 2 (2003) [FLAC]\1-08. Taksi - Mal Was Anderes.wav
Peak level 97.7 % Extraction speed 9.9 X Track quality 100.0 % Test CRC E8485BFE Copy CRC E8485BFE Accurately ripped (confidence 1) [AE1A76C1] (AR v1) Copy OK
Track 9
Filename D:\MUSIC\VA - Airport Departure Mix Series Volume 2 (2003) [FLAC]\1-09. Joachim Spieth - Strauss.wav
Peak level 92.2 % Extraction speed 10.2 X Track quality 100.0 % Test CRC 2783B34D Copy CRC 2783B34D Accurately ripped (confidence 1) [80A2AD2E] (AR v1) Copy OK
Track 10
Filename D:\MUSIC\VA - Airport Departure Mix Series Volume 2 (2003) [FLAC]\1-10. Alexander Kowalski - Emtec.wav
Peak level 97.7 % Extraction speed 7.7 X Track quality 100.0 % Test CRC D84E742B Copy CRC D84E742B Accurately ripped (confidence 1) [2F9B64C6] (AR v1) Copy OK
Track 11
Filename D:\MUSIC\VA - Airport Departure Mix Series Volume 2 (2003) [FLAC]\1-11. Kobbe - USA Agression.wav
Peak level 97.7 % Extraction speed 11.0 X Track quality 100.0 % Test CRC 271CD007 Copy CRC 271CD007 Accurately ripped (confidence 1) [F692B074] (AR v1) Copy OK
Track 12
Filename D:\MUSIC\VA - Airport Departure Mix Series Volume 2 (2003) [FLAC]\1-12. Daze Maxim - Modern Disappearing.wav
Peak level 97.7 % Extraction speed 10.6 X Track quality 100.0 % Test CRC F77B0598 Copy CRC F77B0598 Accurately ripped (confidence 1) [560B1B72] (AR v1) Copy OK
Track 13
Filename D:\MUSIC\VA - Airport Departure Mix Series Volume 2 (2003) [FLAC]\1-13. Reinhard Voigt - Kontakt B-Side.wav
Peak level 97.7 % Extraction speed 11.7 X Track quality 100.0 % Test CRC 21A965A4 Copy CRC 21A965A4 Accurately ripped (confidence 1) [BB1C6B59] (AR v1) Copy OK
Track 14
Filename D:\MUSIC\VA - Airport Departure Mix Series Volume 2 (2003) [FLAC]\1-14. Paul Jackson - The Push.wav
Peak level 97.7 % Extraction speed 12.5 X Track quality 100.0 % Test CRC 71AB9B2D Copy CRC 71AB9B2D Accurately ripped (confidence 1) [FA4A28B8] (AR v1) Copy OK
Track 15
Filename D:\MUSIC\VA - Airport Departure Mix Series Volume 2 (2003) [FLAC]\1-15. Bangkok Impact - The Floor.wav
Peak level 97.7 % Extraction speed 11.9 X Track quality 100.0 % Test CRC 0DE0426F Copy CRC 0DE0426F Accurately ripped (confidence 1) [02C184B5] (AR v1) Copy OK
All tracks accurately ripped
No errors occurred
End of status report
---- CUETools DB Plugin V2.1.3
[CTDB TOCID: UP95SNISkPnIGU7KPD4FsFp.BG0-] disk not present in database, Submit result: UP95SNISkPnIGU7KPD4FsFp.BG0- has been uploaded
==== Log checksum 5B530D030B22511364CA56C7DCB563D4D1B7A5B2972BE4702B826859851F2C20 ====

cue CD 1

REM GENRE "Techno, Tech House"REM DATE 2003REM DISCID EE11E60FREM COMMENT "ExactAudioCopy v1.0b3"PERFORMER "Andre Galluzzi"TITLE "Airport Departure Mix Series Volume 2 CD1"FILE "1-01. Chicks On Speed - We Don't Play (Guitars Chicken Lips Play Dub Version).wav" WAVE TRACK 01 AUDIO TITLE "We Don't Play (Guitars Chicken Lips Play Dub Version)" PERFORMER "Chicks On Speed" INDEX 01 00:00:00FILE "1-02. Wighnomy Brothers & Robag Wruhme - Zundblattchen.wav" WAVE TRACK 02 AUDIO TITLE "Zundblattchen" PERFORMER "Wighnomy Brothers & Robag Wruhme" INDEX 01 00:00:00FILE "1-03. Joe Zas - Astrogilde.wav" WAVE TRACK 03 AUDIO TITLE "Astrogilde" PERFORMER "Joe Zas" INDEX 01 00:00:00FILE "1-04. Destillat - Flugrost.wav" WAVE TRACK 04 AUDIO TITLE "Flugrost" PERFORMER "Destillat" INDEX 01 00:00:00FILE "1-05. Ada - Arriba Amoeba.wav" WAVE TRACK 05 AUDIO TITLE "Arriba Amoeba" PERFORMER "Ada" INDEX 01 00:00:00FILE "1-06. James T. Cotton - I Seek.wav" WAVE TRACK 06 AUDIO TITLE "I Seek" PERFORMER "James T. Cotton" INDEX 01 00:00:00FILE "1-07. Dub Kult - Bells Of Death.wav" WAVE TRACK 07 AUDIO TITLE "Bells Of Death" PERFORMER "Dub Kult" INDEX 01 00:00:00FILE "1-08. Taksi - Mal Was Anderes.wav" WAVE TRACK 08 AUDIO TITLE "Mal Was Anderes" PERFORMER "Taksi" INDEX 01 00:00:00FILE "1-09. Joachim Spieth - Strauss.wav" WAVE TRACK 09 AUDIO TITLE "Strauss" PERFORMER "Joachim Spieth" INDEX 01 00:00:00FILE "1-10. Alexander Kowalski - Emtec.wav" WAVE TRACK 10 AUDIO TITLE "Emtec" PERFORMER "Alexander Kowalski" INDEX 01 00:00:00FILE "1-11. Kobbe - USA Agression.wav" WAVE TRACK 11 AUDIO TITLE "USA Agression" PERFORMER "Kobbe" INDEX 01 00:00:00FILE "1-12. Daze Maxim - Modern Disappearing.wav" WAVE TRACK 12 AUDIO TITLE "Modern Disappearing" PERFORMER "Daze Maxim" INDEX 01 00:00:00FILE "1-13. Reinhard Voigt - Kontakt B-Side.wav" WAVE TRACK 13 AUDIO TITLE "Kontakt B-Side" PERFORMER "Reinhard Voigt" INDEX 01 00:00:00FILE "1-14. Paul Jackson - The Push.wav" WAVE TRACK 14 AUDIO TITLE "The Push" PERFORMER "Paul Jackson" INDEX 01 00:00:00FILE "1-15. Bangkok Impact - The Floor.wav" WAVE TRACK 15 AUDIO TITLE "The Floor" PERFORMER "Bangkok Impact" INDEX 01 00:00:00

Log EAC CD 2

Exact Audio Copy V1.0 beta 3 from 29. August 2011
EAC extraction logfile from 14. March 2013, 15:00
Marc Miroir / Airport Departure Mix Series Volume 2 CD2
Used drive : ASUS DRW-24B5ST Adapter: 4 ID: 0
Read mode : SecureUtilize accurate stream : YesDefeat audio cache : YesMake use of C2 pointers : No
Read offset correction : 6Overread into Lead-In and Lead-Out : NoFill up missing offset samples with silence : YesDelete leading and trailing silent blocks : NoNull samples used in CRC calculations : YesUsed interface : Native Win32 interface for Win NT & 2000Gap handling : Appended to previous track
Used output format : User Defined EncoderSelected bitrate : 896 kBit/sQuality : HighAdd ID3 tag : NoCommand line compressor : C:\Program Files (x86)\Exact Audio Copy\Flac\flac.exeAdditional command line options : -8 -V -T "ARTIST=%artist%" -T "TITLE=%title%" -T "ALBUM=%albumtitle%" -T "DATE=%year%" -T "TRACKNUMBER=%tracknr%" -T "GENRE=%genre%" -T "PERFORMER=%albuminterpret%" -T "COMPOSER=%composer%" %haslyrics%--tag-from-file=LYRICS="%lyricsfile%"%haslyrics% -T "ALBUMARTIST=%albumartist%" -T "DISCNUMBER=%cdnumber%" -T "TOTALDISCS=%totalcds%" -T "TOTALTRACKS=%numtracks%" -T "COMMENT=%comment%" %source% -o %dest%
TOC of the extracted CD
Track | Start | Length | Start sector | End sector --------------------------------------------------------- 1 | 0:00.00 | 7:03.11 | 0 | 31735 2 | 7:03.11 | 8:11.32 | 31736 | 68592 3 | 15:14.43 | 6:19.59 | 68593 | 97076 4 | 21:34.27 | 4:49.59 | 97077 | 118810 5 | 26:24.11 | 3:15.08 | 118811 | 133443 6 | 29:39.19 | 3:07.55 | 133444 | 147523 7 | 32:46.74 | 5:14.59 | 147524 | 171132 8 | 38:01.58 | 1:54.00 | 171133 | 179682 9 | 39:55.58 | 4:48.61 | 179683 | 201343 10 | 44:44.44 | 5:26.48 | 201344 | 225841 11 | 50:11.17 | 4:02.66 | 225842 | 244057 12 | 54:14.08 | 4:23.72 | 244058 | 263854 13 | 58:38.05 | 5:19.27 | 263855 | 287806 14 | 63:57.32 | 3:27.37 | 287807 | 303368 15 | 67:24.69 | 5:34.38 | 303369 | 328456
Track 1
Filename D:\MUSIC\VA - Airport Departure Mix Series Volume 2 (2003) [FLAC]\2-01. Mathew Jonson - Typerope.wav
Pre-gap length 0:00:02.00
Peak level 98.8 % Extraction speed 6.2 X Track quality 100.0 % Test CRC 7A716902 Copy CRC 7A716902 Accurately ripped (confidence 1) [DC3846D9] (AR v1) Copy OK
Track 2
Filename D:\MUSIC\VA - Airport Departure Mix Series Volume 2 (2003) [FLAC]\2-02. Luciano & Quenum - Orange Mistake.wav
Peak level 98.8 % Extraction speed 7.4 X Track quality 100.0 % Test CRC 72D6FEF9 Copy CRC 72D6FEF9 Accurately ripped (confidence 1) [7AA5BFDE] (AR v1) Copy OK
Track 3
Filename D:\MUSIC\VA - Airport Departure Mix Series Volume 2 (2003) [FLAC]\2-03. Basteroid - Against Luftwiderstand.wav
Peak level 89.7 % Extraction speed 7.0 X Track quality 99.9 % Test CRC F427E9ED Copy CRC F427E9ED Accurately ripped (confidence 1) [8CF29EDC] (AR v1) Copy OK
Track 4
Filename D:\MUSIC\VA - Airport Departure Mix Series Volume 2 (2003) [FLAC]\2-04. Dietrich Schoenemann - Starecases (Tony Rohr Remix).wav
Peak level 98.8 % Extraction speed 8.4 X Track quality 100.0 % Test CRC 85D1FB9F Copy CRC 85D1FB9F Accurately ripped (confidence 1) [82CD9E53] (AR v1) Copy OK
Track 5
Filename D:\MUSIC\VA - Airport Departure Mix Series Volume 2 (2003) [FLAC]\2-05. John Starlight - Deep Down.wav
Peak level 98.8 % Extraction speed 8.3 X Track quality 100.0 % Test CRC BCBE7B06 Copy CRC BCBE7B06 Accurately ripped (confidence 1) [BBDB6C18] (AR v1) Copy OK
Track 6
Filename D:\MUSIC\VA - Airport Departure Mix Series Volume 2 (2003) [FLAC]\2-06. Namco Keaton - The Past.wav
Peak level 98.8 % Extraction speed 8.5 X Track quality 100.0 % Test CRC 562B58EC Copy CRC 562B58EC Accurately ripped (confidence 1) [403E1184] (AR v1) Copy OK
Track 7
Filename D:\MUSIC\VA - Airport Departure Mix Series Volume 2 (2003) [FLAC]\2-07. Renato Cohen - Abelhas.wav
Peak level 98.8 % Extraction speed 9.5 X Track quality 100.0 % Test CRC 8EA2499E Copy CRC 8EA2499E Accurately ripped (confidence 1) [19261656] (AR v1) Copy OK
Track 8
Filename D:\MUSIC\VA - Airport Departure Mix Series Volume 2 (2003) [FLAC]\2-08. Marc Miroir - Catwalk.wav
Peak level 94.0 % Extraction speed 8.1 X Track quality 100.0 % Test CRC B3430421 Copy CRC B3430421 Accurately ripped (confidence 1) [50F39016] (AR v1) Copy OK
Track 9
Filename D:\MUSIC\VA - Airport Departure Mix Series Volume 2 (2003) [FLAC]\2-09. DisX3 - Waves 2.1.wav
Peak level 97.5 % Extraction speed 8.3 X Track quality 99.9 % Test CRC 5CD3EDD9 Copy CRC 5CD3EDD9 Accurately ripped (confidence 1) [4AAEA93D] (AR v1) Copy OK
Track 10
Filename D:\MUSIC\VA - Airport Departure Mix Series Volume 2 (2003) [FLAC]\2-10. Matt French - Die Rakete.wav
Peak level 98.8 % Extraction speed 8.9 X Track quality 99.9 % Test CRC F180BBEB Copy CRC F180BBEB Accurately ripped (confidence 1) [249DDC18] (AR v1) Copy OK
Track 11
Filename D:\MUSIC\VA - Airport Departure Mix Series Volume 2 (2003) [FLAC]\2-11. Alexander Kowalski - You Think You Know.wav
Peak level 98.8 % Extraction speed 10.4 X Track quality 100.0 % Test CRC 0B014165 Copy CRC 0B014165 Accurately ripped (confidence 1) [2B28EF9D] (AR v1) Copy OK
Track 12
Filename D:\MUSIC\VA - Airport Departure Mix Series Volume 2 (2003) [FLAC]\2-12. Paul Kalkbrenner - Steinbeisser.wav
Peak level 98.8 % Extraction speed 8.9 X Track quality 99.9 % Test CRC A84F9AF9 Copy CRC A84F9AF9 Accurately ripped (confidence 1) [C0F35B9C] (AR v1) Copy OK
Track 13
Filename D:\MUSIC\VA - Airport Departure Mix Series Volume 2 (2003) [FLAC]\2-13. Silversurfer - Welcome To Berlin.wav
Peak level 98.8 % Extraction speed 9.6 X Track quality 99.9 % Test CRC B1FD8E49 Copy CRC B1FD8E49 Accurately ripped (confidence 1) [C442245E] (AR v1) Copy OK
Track 14
Filename D:\MUSIC\VA - Airport Departure Mix Series Volume 2 (2003) [FLAC]\2-14. Kenneth Graham & Casey Hogan - Around You.wav
Peak level 98.8 % Extraction speed 8.7 X Track quality 99.9 % Test CRC 7FF8B276 Copy CRC 7FF8B276 Accurately ripped (confidence 1) [7D311E4D] (AR v1) Copy OK
Track 15
Filename D:\MUSIC\VA - Airport Departure Mix Series Volume 2 (2003) [FLAC]\2-15. Pascal F.E.O.S. - Heartbeat.wav
Peak level 98.8 % Extraction speed 11.9 X Track quality 100.0 % Test CRC E81D7EC3 Copy CRC E81D7EC3 Accurately ripped (confidence 1) [B938F000] (AR v1) Copy OK
All tracks accurately ripped
No errors occurred
End of status report
---- CUETools DB Plugin V2.1.3
[CTDB TOCID: fRB7.4SxFetBd3.yphPJpjM_Lkg-] disk not present in database, Submit result: fRB7.4SxFetBd3.yphPJpjM_Lkg- has been uploaded
==== Log checksum FAB4AF38476E94FC0E846B342FC273B9559D50EEE91623833B6D407D3DC9202D ====

cue CD 2

REM GENRE "Techno, Tech House"REM DATE 2003REM DISCID EC111B0FREM COMMENT "ExactAudioCopy v1.0b3"PERFORMER "Marc Miroir"TITLE "Airport Departure Mix Series Volume 2 CD2"FILE "2-01. Mathew Jonson - Typerope.wav" WAVE TRACK 01 AUDIO TITLE "Typerope" PERFORMER "Mathew Jonson" INDEX 01 00:00:00FILE "2-02. Luciano & Quenum - Orange Mistake.wav" WAVE TRACK 02 AUDIO TITLE "Orange Mistake" PERFORMER "Luciano & Quenum" INDEX 01 00:00:00FILE "2-03. Basteroid - Against Luftwiderstand.wav" WAVE TRACK 03 AUDIO TITLE "Against Luftwiderstand" PERFORMER "Basteroid" INDEX 01 00:00:00FILE "2-04. Dietrich Schoenemann - Starecases (Tony Rohr Remix).wav" WAVE TRACK 04 AUDIO TITLE "Starecases (Tony Rohr Remix)" PERFORMER "Dietrich Schoenemann" INDEX 01 00:00:00FILE "2-05. John Starlight - Deep Down.wav" WAVE TRACK 05 AUDIO TITLE "Deep Down" PERFORMER "John Starlight" INDEX 01 00:00:00FILE "2-06. Namco Keaton - The Past.wav" WAVE TRACK 06 AUDIO TITLE "The Past" PERFORMER "Namco Keaton" INDEX 01 00:00:00FILE "2-07. Renato Cohen - Abelhas.wav" WAVE TRACK 07 AUDIO TITLE "Abelhas" PERFORMER "Renato Cohen" INDEX 01 00:00:00FILE "2-08. Marc Miroir - Catwalk.wav" WAVE TRACK 08 AUDIO TITLE "Catwalk" PERFORMER "Marc Miroir" INDEX 01 00:00:00FILE "2-09. DisX3 - Waves 2.1.wav" WAVE TRACK 09 AUDIO TITLE "Waves 2.1" PERFORMER "DisX3" INDEX 01 00:00:00FILE "2-10. Matt French - Die Rakete.wav" WAVE TRACK 10 AUDIO TITLE "Die Rakete" PERFORMER "Matt French" INDEX 01 00:00:00FILE "2-11. Alexander Kowalski - You Think You Know.wav" WAVE TRACK 11 AUDIO TITLE "You Think You Know?" PERFORMER "Alexander Kowalski" INDEX 01 00:00:00FILE "2-12. Paul Kalkbrenner - Steinbeisser.wav" WAVE TRACK 12 AUDIO TITLE "Steinbeisser" PERFORMER "Paul Kalkbrenner" INDEX 01 00:00:00FILE "2-13. Silversurfer - Welcome To Berlin.wav" WAVE TRACK 13 AUDIO TITLE "Welcome To Berlin" PERFORMER "Silversurfer" INDEX 01 00:00:00FILE "2-14. Kenneth Graham & Casey Hogan - Around You.wav" WAVE TRACK 14 AUDIO TITLE "Around You" PERFORMER "Kenneth Graham & Casey Hogan" INDEX 01 00:00:00FILE "2-15. Pascal F.E.O.S. - Heartbeat.wav" WAVE TRACK 15 AUDIO TITLE "Heartbeat" PERFORMER "Pascal F.E.O.S." INDEX 01 00:00:00


[islamvillage.com]_t_3098954.torrent
Торрент: Зарегистрирован ·  [ 2018-11-06 23:47 ] ·  2c1ae036141ad4369f1d094ceadcd0dbb62bee77

21 KB

Статус: проверено
Скачан: 0 раз
Размер: 917 MB
Оценка: 
(Голосов: 0)
Сказали спасибо: 0  Спасибо
Похожие темы
[Профиль]    [ЛС]
Показать сообщения:    
Ответить на тему

Текущее время: Сегодня 22:50

Часовой пояс: GMT + 7



Вы не можете начинать темы
Вы не можете отвечать на сообщения
Вы не можете редактировать свои сообщения
Вы не можете удалять свои сообщения
Вы не можете голосовать в опросах
Вы не можете прикреплять файлы к сообщениям
Вы можете скачивать файлы


The Twilight Zone – Unbekannte Dimensionen | Golem Hearts | Seiken Tsukai no World Break