(Ambient | Techno) [WEB] Chogori - Heat Haze - 2018, FLAC (tracks), lossless

Ответить на тему
Статистика раздачи [Обновить пиров]
Размер:  188 MB   |    Зарегистрирован:  2 месяца 11 дней   |    Скачан:  0 раз

Полного источника не было: Никогда

 
   
 
 
 
Автор Сообщение

islamvillage.com

Создавать темы 06-Ноя-2018 23:50

[Цитировать]



Chogori

Heat Haze





• Жанр: Ambient | Techno
• Носитель: WEB
• Год издания: 2018
• Издатель: Modularfield
• Страна: Germany
• Аудиокодек: FLAC (*.flac)
• Тип рипа: tracks
• Продолжительность: 00:38:06
• Источник (спасибо): NBMus
• WEB ссылка
• Наличие сканов: front

01 - Clarks (00:05:16)
02 - Pour Le Machiniste (00:06:50)
03 - Heat Haze (00:06:31)
04 - Ace Roller (00:05:25)
05 - Nadirion (00:04:15)
06 - Board (00:04:21)
07 - Ferro Carril (00:05:26)

-
-

• Замер динамического диапазона •

foobar2000 1.3.9 / Замер динамического диапазона (DR) 1.1.1Дата отчёта: 2018-10-22 15:23:21
--------------------------------------------------------------------------------Анализ: Chogori / Heat Haze--------------------------------------------------------------------------------
DR Пики RMS Продолжительность трека--------------------------------------------------------------------------------DR9 -0.40 дБ -11.50 дБ 5:16 1-ClarksDR9 -0.54 дБ -10.97 дБ 6:51 2-Pour le MachinisteDR9 -0.62 дБ -12.20 дБ 6:31 3-Heat HazeDR10 -0.51 дБ -12.34 дБ 5:25 4-Ace RollerDR11 -1.23 дБ -14.99 дБ 4:15 5-NadirionDR9 -0.54 дБ -12.44 дБ 4:22 6-BoardDR10 -0.54 дБ -12.63 дБ 5:26 7-Ferro Carril--------------------------------------------------------------------------------
Количество треков: 7Реальные значения DR: DR9
Частота: 44100 ГцКаналов: 2Разрядность: 16Битрейт: 614 кбит/сКодек: FLAC================================================================================
-

• Лог проверки качества •

-----------------------
DON'T MODIFY THIS FILE
-----------------------
PERFORMER: auCDtect Task Manager, ver. 1.5.1RC3 build 1.5.1.4Copyright (c) 2008-2010 y-soft. All rights reservedhttp://y-soft.org
ANALYZER: auCDtect: CD records authenticity detector, version 0.8.2Copyright (c) 2004 Oleg Berngardt. All rights reserved.Copyright (c) 2004 Alexander Djourik. All rights reserved.
FILE: Chogori-07.flac Size: 25297239 Hash: C0029B8232F01B9A9B44C2E96BBC551A Accuracy: -m0 Conclusion: CDDA 100% Signature: 0355B69196F7A6837292D846D03B37B7D8D01768FILE: Chogori-06.flac Size: 24928132 Hash: C1118FAAF0093D630F0A1EA78EE1E2C6 Accuracy: -m0 Conclusion: CDDA 100% Signature: 941A9EEFE188BCA090D0EE37A6B5E2441070DA5FFILE: Chogori-05.flac Size: 19296370 Hash: FD6F2CF9252371CDCC34C2462418B496 Accuracy: -m0 Conclusion: MPEG 93% Signature: A94C8BC81541AD5C1D5BA1F9C673555BC53A4072FILE: Chogori-04.flac Size: 28286847 Hash: C426DC38CD5BFF81F74C956427E5E76F Accuracy: -m0 Conclusion: MPEG 95% Signature: 2ACF4DEAC07AEB76BE1FAF6A0907FC5417F1E0F0FILE: Chogori-03.flac Size: 37219011 Hash: E2E8F25C6C6473724E57FE5402E2ABF3 Accuracy: -m0 Conclusion: CDDA 85% Signature: BB2951D399D3F539A3C4E4438C4D7B4AFF7A7DBFFILE: Chogori-02.flac Size: 37588592 Hash: 7EC9B7502276A677E1ED7C93BD33F024 Accuracy: -m0 Conclusion: CDDA 100% Signature: 85C1DA8C533260E7EB9728DA701EFC1928F1783EFILE: Chogori-01.flac Size: 24086215 Hash: 7A4170E4030B17A975E9CAD7DC7D20E1 Accuracy: -m0 Conclusion: CDDA 100% Signature: C3FBBF0DFEF1ECF83BAE1F36885A6266FAC72D4D
--[img]http://i99.fastpic.ru/big/2018/0820/c4/d7d2761493bbbac411f16cce5e5f30c4.png[/img]


[islamvillage.com]_t_5636362.torrent
Торрент: Зарегистрирован ·  [ 2018-11-06 23:47 ] ·  aee83439bc181a1d2645cbb8d6be188d5016ed47

16 KB

Статус: проверено
Скачан: 0 раз
Размер: 188 MB
Оценка: 
(Голосов: 0)
Сказали спасибо: 0  Спасибо
Похожие темы
[Профиль]    [ЛС]
Показать сообщения:    
Ответить на тему

Текущее время: Сегодня 22:25

Часовой пояс: GMT + 7



Вы не можете начинать темы
Вы не можете отвечать на сообщения
Вы не можете редактировать свои сообщения
Вы не можете удалять свои сообщения
Вы не можете голосовать в опросах
Вы не можете прикреплять файлы к сообщениям
Вы можете скачивать файлы


Mega Pkw Anhänger 1300kg Neu!!! 100km/h | Full Version | Vibrador Consolador Estimulador Clitoris 30 Ritmos Mas Placer