(Rap) Nine - King - 2018, ALAC (tracks+.cue), lossless

Ответить на тему
Статистика раздачи [Обновить пиров]
Размер:  377 MB   |    Зарегистрирован:  2 месяца 9 дней   |    Скачан:  0 раз

Полного источника не было: Никогда

 
   
 
 
 
Автор Сообщение

islamvillage.com

Создавать темы 07-Ноя-2018 20:53

[Цитировать]

Nine / King
Жанр: Rap
Страна-производитель диска: USA & Europe
Год издания: 2018
Издатель (лейбл): Goon MuSick
Номер по каталогу: GM18-032
Страна исполнителя (группы): USA
Аудио кодек: ALAC (*.m4a)
Тип рипа: tracks+.cue
Программа-конвертер: Собственный рип (EAC)
Битрейт аудио: lossless
Продолжительность: 00:46:17
Наличие сканов в содержимом раздачи: да
Тексты: вшиты частично (только для треков "The revenant", "Pull up", "Belafonte" есть тексты)
Источник : Собственный диск
Треклист:
01. The revenant
02. Pull up
03. Killmongor
04. Hilfiger
05. Tremendous
06. Belafonte ft. Conway the Machine
07. Medusa
08. Breathe ft. Kool G Rap & Smoothe Da Hustler
09. I am
10. Pita roll
11. Jump Em ft. Ruste Juxx
12. Champion ft. Chris Rivers
13. King

Лог создания рипа

Exact Audio Copy V1.3 from 2. September 2016
Отчёт EAC об извлечении, выполненном 30. октября 2018, 8:56
Nine / King
Дисковод: HL-DT-STDVDRAM GP60NB50 Adapter: 1 ID: 0
Режим чтения : ДостоверностьИспользование точного потока : ДаОтключение кэша аудио : ДаИспользование указателей C2 : Нет
Коррекция смещения при чтении : 6Способность читать области Lead-in и Lead-out : НетЗаполнение пропущенных сэмплов тишиной : ДаУдаление блоков с тишиной в начале и конце : НетПри вычислениях CRC использовались нулевые сэмплы : ДаИнтерфейс : Встроенный Win32-интерфейс для Win NT/2000Обработка зазоров : Добавлено к предыдущему треку
Выходной формат : Пользовательский кодировщикВыбранный битрейт : 128 kBit/sКачество : ВысокийДобавление ID3-тега : НетУтилита сжатия : C:\Users\Антон\Downloads\qaac_2.66\qaac_2.66\x64\refalac64.exeДополнительные параметры : -s --ignorelength --artist "%artist%" --title "%title%" --album "%albumtitle%" --date "%year%" --track "%tracknr%" --genre "%genre%" -o %dest% %source%
TOC извлечённого CD
Трек | Старт | Длительность | Начальный сектор | Конечный сектор --------------------------------------------------------------------- 1 | 0:00.00 | 3:12.53 | 0 | 14452 2 | 3:12.53 | 3:09.05 | 14453 | 28632 3 | 6:21.58 | 5:01.61 | 28633 | 51268 4 | 11:23.44 | 2:35.37 | 51269 | 62930 5 | 13:59.06 | 3:08.69 | 62931 | 77099 6 | 17:08.00 | 3:52.41 | 77100 | 94540 7 | 21:00.41 | 3:53.70 | 94541 | 112085 8 | 24:54.36 | 4:52.61 | 112086 | 134046 9 | 29:47.22 | 3:55.29 | 134047 | 151700 10 | 33:42.51 | 3:29.38 | 151701 | 167413 11 | 37:12.14 | 3:22.61 | 167414 | 182624 12 | 40:35.00 | 3:08.23 | 182625 | 196747 13 | 43:43.23 | 2:33.31 | 196748 | 208253
Трек 1
Имя файла C:\Users\Антон\Downloads\Музыка\Nine - King (2018)\01 The revenant.wav
Длина предзазора 0:00:02.00
Пиковый уровень 100.0 % Скорость извлечения 1.1 X Качество трека 100.0 % CRC теста 1E9E0942 CRC копии 1E9E0942 Трек не обнаружен в базе AccurateRip Копирование... OK
Трек 2
Имя файла C:\Users\Антон\Downloads\Музыка\Nine - King (2018)\02 Pull up.wav
Пиковый уровень 100.0 % Скорость извлечения 1.2 X Качество трека 100.0 % CRC теста E9260CA7 CRC копии E9260CA7 Трек не обнаружен в базе AccurateRip Копирование... OK
Трек 3
Имя файла C:\Users\Антон\Downloads\Музыка\Nine - King (2018)\03 Killmongor.wav
Пиковый уровень 100.0 % Скорость извлечения 1.4 X Качество трека 100.0 % CRC теста 3E7DEA1D CRC копии 3E7DEA1D Трек не обнаружен в базе AccurateRip Копирование... OK
Трек 4
Имя файла C:\Users\Антон\Downloads\Музыка\Nine - King (2018)\04 Hilfiger.wav
Пиковый уровень 100.0 % Скорость извлечения 1.3 X Качество трека 100.0 % CRC теста 532C638D CRC копии 532C638D Трек не обнаружен в базе AccurateRip Копирование... OK
Трек 5
Имя файла C:\Users\Антон\Downloads\Музыка\Nine - King (2018)\05 Tremendous.wav
Пиковый уровень 97.7 % Скорость извлечения 1.2 X Качество трека 99.9 % CRC теста AE24BD56 CRC копии AE24BD56 Трек не обнаружен в базе AccurateRip Копирование... OK
Трек 6
Имя файла C:\Users\Антон\Downloads\Музыка\Nine - King (2018)\06 Belafonte ft. Conway The Machine.wav
Пиковый уровень 100.0 % Скорость извлечения 1.6 X Качество трека 100.0 % CRC теста CE706537 CRC копии CE706537 Трек не обнаружен в базе AccurateRip Копирование... OK
Трек 7
Имя файла C:\Users\Антон\Downloads\Музыка\Nine - King (2018)\07 Medusa.wav
Пиковый уровень 100.0 % Скорость извлечения 1.7 X Качество трека 100.0 % CRC теста C421AFC4 CRC копии C421AFC4 Трек не обнаружен в базе AccurateRip Копирование... OK
Трек 8
Имя файла C:\Users\Антон\Downloads\Музыка\Nine - King (2018)\08 Breath ft. Kool G Rap & Smoothe Da Hustler.wav
Пиковый уровень 100.0 % Скорость извлечения 1.6 X Качество трека 99.9 % CRC теста 7BE11186 CRC копии 7BE11186 Трек не обнаружен в базе AccurateRip Копирование... OK
Трек 9
Имя файла C:\Users\Антон\Downloads\Музыка\Nine - King (2018)\09 I am.wav
Пиковый уровень 96.6 % Скорость извлечения 1.6 X Качество трека 99.9 % CRC теста A1A372CF CRC копии A1A372CF Трек не обнаружен в базе AccurateRip Копирование... OK
Трек 10
Имя файла C:\Users\Антон\Downloads\Музыка\Nine - King (2018)\10 Pita roll.wav
Пиковый уровень 98.8 % Скорость извлечения 1.6 X Качество трека 99.9 % CRC теста 636A82AE CRC копии 636A82AE Трек не обнаружен в базе AccurateRip Копирование... OK
Трек 11
Имя файла C:\Users\Антон\Downloads\Музыка\Nine - King (2018)\11 Jump Em ft. Ruste Juxx.wav
Пиковый уровень 98.8 % Скорость извлечения 1.7 X Качество трека 99.9 % CRC теста 1D036090 CRC копии 1D036090 Трек не обнаружен в базе AccurateRip Копирование... OK
Трек 12
Имя файла C:\Users\Антон\Downloads\Музыка\Nine - King (2018)\12 Champion ft. Chis River.wav
Пиковый уровень 98.8 % Скорость извлечения 2.0 X Качество трека 100.0 % CRC теста 06FE74F7 CRC копии 06FE74F7 Трек не обнаружен в базе AccurateRip Копирование... OK
Трек 13
Имя файла C:\Users\Антон\Downloads\Музыка\Nine - King (2018)\13 King.wav
Пиковый уровень 98.8 % Скорость извлечения 1.9 X Качество трека 100.0 % CRC теста B238C9FB CRC копии B238C9FB Трек не обнаружен в базе AccurateRip Копирование... OK
Ни одного трека нет в базе AccurateRip
Ошибок не произошло
Конец отчёта
---- CUETools DB Plugin V2.1.6
[CTDB TOCID: HkOMuGsk2vKtS1vzZPHpa.opKV8-] disk not present in databaseSubmit result: HkOMuGsk2vKtS1vzZPHpa.opKV8- has been uploaded
==== Контрольная сумма отчёта A91207347A98A0D33C9A8B7A080B70EDAAA56FA4403EE3F3CCAEF3FC81A22E3B ====

Содержание индексной карты (.CUE)

REM GENRE RapREM DATE 2018REM DISCID AC0AD80DREM COMMENT "ExactAudioCopy v1.3"PERFORMER "Nine"TITLE "King"REM COMPOSER ""FILE "01 The revenant.wav" WAVE TRACK 01 AUDIO TITLE "The revenant" PERFORMER "Nine" REM COMPOSER "" INDEX 01 00:00:00FILE "02 Pull up.wav" WAVE TRACK 02 AUDIO TITLE "Pull up" PERFORMER "Nine" REM COMPOSER "" INDEX 01 00:00:00FILE "03 Killmongor.wav" WAVE TRACK 03 AUDIO TITLE "Killmongor" PERFORMER "Nine" REM COMPOSER "" INDEX 01 00:00:00FILE "04 Hilfiger.wav" WAVE TRACK 04 AUDIO TITLE "Hilfiger" PERFORMER "Nine" REM COMPOSER "" INDEX 01 00:00:00FILE "05 Tremendous.wav" WAVE TRACK 05 AUDIO TITLE "Tremendous" PERFORMER "Nine" REM COMPOSER "" INDEX 01 00:00:00FILE "06 Belafonte ft. Conway The Machine.wav" WAVE TRACK 06 AUDIO TITLE "Belafonte ft. Conway The Machine" PERFORMER "Nine" REM COMPOSER "" INDEX 01 00:00:00FILE "07 Medusa.wav" WAVE TRACK 07 AUDIO TITLE "Medusa" PERFORMER "Nine" REM COMPOSER "" INDEX 01 00:00:00FILE "08 Breath ft. Kool G Rap & Smoothe Da Hustler.wav" WAVE TRACK 08 AUDIO TITLE "Breath ft. Kool G Rap & Smoothe Da Hustler" PERFORMER "Nine" REM COMPOSER "" INDEX 01 00:00:00FILE "09 I am.wav" WAVE TRACK 09 AUDIO TITLE "I am" PERFORMER "Nine" REM COMPOSER "" INDEX 01 00:00:00FILE "10 Pita roll.wav" WAVE TRACK 10 AUDIO TITLE "Pita roll" PERFORMER "Nine" REM COMPOSER "" INDEX 01 00:00:00FILE "11 Jump Em ft. Ruste Juxx.wav" WAVE TRACK 11 AUDIO TITLE "Jump Em ft. Ruste Juxx" PERFORMER "Nine" REM COMPOSER "" INDEX 01 00:00:00FILE "12 Champion ft. Chis River.wav" WAVE TRACK 12 AUDIO TITLE "Champion ft. Chis River" PERFORMER "Nine" REM COMPOSER "" INDEX 01 00:00:00FILE "13 King.wav" WAVE TRACK 13 AUDIO TITLE "King" PERFORMER "Nine" REM COMPOSER "" INDEX 01 00:00:00

Лог проверки качества

CUE Corrector v. 8.3.4 / b. 884 (Oct. 26, 2018)————————————————————————————————————————————————————————————————————————--- / King
Folder: Nine - King (2018)Audio files: 01 The revenant.m4a [03:12.707; ALAC • 1018 kbps • 16 bit \ 44100 Hz • stereo; 23.40 MB (24 538 346 B)] 02 Pull up.m4a [03:09.067; ALAC • 886 kbps • 16 bit \ 44100 Hz • stereo; 19.99 MB (20 960 087 B)] 03 Killmongor.m4a [05:01.813; ALAC • 882 kbps • 16 bit \ 44100 Hz • stereo; 31.76 MB (33 300 321 B)] 04 Hilfiger.m4a [02:35.493; ALAC • 876 kbps • 16 bit \ 44100 Hz • stereo; 16.25 MB (17 038 683 B)] 05 Tremendous.m4a [03:08.920; ALAC • 945 kbps • 16 bit \ 44100 Hz • stereo; 21.30 MB (22 333 036 B)] 06 Belafonte ft. Conway The Machine.m4a [03:52.547; ALAC • 696 kbps • 16 bit \ 44100 Hz • stereo; 19.31 MB (20 249 571 B)] 07 Medusa.m4a [03:53.933; ALAC • 905 kbps • 16 bit \ 44100 Hz • stereo; 25.27 MB (26 493 786 B)] 08 Breath ft. Kool G Rap & Smoothe Da Hustler.m4a [04:52.813; ALAC • 1005 kbps • 16 bit \ 44100 Hz • stereo; 35.11 MB (36 819 417 B)] 09 I am.m4a [03:55.387; ALAC • 766 kbps • 16 bit \ 44100 Hz • stereo; 21.53 MB (22 572 093 B)] 10 Pita roll.m4a [03:29.507; ALAC • 934 kbps • 16 bit \ 44100 Hz • stereo; 23.34 MB (24 478 073 B)] 11 Jump Em ft. Ruste Juxx.m4a [03:22.813; ALAC • 997 kbps • 16 bit \ 44100 Hz • stereo; 24.12 MB (25 290 307 B)] 12 Champion ft. Chis River.m4a [03:08.307; ALAC • 986 kbps • 16 bit \ 44100 Hz • stereo; 22.15 MB (23 220 908 B)] 13 King.m4a [02:33.413; ALAC • 997 kbps • 16 bit \ 44100 Hz • stereo; 18.25 MB (19 141 602 B)]
Accuracy: -m0
File 01 The revenant - 100% CDDA [03:12:53]
Detected average hi-boundary frequency : 20206.110 Hz Detected average lo-boundary frequency : 14261.620 Hz Detected average hi-cut frequency : 21234.340 Hz Detected average lo-cut frequency : 13193.540 Hz Maximum probablis boundary frequency : 21891.000 Hz Coefficient of nonlinearity of a phase : 0.03532301 First order smothness : 0.46547560 Second order smothness : 0.42153550
File 02 Pull up - 100% CDDA [03:09:05]
Detected average hi-boundary frequency : 20209.200 Hz Detected average lo-boundary frequency : 13027.260 Hz Detected average hi-cut frequency : 21710.610 Hz Detected average lo-cut frequency : 6590.862 Hz Maximum probablis boundary frequency : 21891.000 Hz Coefficient of nonlinearity of a phase : 0.53329740 First order smothness : 0.45628680 Second order smothness : 0.34970530
File 03 Killmongor - 100% CDDA [05:01:61]
Detected average hi-boundary frequency : 20389.460 Hz Detected average lo-boundary frequency : 14414.960 Hz Detected average hi-cut frequency : 20949.440 Hz Detected average lo-cut frequency : 14011.000 Hz Maximum probablis boundary frequency : 21891.000 Hz Coefficient of nonlinearity of a phase : 0.08869441 First order smothness : 0.47076920 Second order smothness : 0.61415380
File 04 Hilfiger - 100% CDDA [02:35:37]
Detected average hi-boundary frequency : 20486.150 Hz Detected average lo-boundary frequency : 13817.110 Hz Detected average hi-cut frequency : 21355.120 Hz Detected average lo-cut frequency : 10843.960 Hz Maximum probablis boundary frequency : 21891.000 Hz Coefficient of nonlinearity of a phase : 0.17558570 First order smothness : 0.43820900 Second order smothness : 0.42567160
File 05 Tremendous - 100% CDDA [03:08:69]
Detected average hi-boundary frequency : 20372.590 Hz Detected average lo-boundary frequency : 14353.710 Hz Detected average hi-cut frequency : 21213.240 Hz Detected average lo-cut frequency : 10348.350 Hz Maximum probablis boundary frequency : 21891.000 Hz Coefficient of nonlinearity of a phase : 0.10581490 First order smothness : 0.46977890 Second order smothness : 0.47272730
File 06 Belafonte ft. Conway The Machine - 100% CDDA [03:52:41]
Detected average hi-boundary frequency : 20423.220 Hz Detected average lo-boundary frequency : 14668.110 Hz Detected average hi-cut frequency : 21207.680 Hz Detected average lo-cut frequency : 12424.690 Hz Maximum probablis boundary frequency : 21891.000 Hz Coefficient of nonlinearity of a phase : 0.09935030 First order smothness : 0.49281150 Second order smothness : 0.58586260
File 07 Medusa - 100% CDDA [03:53:70]
Detected average hi-boundary frequency : 20294.010 Hz Detected average lo-boundary frequency : 13932.220 Hz Detected average hi-cut frequency : 21222.560 Hz Detected average lo-cut frequency : 11734.690 Hz Maximum probablis boundary frequency : 21891.000 Hz Coefficient of nonlinearity of a phase : 0.10254680 First order smothness : 0.48551010 Second order smothness : 0.60381100
File 08 Breath ft. Kool G Rap & Smoothe Da Hustler - 100% CDDA [04:52:61]
Detected average hi-boundary frequency : 20382.880 Hz Detected average lo-boundary frequency : 13461.330 Hz Detected average hi-cut frequency : 21404.030 Hz Detected average lo-cut frequency : 10745.070 Hz Maximum probablis boundary frequency : 21891.000 Hz Coefficient of nonlinearity of a phase : 0.15416450 First order smothness : 0.44751030 Second order smothness : 0.49444970
File 09 I am - 99% CDDA [03:55:29]
Detected average hi-boundary frequency : 20328.740 Hz Detected average lo-boundary frequency : 14519.950 Hz Detected average hi-cut frequency : 21205.450 Hz Detected average lo-cut frequency : 9176.153 Hz Maximum probablis boundary frequency : 21891.000 Hz Coefficient of nonlinearity of a phase : 0.27555560 First order smothness : 0.49783040 Second order smothness : 0.47810650
File 10 Pita roll - 100% CDDA [03:29:38]
Detected average hi-boundary frequency : 20764.760 Hz Detected average lo-boundary frequency : 14983.550 Hz Detected average hi-cut frequency : 21859.380 Hz Detected average lo-cut frequency : 16013.070 Hz Maximum probablis boundary frequency : 21891.000 Hz Coefficient of nonlinearity of a phase : 0.15825200 First order smothness : 0.49822700 Second order smothness : 0.62765960
File 11 Jump Em ft. Ruste Juxx - 99% CDDA [03:22:61]
Detected average hi-boundary frequency : 20672.730 Hz Detected average lo-boundary frequency : 13148.200 Hz Detected average hi-cut frequency : 21474.760 Hz Detected average lo-cut frequency : 16460.460 Hz Maximum probablis boundary frequency : 21315.000 Hz Coefficient of nonlinearity of a phase : 0.82508980 First order smothness : 0.41300370 Second order smothness : 0.69642860
File 12 Champion ft. Chis River - 99% CDDA [03:08:23]
Detected average hi-boundary frequency : 20230.680 Hz Detected average lo-boundary frequency : 13733.690 Hz Detected average hi-cut frequency : 21294.390 Hz Detected average lo-cut frequency : 12081.980 Hz Maximum probablis boundary frequency : 21891.000 Hz Coefficient of nonlinearity of a phase : 0.07097437 First order smothness : 0.46301780 Second order smothness : 0.54092700
File 13 King - 99% CDDA [02:33:31]
Detected average hi-boundary frequency : 20346.030 Hz Detected average lo-boundary frequency : 12984.150 Hz Detected average hi-cut frequency : 21400.710 Hz Detected average lo-cut frequency : 13636.420 Hz Maximum probablis boundary frequency : 21891.000 Hz Coefficient of nonlinearity of a phase : 0.10798560 First order smothness : 0.40206810 Second order smothness : 0.67883210
————— Summary: —————These tracks looks like CDDA with probability 100%.————————————————————————————————————————————————————————————————————————
ANALYZER: auCDtect: CD records authenticity detector, version 0.8.2 Copyright (c) 2004 Oleg Berngardt. All rights reserved. Copyright (c) 2004 Alexander Djourik. All rights reserved.
Time elapsed: 3 m 08 sLog created at October 30, 2018 09:29:08
=== 93603910A0EE218DB103610954C235F65238B6993355BEC8FA85EA52E108DE68 ===

Скриншот(ы) тегов iTunes

Об альбоме (сборнике)

Бронкский рэпер Nine хорошо показал себя в середине 90-х, выпустив 2 очень актуальных и сильных на то время альбома. После них у него начались неудачи: его лейбл Profile Records был продан Arista Records, которому пришлось отказаться от перспективного исполнителя. Мол, в то время уже начал греметь DMX, а Nine из-за своей меньшей популярности мог бы звучать как пародия на X’a. В итоге, артист пропадает на несколько лет, более менее проявив себя к концу нулевых альбомом «Quinine». Но времена сильно поменялись, пластинка прошла незамеченной.
С 2015-го года Nine снова дал о себе знать с помощью пары релизов, а в этом году анонсировал новый альбом, спродюсированный немецкой командой Snowgoons. И вот, долгожданная пластинка «King» перед нами. Это бескомпромиссный жесткий рэп, наполненный сильной лирикой и размышлениями о состоянии хип-хопа сегодня, а также роли Nine в нем. Кажется, исполнитель сейчас в отличной форме, а значит работа должна получиться удачной. В гостях одни авторитеты: Conway, Kool G Rap, Smoothe Da Hustler, Ruste Juxx и Chris Rivers.


[islamvillage.com]_t_5636773.torrent
Торрент: Зарегистрирован ·  [ 2018-11-07 20:52 ] ·  429606d45e5cdd038278bb71e5ee59bc5ffc02dc

17 KB

Статус: проверено
Скачан: 0 раз
Размер: 377 MB
Оценка: 
(Голосов: 0)
Сказали спасибо: 0  Спасибо
Похожие темы
[Профиль]    [ЛС]
Показать сообщения:    
Ответить на тему

Текущее время: Сегодня 12:21

Часовой пояс: GMT + 7



Вы не можете начинать темы
Вы не можете отвечать на сообщения
Вы не можете редактировать свои сообщения
Вы не можете удалять свои сообщения
Вы не можете голосовать в опросах
Вы не можете прикреплять файлы к сообщениям
Вы можете скачивать файлы


Media and Communication - 927 Words | SkinMedica Lytera 2.0 Pigment Correcting Serum - 2 oz / 60 ml New in Box Fresh | Rocket Royale