(Vocal Jazz) [CD] Billy Eckstine (feat. Helen Merrill) - Billy Eckstine Sings with Benny Carter - 1987, FLAC (tracks+.cue), lossless

Ответить на тему
Статистика раздачи [Обновить пиров]
Размер:  240 MB   |    Зарегистрирован:  2 месяца 4 дня   |    Скачан:  0 раз

Полного источника не было: Никогда

 
   
 
 
 
Автор Сообщение

islamvillage.com

Создавать темы 13-Ноя-2018 23:54

[Цитировать]

Billy Eckstine - Billy Eckstine Sings with Benny Carter
Жанр: Vocal Jazz
Носитель: CD
Страна-производитель диска (релиза): Германия
Год издания: 1987
Издатель (лейбл): EmArcy
Номер по каталогу: 832 011-2
Аудиокодек: FLAC (*.flac)
Тип рипа: tracks+.cue
Битрейт аудио: lossless
Продолжительность: 51:17
Источник (релизер): subix5
Наличие сканов в содержимом раздачи: нет
Треклист:
01. You'd Be So Nice to Come Home To (Porter) - 5:26
02. My Funny Valentine (Rodgers-Hart) - 3:36
03. Here's That Rainy Day (Van Heusen-Burke) - 3:55
04. Summertime (Gershwin-Heyward) - 3:56
05. A Kiss from You (Carter-Mercer) - 3:57
06. Memories of You (Blake-Razaf) - 3:49
07. I've Got the World on a String (Arlen-Koehler) - 4:45
08. Now That I Need You (Moten) - 3:56
09. Over the Rainbow (Harburg-Arlen) - 4:44
10. September Song (Weill-Anderson) - 4:01
11. Autumn Leaves (Kosma-Mercer) - 3:47
12. Didn't We (Webb) - 5:25
Состав:
Billy Eckstine, Helen Merrill (#1,12) - vocals
Benny Carter - alto saxophone, trumpet (#10)
Bobby Tucker - piano
Paul West - bass
Vernel Fournier - drums
Recorded at Media Sound Studio, New York on November 17–18, 1986.

Лог создания рипа

Exact Audio Copy V1.3 from 2. September 2016
EAC extraction logfile from 26. September 2018, 8:52
Billy Eckstine & Benny Carter / Billy Eckstine Sings With Benny Carter
Used drive : PLDS DVD+-RW DU-8A3S Adapter: 1 ID: 0
Read mode : SecureUtilize accurate stream : YesDefeat audio cache : YesMake use of C2 pointers : No
Read offset correction : 6Overread into Lead-In and Lead-Out : NoFill up missing offset samples with silence : YesDelete leading and trailing silent blocks : NoNull samples used in CRC calculations : YesUsed interface : Native Win32 interface for Win NT & 2000Gap handling : Appended to previous track
Used output format : User Defined EncoderSelected bitrate : 1024 kBit/sQuality : HighAdd ID3 tag : NoCommand line compressor : C:\users\Public\flac-1.3.2-win\win32\flac.exeAdditional command line options : -8 -V -T "ARTIST=%artist%" -T "TITLE=%title%" -T "ALBUM=%albumtitle%" -T "DATE=%year%" -T "TRACKNUMBER=%tracknr%" -T "GENRE=%genre%" -T "PERFORMER=%albuminterpret%" -T "COMPOSER=%composer%" %haslyrics%--tag-from-file=LYRICS="%lyricsfile%"%haslyrics% -T "ALBUMARTIST=%albumartist%" -T "DISCNUMBER=%cdnumber%" -T "TOTALDISCS=%totalcds%" -T "TOTALTRACKS=%numtracks%" -T "COMMENT=%comment%" %source% -o %dest%
TOC of the extracted CD
Track | Start | Length | Start sector | End sector --------------------------------------------------------- 1 | 0:00.33 | 5:26.37 | 33 | 24519 2 | 5:26.70 | 3:36.25 | 24520 | 40744 3 | 9:03.20 | 3:54.63 | 40745 | 58357 4 | 12:58.08 | 3:56.12 | 58358 | 76069 5 | 16:54.20 | 3:57.25 | 76070 | 93869 6 | 20:51.45 | 3:49.13 | 93870 | 111057 7 | 24:40.58 | 4:44.50 | 111058 | 132407 8 | 29:25.33 | 3:56.12 | 132408 | 150119 9 | 33:21.45 | 4:44.13 | 150120 | 171432 10 | 38:05.58 | 4:00.50 | 171433 | 189482 11 | 42:06.33 | 3:47.00 | 189483 | 206507 12 | 45:53.33 | 5:25.37 | 206508 | 230919
Track 1
Filename C:\Billy Eckstine, Benny Carter - Billy Eckstine Sings with Benny Carter (1987) {EmArcy 832 011-2} [CDFLAC]\01 You'd Be So Nice To Come Home To.wav
Pre-gap length 0:00:02.44
Peak level 100.0 % Extraction speed 1.1 X Track quality 100.0 % Test CRC 20418AF1 Copy CRC 20418AF1 Accurately ripped (confidence 4) [ABF50017] (AR v2) Copy OK
Track 2
Filename C:\Billy Eckstine, Benny Carter - Billy Eckstine Sings with Benny Carter (1987) {EmArcy 832 011-2} [CDFLAC]\02 My Funny Valentine.wav
Pre-gap length 0:00:02.33
Peak level 93.8 % Extraction speed 1.2 X Track quality 100.0 % Test CRC 41FAAC98 Copy CRC 41FAAC98 Accurately ripped (confidence 4) [EFAFFE2C] (AR v2) Copy OK
Track 3
Filename C:\Billy Eckstine, Benny Carter - Billy Eckstine Sings with Benny Carter (1987) {EmArcy 832 011-2} [CDFLAC]\03 Here's That Rainy Day.wav
Pre-gap length 0:00:03.16
Peak level 87.8 % Extraction speed 1.3 X Track quality 100.0 % Test CRC 0C5DC736 Copy CRC 0C5DC736 Accurately ripped (confidence 4) [18305F2C] (AR v2) Copy OK
Track 4
Filename C:\Billy Eckstine, Benny Carter - Billy Eckstine Sings with Benny Carter (1987) {EmArcy 832 011-2} [CDFLAC]\04 Summertime.wav
Pre-gap length 0:00:02.84
Peak level 100.0 % Extraction speed 1.4 X Track quality 100.0 % Test CRC C67AFB31 Copy CRC C67AFB31 Accurately ripped (confidence 4) [A8033F5D] (AR v2) Copy OK
Track 5
Filename C:\Billy Eckstine, Benny Carter - Billy Eckstine Sings with Benny Carter (1987) {EmArcy 832 011-2} [CDFLAC]\05 A Kiss From You.wav
Pre-gap length 0:00:02.66
Peak level 100.0 % Extraction speed 1.5 X Track quality 100.0 % Test CRC B6B058FD Copy CRC B6B058FD Accurately ripped (confidence 4) [4FBEFB23] (AR v2) Copy OK
Track 6
Filename C:\Billy Eckstine, Benny Carter - Billy Eckstine Sings with Benny Carter (1987) {EmArcy 832 011-2} [CDFLAC]\06 Memories Of You.wav
Pre-gap length 0:00:03.66
Peak level 94.0 % Extraction speed 1.6 X Track quality 100.0 % Test CRC 0063516A Copy CRC 0063516A Accurately ripped (confidence 4) [3D111E60] (AR v2) Copy OK
Track 7
Filename C:\Billy Eckstine, Benny Carter - Billy Eckstine Sings with Benny Carter (1987) {EmArcy 832 011-2} [CDFLAC]\07 I've Got The World On A String.wav
Pre-gap length 0:00:02.84
Peak level 100.0 % Extraction speed 1.7 X Track quality 100.0 % Test CRC 68B8D401 Copy CRC 68B8D401 Accurately ripped (confidence 4) [1596AE0A] (AR v2) Copy OK
Track 8
Filename C:\Billy Eckstine, Benny Carter - Billy Eckstine Sings with Benny Carter (1987) {EmArcy 832 011-2} [CDFLAC]\08 Now That I Need You.wav
Pre-gap length 0:00:02.66
Peak level 86.3 % Extraction speed 1.7 X Track quality 100.0 % Test CRC B0C68720 Copy CRC B0C68720 Accurately ripped (confidence 4) [E3B32636] (AR v2) Copy OK
Track 9
Filename C:\Billy Eckstine, Benny Carter - Billy Eckstine Sings with Benny Carter (1987) {EmArcy 832 011-2} [CDFLAC]\09 Over The Rainbow.wav
Pre-gap length 0:00:02.66
Peak level 91.1 % Extraction speed 1.7 X Track quality 99.9 % Test CRC 59C2C579 Copy CRC 59C2C579 Accurately ripped (confidence 4) [5CF02607] (AR v2) Copy OK
Track 10
Filename C:\Billy Eckstine, Benny Carter - Billy Eckstine Sings with Benny Carter (1987) {EmArcy 832 011-2} [CDFLAC]\10 September Song.wav
Pre-gap length 0:00:04.17
Peak level 100.0 % Extraction speed 1.7 X Track quality 99.9 % Test CRC FC945310 Copy CRC FC945310 Accurately ripped (confidence 4) [B7470E15] (AR v2) Copy OK
Track 11
Filename C:\Billy Eckstine, Benny Carter - Billy Eckstine Sings with Benny Carter (1987) {EmArcy 832 011-2} [CDFLAC]\11 Autumn Leaves.wav
Pre-gap length 0:00:03.33
Peak level 96.9 % Extraction speed 1.9 X Track quality 100.0 % Test CRC 15D4EA61 Copy CRC 15D4EA61 Accurately ripped (confidence 4) [1038F2B2] (AR v2) Copy OK
Track 12
Filename C:\Billy Eckstine, Benny Carter - Billy Eckstine Sings with Benny Carter (1987) {EmArcy 832 011-2} [CDFLAC]\12 Didn't We.wav
Pre-gap length 0:00:03.17
Peak level 100.0 % Extraction speed 2.1 X Track quality 100.0 % Test CRC F3B3C525 Copy CRC F3B3C525 Accurately ripped (confidence 4) [83121CAF] (AR v2) Copy OK
All tracks accurately ripped
No errors occurred
End of status report
==== Log checksum C28ADDC0A95C6FCF8259D002151879E0F074CE3E05E9315420CDF3BBE06526E1 ====

Содержание индексной карты (.CUE)

REM GENRE JazzREM DATE 1987REM DISCID 9F0C060CREM COMMENT "ExactAudioCopy v1.3"PERFORMER "Billy Eckstine"TITLE "Billy Eckstine Sings with Benny Carter"FILE "01 - You'd Be So Nice to Come Home To.wav" WAVE TRACK 01 AUDIO TITLE "You'd Be So Nice to Come Home To" PERFORMER "Billy Eckstine" PREGAP 00:00:33 INDEX 01 00:00:00 TRACK 02 AUDIO TITLE "My Funny Valentine" PERFORMER "Billy Eckstine" INDEX 00 05:24:12FILE "02 - My Funny Valentine.wav" WAVE INDEX 01 00:00:00 TRACK 03 AUDIO TITLE "Here's That Rainy Day" PERFORMER "Billy Eckstine" INDEX 00 03:33:13FILE "03 - Here's That Rainy Day.wav" WAVE INDEX 01 00:00:00 TRACK 04 AUDIO TITLE "Summertime" PERFORMER "Billy Eckstine" INDEX 00 03:52:00FILE "04 - Summertime.wav" WAVE INDEX 01 00:00:00 TRACK 05 AUDIO TITLE "A Kiss from You" PERFORMER "Billy Eckstine" INDEX 00 03:53:37FILE "05 - A Kiss from You.wav" WAVE INDEX 01 00:00:00 TRACK 06 AUDIO TITLE "Memories of You" PERFORMER "Billy Eckstine" INDEX 00 03:53:50FILE "06 - Memories of You.wav" WAVE INDEX 01 00:00:00 TRACK 07 AUDIO TITLE "I've Got the World on a String" PERFORMER "Billy Eckstine" INDEX 00 03:46:25FILE "07 - I've Got the World on a String.wav" WAVE INDEX 01 00:00:00 TRACK 08 AUDIO TITLE "Now That I Need You" PERFORMER "Billy Eckstine" INDEX 00 04:42:00FILE "08 - Now That I Need You.wav" WAVE INDEX 01 00:00:00 TRACK 09 AUDIO TITLE "Over the Rainbow" PERFORMER "Billy Eckstine" INDEX 00 03:53:37FILE "09 - Over the Rainbow.wav" WAVE INDEX 01 00:00:00 TRACK 10 AUDIO TITLE "September Song" PERFORMER "Billy Eckstine" INDEX 00 04:40:00FILE "10 - September Song.wav" WAVE INDEX 01 00:00:00 TRACK 11 AUDIO TITLE "Autumn Leaves" PERFORMER "Billy Eckstine" INDEX 00 03:57:25FILE "11 - Autumn Leaves.wav" WAVE INDEX 01 00:00:00 TRACK 12 AUDIO TITLE "Didn't We" PERFORMER "Billy Eckstine" INDEX 00 03:43:62FILE "12 - Didn't We.wav" WAVE INDEX 01 00:00:00

Отчет CUETools

[CUETools log; Date: 11.11.2018 20:52:40; Version: 2.1.5]Pregap length 00:00:33.[CTDB TOCID: Fd4hxb_1HKahgDES5D5ZRji3lHY-] found.Track | CTDB Status 1 | (3/3) Accurately ripped 2 | (2/3) Accurately ripped 3 | (3/3) Accurately ripped 4 | (2/3) Accurately ripped 5 | (3/3) Accurately ripped 6 | (3/3) Accurately ripped 7 | (2/3) Accurately ripped 8 | (3/3) Accurately ripped 9 | (3/3) Accurately ripped 10 | (3/3) Accurately ripped 11 | (3/3) Accurately ripped 12 | (3/3) Accurately ripped[AccurateRip ID: 0016aad6-00d2cbe7-9f0c060c] found.Track [ CRC | V2 ] Status 01 [77281022|abf50017] (0+4/4) Accurately ripped 02 [fbb1e013|efaffe2c] (2+4/6) Accurately ripped 03 [ac762c11|18305f2c] (2+4/6) Accurately ripped 04 [f8f79b9e|a8033f5d] (2+4/6) Accurately ripped 05 [f51d2b69|4fbefb23] (0+4/4) Accurately ripped 06 [313b6f87|3d111e60] (0+4/4) Accurately ripped 07 [96adfa6c|1596ae0a] (2+4/6) Accurately ripped 08 [ec92432b|e3b32636] (0+4/4) Accurately ripped 09 [94a16cb5|5cf02607] (2+4/6) Accurately ripped 10 [1828441e|b7470e15] (2+4/6) Accurately ripped 11 [16e0c344|1038f2b2] (2+4/6) Accurately ripped 12 [eca1b8a4|83121caf] (2+4/6) Accurately ripped
Track Peak [ CRC32 ] [W/O NULL] [ LOG ] -- 100,0 [C4280322] [8A48B007] 01 100,0 [20418AF1] [7A38E726] CRC32 02 93,8 [41FAAC98] [AD2B61D8] CRC32 03 87,8 [0C5DC736] [0C86718A] CRC32 04 100,0 [C67AFB31] [5E4B34C3] CRC32 05 100,0 [B6B058FD] [C7619443] CRC32 06 94,0 [0063516A] [D3B21E27] CRC32 07 100,0 [68B8D401] [76F2C83F] CRC32 08 86,3 [B0C68720] [2FB83458] CRC32 09 91,1 [59C2C579] [4954A71C] CRC32 10 100,0 [FC945310] [989B4029] CRC32 11 96,9 [15D4EA61] [24DAF567] CRC32 12 100,0 [F3B3C525] [FDFE993E] CRC32

AllMusic Review by Scott Yanow

Billy Eckstine's final recording (although he would live until 1993) finds the 72-year old singer showing his age. Mr. B's famous baritone voice at this late date only hints at his earlier greatness although his phrasing and enthusiasm uplift what could have been a depressing affair. Ironically altoist Benny Carter (who was 79) still sounds in his prime on alto and he takes an effective trumpet solo on "September Song." Singer Helen Merrill opens and closes the set by interacting vocally with Eckstine on "You'd Be So Nice to Come Home To" and "Didn't We." Eckstine, backed by a trio headed by his longtime pianist Bobby Tucker, does his best on such songs as "My Funny Valentine," "Memories of You" and "Autumn Leaves" but his earlier recordings are the ones to get.


[islamvillage.com]_t_5643157.torrent
Торрент: Зарегистрирован ·  [ 2018-11-13 23:52 ] ·  8c4a0e69b4b4b71bd7c02ef3e0d8333f15e22044

20 KB

Статус: проверено
Скачан: 0 раз
Размер: 240 MB
Оценка: 
(Голосов: 0)
Сказали спасибо: 0  Спасибо
Похожие темы
[Профиль]    [ЛС]
Показать сообщения:    
Ответить на тему

Текущее время: Сегодня 10:03

Часовой пояс: GMT + 7



Вы не можете начинать темы
Вы не можете отвечать на сообщения
Вы не можете редактировать свои сообщения
Вы не можете удалять свои сообщения
Вы не можете голосовать в опросах
Вы не можете прикреплять файлы к сообщениям
Вы можете скачивать файлы


Education in Ireland - 1281 Words | épisode 11 | Facebook