(Vocal Jazz) [CD] Ella Fitzgerald - Jazz \'Round Midnight Again (1956-1966) - 1995, FLAC (tracks+.cue), lossless

Ответить на тему
Статистика раздачи [Обновить пиров]
Размер:  355 MB   |    Зарегистрирован:  2 месяца 4 дня   |    Скачан:  0 раз

Полного источника не было: Никогда

 
   
 
 
 
Автор Сообщение

islamvillage.com

Создавать темы 13-Ноя-2018 23:54

[Цитировать]

Ella Fitzgerald - Jazz 'Round Midnight Again
Жанр: Vocal Jazz
Носитель: CD
Страна-производитель диска (релиза): США
Год издания: 1995
Издатель (лейбл): Verve Records
Номер по каталогу: 314 527 032-2
Аудиокодек: FLAC (*.flac)
Тип рипа: tracks+.cue
Битрейт аудио: lossless
Продолжительность: 67:58
Источник (релизер): redacted
Наличие сканов в содержимом раздачи: нет
Треклист:
01. A Flower Is a Lovesome Thing (5:04)
02. Easy to Love (3:27)
03. Embraceable You (4:54)
04. Midnight Sun (4:55)
05. Misty (2:54)
06. I Get a Kick Out of You (4:03)
07. You've Changed (3:17)
08. Now It Can Be Told (3:12)
09. The Man That Got Away (5:21)
10. Ill Wind (You're Blowin' Me No Good) (3:53)
11. The Way You Look Tonight (4:31)
12. I Didn't Know About You (4:15)
13. Bewitched (7:04)
14. Early Autumn (3:52)
15. My Shining Hour (4:00)
16. It Might as Well Be Spring (3:16)

Лог создания рипа

Exact Audio Copy V1.0 beta 3 from 29. August 2011
EAC extraction logfile from 22. November 2011, 0:08
Ella Fitzgerald / Jazz 'Round Midnight Again
Used drive : ASUS DRW-24B1ST a Adapter: 0 ID: 1
Read mode : SecureUtilize accurate stream : YesDefeat audio cache : YesMake use of C2 pointers : No
Read offset correction : 6Overread into Lead-In and Lead-Out : NoFill up missing offset samples with silence : YesDelete leading and trailing silent blocks : NoNull samples used in CRC calculations : YesUsed interface : Native Win32 interface for Win NT & 2000Gap handling : Appended to previous track
Used output format : User Defined EncoderSelected bitrate : 1024 kBit/sQuality : HighAdd ID3 tag : NoCommand line compressor : C:\Program Files (x86)\Exact Audio Copy\FLAC\FLAC.EXEAdditional command line options : -8 -V -T "ARTIST=%artist%" -T "TITLE=%title%" -T "ALBUM=%albumtitle%" -T "DATE=%year%" -T "TRACKNUMBER=%tracknr%" -T "GENRE=%genre%" -T "PERFORMER=%albuminterpret%" -T "COMPOSER=%composer%" %haslyrics%--tag-from-file=LYRICS="%lyricsfile%"%haslyrics% -T "ALBUMARTIST=%albumartist%" -T "DISCNUMBER=%cdnumber%" -T "TOTALDISCS=%totalcds%" -T "TOTALTRACKS=%numtracks%" -T "COMMENT=%comment%" %source% -o %dest%
TOC of the extracted CD
Track | Start | Length | Start sector | End sector --------------------------------------------------------- 1 | 0:00.00 | 5:04.33 | 0 | 22832 2 | 5:04.33 | 3:27.05 | 22833 | 38362 3 | 8:31.38 | 4:53.42 | 38363 | 60379 4 | 13:25.05 | 4:55.25 | 60380 | 82529 5 | 18:20.30 | 2:53.48 | 82530 | 95552 6 | 21:14.03 | 4:02.65 | 95553 | 113767 7 | 25:16.68 | 3:17.10 | 113768 | 128552 8 | 28:34.03 | 3:12.35 | 128553 | 142987 9 | 31:46.38 | 5:21.30 | 142988 | 167092 10 | 37:07.68 | 3:53.15 | 167093 | 184582 11 | 41:01.08 | 4:31.10 | 184583 | 204917 12 | 45:32.18 | 4:15.02 | 204918 | 224044 13 | 49:47.20 | 7:03.70 | 224045 | 255839 14 | 56:51.15 | 3:52.08 | 255840 | 273247 15 | 60:43.23 | 3:59.52 | 273248 | 291224 16 | 64:43.00 | 3:15.55 | 291225 | 305904
Track 1
Filename C:\EAC Rips\Ella Fitzgerald - Jazz 'Round Midnight Again [1995] [FLAC]\01 - A Flower Is a Lovesome Thing.wav
Pre-gap length 0:00:02.00
Peak level 83.7 % Extraction speed 5.4 X Track quality 99.9 % Test CRC DEF015B9 Copy CRC DEF015B9 Accurately ripped (confidence 10) [BB29E46B] (AR v1) Copy OK
Track 2
Filename C:\EAC Rips\Ella Fitzgerald - Jazz 'Round Midnight Again [1995] [FLAC]\02 - Easy to Love.wav
Pre-gap length 0:00:02.13
Peak level 92.3 % Extraction speed 4.7 X Track quality 99.8 % Test CRC 7486C300 Copy CRC 7486C300 Accurately ripped (confidence 9) [C1974C5C] (AR v1) Copy OK
Track 3
Filename C:\EAC Rips\Ella Fitzgerald - Jazz 'Round Midnight Again [1995] [FLAC]\03 - Embraceable You.wav
Pre-gap length 0:00:02.44
Peak level 100.0 % Extraction speed 7.0 X Track quality 100.0 % Test CRC 7F032177 Copy CRC 7F032177 Accurately ripped (confidence 9) [267799E4] (AR v1) Copy OK
Track 4
Filename C:\EAC Rips\Ella Fitzgerald - Jazz 'Round Midnight Again [1995] [FLAC]\04 - Midnight Sun.wav
Pre-gap length 0:00:02.53
Peak level 80.9 % Extraction speed 7.5 X Track quality 100.0 % Test CRC 14B0944C Copy CRC 14B0944C Accurately ripped (confidence 9) [5EA7C638] (AR v1) Copy OK
Track 5
Filename C:\EAC Rips\Ella Fitzgerald - Jazz 'Round Midnight Again [1995] [FLAC]\05 - Misty.wav
Pre-gap length 0:00:02.26
Peak level 91.8 % Extraction speed 6.2 X Track quality 99.9 % Test CRC 79BBF2F8 Copy CRC 79BBF2F8 Accurately ripped (confidence 9) [325C789D] (AR v1) Copy OK
Track 6
Filename C:\EAC Rips\Ella Fitzgerald - Jazz 'Round Midnight Again [1995] [FLAC]\06 - I Get a Kick Out Of You.wav
Pre-gap length 0:00:02.86
Peak level 94.1 % Extraction speed 8.0 X Track quality 100.0 % Test CRC 57D75C27 Copy CRC 57D75C27 Accurately ripped (confidence 9) [BD5E541D] (AR v1) Copy OK
Track 7
Filename C:\EAC Rips\Ella Fitzgerald - Jazz 'Round Midnight Again [1995] [FLAC]\07 - You've Changed.wav
Pre-gap length 0:00:02.60
Peak level 91.5 % Extraction speed 8.1 X Track quality 100.0 % Test CRC 64A3BB8C Copy CRC 64A3BB8C Accurately ripped (confidence 9) [CD611C6F] (AR v1) Copy OK
Track 8
Filename C:\EAC Rips\Ella Fitzgerald - Jazz 'Round Midnight Again [1995] [FLAC]\08 - Now It Can Be Told.wav
Pre-gap length 0:00:02.53
Peak level 84.7 % Extraction speed 8.4 X Track quality 100.0 % Test CRC 445C0A2C Copy CRC 445C0A2C Accurately ripped (confidence 8) [940D8337] (AR v1) Copy OK
Track 9
Filename C:\EAC Rips\Ella Fitzgerald - Jazz 'Round Midnight Again [1995] [FLAC]\09 - The Man That Got Away.wav
Pre-gap length 0:00:02.50
Peak level 91.2 % Extraction speed 8.4 X Track quality 99.9 % Test CRC 15143D94 Copy CRC 15143D94 Accurately ripped (confidence 8) [17BF0D12] (AR v1) Copy OK
Track 10
Filename C:\EAC Rips\Ella Fitzgerald - Jazz 'Round Midnight Again [1995] [FLAC]\10 - Ill Wind (You're Blowin' Me No Good).wav
Pre-gap length 0:00:02.50
Peak level 87.7 % Extraction speed 9.3 X Track quality 100.0 % Test CRC C355D1DA Copy CRC C355D1DA Accurately ripped (confidence 8) [A5E6EA3E] (AR v1) Copy OK
Track 11
Filename C:\EAC Rips\Ella Fitzgerald - Jazz 'Round Midnight Again [1995] [FLAC]\11 - The Way You Look Tonight.wav
Pre-gap length 0:00:02.60
Peak level 100.0 % Extraction speed 9.8 X Track quality 100.0 % Test CRC A04F0796 Copy CRC A04F0796 Accurately ripped (confidence 8) [02528E66] (AR v1) Copy OK
Track 12
Filename C:\EAC Rips\Ella Fitzgerald - Jazz 'Round Midnight Again [1995] [FLAC]\12 - I Didn't Know About You.wav
Pre-gap length 0:00:02.66
Peak level 83.0 % Extraction speed 10.0 X Track quality 100.0 % Test CRC 12D02450 Copy CRC 12D02450 Accurately ripped (confidence 8) [54524BB9] (AR v1) Copy OK
Track 13
Filename C:\EAC Rips\Ella Fitzgerald - Jazz 'Round Midnight Again [1995] [FLAC]\13 - Bewitched.wav
Pre-gap length 0:00:02.29
Peak level 82.7 % Extraction speed 10.2 X Track quality 99.9 % Test CRC D6176B12 Copy CRC D6176B12 Accurately ripped (confidence 8) [95EB8615] (AR v1) Copy OK
Track 14
Filename C:\EAC Rips\Ella Fitzgerald - Jazz 'Round Midnight Again [1995] [FLAC]\14 - Early Autumn.wav
Pre-gap length 0:00:02.20
Peak level 92.6 % Extraction speed 10.7 X Track quality 100.0 % Test CRC A960ABF7 Copy CRC A960ABF7 Accurately ripped (confidence 8) [E3913F3C] (AR v1) Copy OK
Track 15
Filename C:\EAC Rips\Ella Fitzgerald - Jazz 'Round Midnight Again [1995] [FLAC]\15 - My Shining Hour.wav
Pre-gap length 0:00:02.46
Peak level 94.1 % Extraction speed 9.7 X Track quality 99.9 % Test CRC 85FAEB9F Copy CRC 85FAEB9F Accurately ripped (confidence 8) [BD6A81AA] (AR v1) Copy OK
Track 16
Filename C:\EAC Rips\Ella Fitzgerald - Jazz 'Round Midnight Again [1995] [FLAC]\16 - It Might As Well Be Spring.wav
Pre-gap length 0:00:00.56
Peak level 100.0 % Extraction speed 10.8 X Track quality 100.0 % Test CRC 1D22600D Copy CRC 1D22600D Accurately ripped (confidence 6) [8741F8E4] (AR v1) Copy OK
All tracks accurately ripped
No errors occurred
End of status report
---- CUETools DB Plugin V2.1.3
[CTDB TOCID: qGhayLMmrOXA3haoYYLjHzo3D9o-] found, Submit result: qGhayLMmrOXA3haoYYLjHzo3D9o- has been uploaded[bf6d5da1] (1/1) Differs in 146 samples @26:35:61,26:36:48,26:37:66,26:39:09You can use CUETools to repair this rip.
==== Log checksum FFD973E86746EB813249FE9457A6EBEAFC447F3B91A4811CC363D97467E8CDB7 ====

Содержание индексной карты (.CUE)

REM GENRE JazzREM DATE 1995REM DISCID E60FEE10REM COMMENT "ExactAudioCopy v1.0b3"CATALOG 7314527032210PERFORMER "Ella Fitzgerald"TITLE "Jazz 'Round Midnight Again"FILE "01 - A Flower Is a Lovesome Thing.wav" WAVE TRACK 01 AUDIO TITLE "A Flower Is a Lovesome Thing" PERFORMER "Ella Fitzgerald" ISRC USPR36500100 INDEX 01 00:00:00 TRACK 02 AUDIO TITLE "Easy to Love" PERFORMER "Ella Fitzgerald" ISRC USPR35600047 INDEX 00 05:02:23FILE "02 - Easy to Love.wav" WAVE INDEX 01 00:00:00 TRACK 03 AUDIO TITLE "Embraceable You" PERFORMER "Ella Fitzgerald" ISRC USPR35902464 INDEX 00 03:24:47FILE "03 - Embraceable You.wav" WAVE INDEX 01 00:00:00 TRACK 04 AUDIO TITLE "Midnight Sun" PERFORMER "Ella Fitzgerald" ISRC USPR36402484 INDEX 00 04:51:02FILE "04 - Midnight Sun.wav" WAVE INDEX 01 00:00:00 TRACK 05 AUDIO TITLE "Misty" PERFORMER "Ella Fitzgerald" ISRC USPR36002481 INDEX 00 04:53:05FILE "05 - Misty.wav" WAVE INDEX 01 00:00:00 TRACK 06 AUDIO TITLE "I Get a Kick Out of You" PERFORMER "Ella Fitzgerald" ISRC USPR35602447 INDEX 00 02:50:58FILE "06 - I Get a Kick Out of You.wav" WAVE INDEX 01 00:00:00 TRACK 07 AUDIO TITLE "You've Changed" PERFORMER "Ella Fitzgerald" ISRC USPR36600077 INDEX 00 04:00:20FILE "07 - You've Changed.wav" WAVE INDEX 01 00:00:00 TRACK 08 AUDIO TITLE "Now It Can Be Told" PERFORMER "Ella Fitzgerald" ISRC USPR35800051 INDEX 00 03:14:45FILE "08 - Now It Can Be Told.wav" WAVE INDEX 01 00:00:00 TRACK 09 AUDIO TITLE "The Man That Got Away" PERFORMER "Ella Fitzgerald" ISRC USPR36000012 INDEX 00 03:09:72FILE "09 - The Man That Got Away.wav" WAVE INDEX 01 00:00:00 TRACK 10 AUDIO TITLE "Ill Wind (You're Blowin' Me No Good)" PERFORMER "Ella Fitzgerald" ISRC USPR36100013 INDEX 00 05:18:67FILE "10 - Ill Wind (You're Blowin' Me No Good).wav" WAVE INDEX 01 00:00:00 TRACK 11 AUDIO TITLE "The Way You Look Tonight" PERFORMER "Ella Fitzgerald" ISRC USPR36301976 INDEX 00 03:50:45FILE "11 - The Way You Look Tonight.wav" WAVE INDEX 01 00:00:00 TRACK 12 AUDIO TITLE "I Didn't Know About You" PERFORMER "Ella Fitzgerald" ISRC USPR35702452 INDEX 00 04:28:35FILE "12 - I Didn't Know About You.wav" WAVE INDEX 01 00:00:00 TRACK 13 AUDIO TITLE "Bewitched" PERFORMER "Ella Fitzgerald" ISRC USPR35602405 INDEX 00 04:12:55FILE "13 - Bewitched.wav" WAVE INDEX 01 00:00:00 TRACK 14 AUDIO TITLE "Early Autumn" PERFORMER "Ella Fitzgerald" ISRC USPR36402485 INDEX 00 07:01:55FILE "14 - Early Autumn.wav" WAVE INDEX 01 00:00:00 TRACK 15 AUDIO TITLE "My Shining Hour" PERFORMER "Ella Fitzgerald" ISRC USPR36102473 INDEX 00 03:49:48FILE "15 - My Shining Hour.wav" WAVE INDEX 01 00:00:00 TRACK 16 AUDIO TITLE "It Might as Well Be Spring" PERFORMER "Ella Fitzgerald" ISRC USPR36102474 INDEX 00 03:59:10FILE "16 - It Might as Well Be Spring.wav" WAVE INDEX 01 00:00:00

Отчет CUETools

[CUETools log; Date: 11.11.2018 20:24:59; Version: 2.1.5][CTDB TOCID: qGhayLMmrOXA3haoYYLjHzo3D9o-] found.Track | CTDB Status 1 | (21/22) Accurately ripped 2 | (21/22) Accurately ripped 3 | (21/22) Accurately ripped 4 | (21/22) Accurately ripped 5 | (21/22) Accurately ripped 6 | (21/22) Accurately ripped 7 | (20/22) Accurately ripped 8 | (21/22) Accurately ripped 9 | (20/22) Accurately ripped 10 | (20/22) Accurately ripped 11 | (21/22) Accurately ripped 12 | (21/22) Accurately ripped 13 | (20/22) Accurately ripped 14 | (20/22) Accurately ripped 15 | (20/22) Accurately ripped 16 | (22/22) Accurately ripped[AccurateRip ID: 00278c51-01dac081-e60fee10] found.Track [ CRC | V2 ] Status 01 [bb29e46b|34a67a39] (11+08/19) Accurately ripped 02 [c1974c5c|f65965b2] (10+08/18) Accurately ripped 03 [267799e4|7e97e70f] (10+08/18) Accurately ripped 04 [5ea7c638|21ea093a] (10+08/18) Accurately ripped 05 [325c789d|473d7d70] (10+08/18) Accurately ripped 06 [bd5e541d|1fb30c91] (10+08/18) Accurately ripped 07 [cd611c6f|51215217] (10+08/18) Accurately ripped 08 [940d8337|9767f248] (09+08/17) Accurately ripped 09 [17bf0d12|f9ecc506] (09+08/17) Accurately ripped 10 [a5e6ea3e|ebdcf5d6] (09+08/17) Accurately ripped 11 [02528e66|ee3cae2c] (09+08/17) Accurately ripped 12 [54524bb9|614eaa07] (09+08/17) Accurately ripped 13 [95eb8615|fc68e384] (09+08/17) Accurately ripped 14 [e3913f3c|b40987c4] (09+08/17) Accurately ripped 15 [bd6a81aa|8bbbe1ed] (09+08/17) Accurately ripped 16 [8741f8e4|fb9ee20a] (07+08/15) Accurately ripped
Track Peak [ CRC32 ] [W/O NULL] [ LOG ] -- 100,0 [3F5AAA5E] [04589F49] 01 83,7 [DEF015B9] [5AA80955] CRC32 02 92,3 [7486C300] [3B257E5E] CRC32 03 100,0 [7F032177] [731E9902] CRC32 04 80,9 [14B0944C] [E09C2619] CRC32 05 91,8 [79BBF2F8] [02D8E915] CRC32 06 94,1 [57D75C27] [425F3914] CRC32 07 91,5 [64A3BB8C] [948F9A9A] CRC32 08 84,7 [445C0A2C] [705ADAA3] CRC32 09 91,2 [15143D94] [3F749663] CRC32 10 87,7 [C355D1DA] [D6C7F375] CRC32 11 100,0 [A04F0796] [97C8A1D0] CRC32 12 83,0 [12D02450] [2726AA47] CRC32 13 82,7 [D6176B12] [1E3D5F94] CRC32 14 92,6 [A960ABF7] [0902BB2A] CRC32 15 94,1 [85FAEB9F] [0B003020] CRC32 16 100,0 [1D22600D] [D1174B62] CRC32

AllMusic Review by Stephen Cook

Although the subject of countless roundups, regal chanteuse Ella Fitzgerald guarantees nothing less than a quality mix. A balm for migraines and perfect for nights at home, Fitzgerald's ballad artistry is particularly stunning; so much so that Verve is presenting this encore of her first Jazz 'Round Midnight disc. The new look comes with a fresh batch of glowing interpretations from the seemingly bottomless Verve vaults. Bookended by chestnuts from Billy Strayhorn ("A Flower Is a Lovesome Thing") and Rodgers & Hammerstein ("It Might As Well Be Spring"), the 16-track set takes in work from most of Fitzgerald's stellar songbook albums, including those spotlighting Cole Porter, George Gershwin, and Rodgers & Hart. A perfect after-hours soundtrack.


[islamvillage.com]_t_5643126.torrent
Торрент: Зарегистрирован ·  [ 2018-11-13 23:52 ] ·  cacb083e68e85da679bd5b0d3f7c29ffa2677f19

16 KB

Статус: проверено
Скачан: 0 раз
Размер: 355 MB
Оценка: 
(Голосов: 0)
Сказали спасибо: 0  Спасибо
Похожие темы
[Профиль]    [ЛС]
Показать сообщения:    
Ответить на тему

Текущее время: Сегодня 10:49

Часовой пояс: GMT + 7



Вы не можете начинать темы
Вы не можете отвечать на сообщения
Вы не можете редактировать свои сообщения
Вы не можете удалять свои сообщения
Вы не можете голосовать в опросах
Вы не можете прикреплять файлы к сообщениям
Вы можете скачивать файлы


Ace of Diamond | Balls 20994 | NEW Women Vintage Oxford Faux Leather Retro Lace Up Stacked High Heel Shoe$29.99 10d left