(Minimal Techno, Tech House) [CD] VA - Dj Anrilov - Kilohertz Safari - 2003, FLAC (image+.cue), lossless

Ответить на тему
Статистика раздачи [Обновить пиров]
Размер:  447 MB   |    Зарегистрирован:  2 месяца 4 дня   |    Скачан:  0 раз

Полного источника не было: Никогда

 
   
 
 
 
Автор Сообщение

islamvillage.com

Создавать темы 14-Ноя-2018 22:03

[Цитировать]

[img=right]http://i6.imageban.ru/out/2018/11/11/f1df1cc99df54...830dd2.png[/img]
Dj Anrilov - Kilohertz Safari
Жанр: Minimal Techno, Tech House
Носитель: CD
Год издания: 2003
Издатель (лейбл): GR Records
Номер по каталогу: GR-rec-026-2003
Аудиокодек: FLAC (*.flac)
Тип рипа: image+.cue
Битрейт аудио: lossless
Продолжительность: 65:05
Источник (релизер): свой рип
Наличие сканов в содержимом раздачи: да
Треклист:
01. Jan Jelinek Avec The Exposures - If's, And's And But's (5:35)
02. Pleite - Pleite (6:49)
03. Jan Jelinek Avec The Exposures - The Exposures' Hustle (2:39)
04. Process - Surface (4:55)
05. LoSoul Featuring Malte Schlorf - Jam (7:23)
06. Unknown Artist - Untitled (3:02)
07. Lanoiraude - Waitin' (3:17)
08. Unknown Artist - Untitled (6:41)
09. Unknown Artist - Untitled (6:56)
10. Unknown Artist - Untitled (5:41)
11. Undercover Agency Featuring Cheray O'Neal - Flow (Remix) (5:43)
12. STP Featuring Kevin Yost - American In Paris (6:25)

Лог создания рипа

Exact Audio Copy V1.3 from 2. September 2016
EAC extraction logfile from 24. March 2018, 16:42
Dj Anrilov / Kilohertz Safari
Used drive : ASUS SDRW-08D2S-U Adapter: 9 ID: 0
Read mode : SecureUtilize accurate stream : YesDefeat audio cache : YesMake use of C2 pointers : No
Read offset correction : 6Overread into Lead-In and Lead-Out : NoFill up missing offset samples with silence : YesDelete leading and trailing silent blocks : NoNull samples used in CRC calculations : YesUsed interface : Installed external ASPI interface
Used output format : User Defined EncoderSelected bitrate : 128 kBit/sQuality : HighAdd ID3 tag : NoCommand line compressor : D:\flac-1.3.2-win\win64\flac.exeAdditional command line options : -V -8 -T "Date=%year%" -T "COMMENT=ripped by Andy aka yetiisyou" -T "Genre=%genre%" %source%
TOC of the extracted CD
Track | Start | Length | Start sector | End sector --------------------------------------------------------- 1 | 0:00.00 | 5:34.42 | 0 | 25091 2 | 5:34.42 | 6:49.22 | 25092 | 55788 3 | 12:23.64 | 2:39.11 | 55789 | 67724 4 | 15:03.00 | 4:55.32 | 67725 | 89881 5 | 19:58.32 | 7:23.10 | 89882 | 123116 6 | 27:21.42 | 3:02.12 | 123117 | 136778 7 | 30:23.54 | 3:16.68 | 136779 | 151546 8 | 33:40.47 | 6:41.22 | 151547 | 181643 9 | 40:21.69 | 6:55.56 | 181644 | 212824 10 | 47:17.50 | 5:40.38 | 212825 | 238362 11 | 52:58.13 | 5:42.60 | 238363 | 264072 12 | 58:40.73 | 6:24.38 | 264073 | 292910
Range status and errors
Selected range
Filename E:\!Ripped by Andy aka yetiisyou\VA - Dj Anrilov - Kilohertz Safari [GR-rec-026-2003] [2003]\Dj Anrilov - Kilohertz Safari.wav
Peak level 97.7 % Extraction speed 4.9 X Range quality 100.0 % Test CRC 3CF4CE15 Copy CRC 3CF4CE15 Copy OK
No errors occurred
AccurateRip summary
Track 1 accurately ripped (confidence 1) [BD7B572B] (AR v2)Track 2 accurately ripped (confidence 1) [973EFEF6] (AR v2)Track 3 accurately ripped (confidence 1) [2B0AFB5B] (AR v2)Track 4 accurately ripped (confidence 1) [9AD52389] (AR v2)Track 5 accurately ripped (confidence 1) [0FF9F20F] (AR v2)Track 6 accurately ripped (confidence 1) [792C5257] (AR v2)Track 7 accurately ripped (confidence 1) [814DD04A] (AR v2)Track 8 accurately ripped (confidence 1) [799DDE1E] (AR v2)Track 9 accurately ripped (confidence 1) [0A7409F7] (AR v2)Track 10 accurately ripped (confidence 1) [6DB96CBB] (AR v2)Track 11 accurately ripped (confidence 1) [27AC9F4A] (AR v2)Track 12 accurately ripped (confidence 1) [59558C2D] (AR v2)
All tracks accurately ripped
End of status report
---- CUETools DB Plugin V2.1.6
[CTDB TOCID: AjTUnaAKQymqHqT_NE3dmimZYbM-] foundSubmit result: AjTUnaAKQymqHqT_NE3dmimZYbM- has been confirmedTrack | CTDB Status 1 | (1/1) Accurately ripped 2 | (1/1) Accurately ripped 3 | (1/1) Accurately ripped 4 | (1/1) Accurately ripped 5 | (1/1) Accurately ripped 6 | (1/1) Accurately ripped 7 | (1/1) Accurately ripped 8 | (1/1) Accurately ripped 9 | (1/1) Accurately ripped 10 | (1/1) Accurately ripped 11 | (1/1) Accurately ripped 12 | (1/1) Accurately ripped
==== Log checksum 1B19608507AB4FB8349EC5D08E4F4A228DC25FAE3090C406BF368BCF4154DE41 ====


[islamvillage.com]_t_5642808.torrent
Торрент: Зарегистрирован ·  [ 2018-11-14 22:01 ] ·  459db9ab22ffe0c8d3407db195ac9ed0bd3b4e0f

18 KB

Статус: проверено
Скачан: 0 раз
Размер: 447 MB
Оценка: 
(Голосов: 0)
Сказали спасибо: 0  Спасибо
Похожие темы
[Профиль]    [ЛС]
Показать сообщения:    
Ответить на тему

Текущее время: Сегодня 22:41

Часовой пояс: GMT + 7



Вы не можете начинать темы
Вы не можете отвечать на сообщения
Вы не можете редактировать свои сообщения
Вы не можете удалять свои сообщения
Вы не можете голосовать в опросах
Вы не можете прикреплять файлы к сообщениям
Вы можете скачивать файлы


ver todos | Read more... | http://i.imgur.com/26zK50i.jpg