(Techno, Tech House) [2xCD] VA - Bad & God + Jungl - Saint - Petersburg Shepot FM - 2008, FLAC (image+.cue), lossless

Ответить на тему
Статистика раздачи [Обновить пиров]
Размер:  793 MB   |    Зарегистрирован:  2 месяца 4 дня   |    Скачан:  0 раз

Полного источника не было: Никогда

 
   
 
 
 
Автор Сообщение

islamvillage.com

Создавать темы 14-Ноя-2018 22:03

[Цитировать]

Bad & God + Jungl - Saint - Petersburg Shepot FM
[img=right]http://i3.imageban.ru/out/2018/11/09/78ff71f1f8668...4fd94e.png[/img]
Жанр: Techno, Tech House
Носитель: CD
Год издания: 2008
Издатель (лейбл): Cadillac Rec.
Аудиокодек: FLAC (*.flac)
Тип рипа: image+.cue
Битрейт аудио: lossless
Продолжительность: 02:09:49
Источник (релизер): свой рип
Наличие сканов в содержимом раздачи: да
Треклист:
CD 1
01. Bad & God - Saint - Petersburg Shepot FM (5:25)
02. Bad & God - Saint - Petersburg Shepot FM (2:10)
03. Bad & God - Saint - Petersburg Shepot FM (4:21)
04. Bad & God - Saint - Petersburg Shepot FM (2:49)
05. Bad & God - Saint - Petersburg Shepot FM (5:23)
06. Bad & God - Saint - Petersburg Shepot FM (3:50)
07. Bad & God - Saint - Petersburg Shepot FM (1:55)
08. Bad & God - Saint - Petersburg Shepot FM (3:12)
09. Bad & God - Saint - Petersburg Shepot FM (2:03)
10. Bad & God - Saint - Petersburg Shepot FM (3:50)
11. Bad & God - Saint - Petersburg Shepot FM (2:18)
12. Bad & God - Saint - Petersburg Shepot FM (4:21)
13. Bad & God - Saint - Petersburg Shepot FM (6:39)
14. Bad & God - Saint - Petersburg Shepot FM (5:07)
15. Bad & God - Saint - Petersburg Shepot FM (2:03)
16. Bad & God - Saint - Petersburg Shepot FM (5:15)
17. Bad & God - Saint - Petersburg Shepot FM (5:56)
CD 2
01. Jungl - Saint - Petersburg Shepot FM (7:00)
02. Jungl - Saint - Petersburg Shepot FM (3:48)
03. Jungl - Saint - Petersburg Shepot FM (5:39)
04. Jungl - Saint - Petersburg Shepot FM (4:41)
05. Jungl - Saint - Petersburg Shepot FM (4:41)
06. Jungl - Saint - Petersburg Shepot FM (5:48)
07. Jungl - Saint - Petersburg Shepot FM (5:20)
08. Jungl - Saint - Petersburg Shepot FM (3:07)
09. Jungl - Saint - Petersburg Shepot FM (4:19)
10. Jungl - Saint - Petersburg Shepot FM (4:54)
11. Jungl - Saint - Petersburg Shepot FM (4:10)
12. Jungl - Saint - Petersburg Shepot FM (4:18)
13. Jungl - Saint - Petersburg Shepot FM (5:28)

logs and sheetsLog EAC CD 1

Exact Audio Copy V1.3 from 2. September 2016
EAC extraction logfile from 23. June 2018, 14:28
Bad & God / Saint - Petersburg Shepot FM
Used drive : ASUS SDRW-08D2S-U Adapter: 8 ID: 6
Read mode : SecureUtilize accurate stream : YesDefeat audio cache : YesMake use of C2 pointers : No
Read offset correction : 6Overread into Lead-In and Lead-Out : NoFill up missing offset samples with silence : YesDelete leading and trailing silent blocks : NoNull samples used in CRC calculations : YesUsed interface : Installed external ASPI interface
Used output format : User Defined EncoderSelected bitrate : 128 kBit/sQuality : HighAdd ID3 tag : NoCommand line compressor : D:\flac-1.3.2-win\win64\flac.exeAdditional command line options : -V -8 -T "Date=%year%" -T "COMMENT=ripped by Andy aka yetiisyou" -T "Genre=%genre%" %source%
TOC of the extracted CD
Track | Start | Length | Start sector | End sector --------------------------------------------------------- 1 | 0:00.00 | 5:24.51 | 0 | 24350 2 | 5:24.51 | 2:10.36 | 24351 | 34136 3 | 7:35.12 | 4:20.68 | 34137 | 53704 4 | 11:56.05 | 2:48.72 | 53705 | 66376 5 | 14:45.02 | 5:22.43 | 66377 | 90569 6 | 20:07.45 | 3:50.25 | 90570 | 107844 7 | 23:57.70 | 1:55.12 | 107845 | 116481 8 | 25:53.07 | 3:11.68 | 116482 | 130874 9 | 29:05.00 | 2:02.61 | 130875 | 140085 10 | 31:07.61 | 3:50.14 | 140086 | 157349 11 | 34:58.00 | 2:18.10 | 157350 | 167709 12 | 37:16.10 | 4:20.71 | 167710 | 187280 13 | 41:37.06 | 6:39.17 | 187281 | 217222 14 | 48:16.23 | 5:07.13 | 217223 | 240260 15 | 53:23.36 | 2:02.61 | 240261 | 249471 16 | 55:26.22 | 5:14.59 | 249472 | 273080 17 | 60:41.06 | 5:56.21 | 273081 | 299801
Range status and errors
Selected range
Filename E:\!Ripped by Andy aka yetiisyou\VA - Bad & God + Jungl - Saint - Petersburg Shepot FM [2008]\Bad & God - Saint - Petersburg Shepot FM.wav
Peak level 100.0 % Extraction speed 5.1 X Range quality 100.0 % Test CRC 820DBDAB Copy CRC 820DBDAB Copy OK
No errors occurred
AccurateRip summary
Track 1 accurately ripped (confidence 1) [4EA47577] (AR v2)Track 2 accurately ripped (confidence 1) [802E3A84] (AR v2)Track 3 accurately ripped (confidence 1) [E456F2C8] (AR v2)Track 4 accurately ripped (confidence 1) [8E4D94D6] (AR v2)Track 5 accurately ripped (confidence 1) [6A9D1148] (AR v2)Track 6 accurately ripped (confidence 1) [6554CC81] (AR v2)Track 7 accurately ripped (confidence 1) [D6A32E8E] (AR v2)Track 8 accurately ripped (confidence 1) [4697D77A] (AR v2)Track 9 accurately ripped (confidence 1) [F6112619] (AR v2)Track 10 accurately ripped (confidence 1) [C1F4B10B] (AR v2)Track 11 accurately ripped (confidence 1) [DE3B77B0] (AR v2)Track 12 accurately ripped (confidence 1) [7EACF9E4] (AR v2)Track 13 accurately ripped (confidence 1) [A62D7F23] (AR v2)Track 14 accurately ripped (confidence 1) [F1684CD5] (AR v2)Track 15 accurately ripped (confidence 1) [7F7305B3] (AR v2)Track 16 accurately ripped (confidence 1) [756463CF] (AR v2)Track 17 accurately ripped (confidence 1) [0E7FD93C] (AR v2)
All tracks accurately ripped
End of status report
---- CUETools DB Plugin V2.1.6
[CTDB TOCID: Gaa.vlTFn_Kb10ESz1umnTUyYMU-] foundSubmit result: Gaa.vlTFn_Kb10ESz1umnTUyYMU- has been confirmedTrack | CTDB Status 1 | (1/1) Accurately ripped 2 | (1/1) Accurately ripped 3 | (1/1) Accurately ripped 4 | (1/1) Accurately ripped 5 | (1/1) Accurately ripped 6 | (1/1) Accurately ripped 7 | (1/1) Accurately ripped 8 | (1/1) Accurately ripped 9 | (1/1) Accurately ripped 10 | (1/1) Accurately ripped 11 | (1/1) Accurately ripped 12 | (1/1) Accurately ripped 13 | (1/1) Accurately ripped 14 | (1/1) Accurately ripped 15 | (1/1) Accurately ripped 16 | (1/1) Accurately ripped 17 | (1/1) Accurately ripped
==== Log checksum FAC11A549040881293D96024DF708E00CF654B5F49C11387C1B9491840F81234 ====

cue CD 1

REM DISCID 0C0F9D11REM COMMENT "ExactAudioCopy v1.3"PERFORMER "Bad & God"TITLE "Saint - Petersburg Shepot FM"REM COMPOSER ""FILE "Bad & God - Saint - Petersburg Shepot FM.flac" WAVE TRACK 01 AUDIO TITLE "Saint - Petersburg Shepot FM" PERFORMER "Bad & God" REM COMPOSER "" FLAGS DCP INDEX 01 00:00:00 TRACK 02 AUDIO TITLE "Saint - Petersburg Shepot FM" PERFORMER "Bad & God" REM COMPOSER "" FLAGS DCP INDEX 01 05:24:51 TRACK 03 AUDIO TITLE "Saint - Petersburg Shepot FM" PERFORMER "Bad & God" REM COMPOSER "" FLAGS DCP INDEX 01 07:35:12 TRACK 04 AUDIO TITLE "Saint - Petersburg Shepot FM" PERFORMER "Bad & God" REM COMPOSER "" FLAGS DCP INDEX 01 11:56:05 TRACK 05 AUDIO TITLE "Saint - Petersburg Shepot FM" PERFORMER "Bad & God" REM COMPOSER "" FLAGS DCP INDEX 01 14:45:02 TRACK 06 AUDIO TITLE "Saint - Petersburg Shepot FM" PERFORMER "Bad & God" REM COMPOSER "" FLAGS DCP INDEX 01 20:07:45 TRACK 07 AUDIO TITLE "Saint - Petersburg Shepot FM" PERFORMER "Bad & God" REM COMPOSER "" FLAGS DCP INDEX 01 23:57:70 TRACK 08 AUDIO TITLE "Saint - Petersburg Shepot FM" PERFORMER "Bad & God" REM COMPOSER "" FLAGS DCP INDEX 01 25:53:07 TRACK 09 AUDIO TITLE "Saint - Petersburg Shepot FM" PERFORMER "Bad & God" REM COMPOSER "" FLAGS DCP INDEX 01 29:05:00 TRACK 10 AUDIO TITLE "Saint - Petersburg Shepot FM" PERFORMER "Bad & God" REM COMPOSER "" FLAGS DCP INDEX 01 31:07:61 TRACK 11 AUDIO TITLE "Saint - Petersburg Shepot FM" PERFORMER "Bad & God" REM COMPOSER "" FLAGS DCP INDEX 01 34:58:00 TRACK 12 AUDIO TITLE "Saint - Petersburg Shepot FM" PERFORMER "Bad & God" REM COMPOSER "" FLAGS DCP INDEX 01 37:16:10 TRACK 13 AUDIO TITLE "Saint - Petersburg Shepot FM" PERFORMER "Bad & God" REM COMPOSER "" FLAGS DCP INDEX 01 41:37:06 TRACK 14 AUDIO TITLE "Saint - Petersburg Shepot FM" PERFORMER "Bad & God" REM COMPOSER "" FLAGS DCP INDEX 01 48:16:23 TRACK 15 AUDIO TITLE "Saint - Petersburg Shepot FM" PERFORMER "Bad & God" REM COMPOSER "" FLAGS DCP INDEX 01 53:23:36 TRACK 16 AUDIO TITLE "Saint - Petersburg Shepot FM" PERFORMER "Bad & God" REM COMPOSER "" FLAGS DCP INDEX 01 55:26:22 TRACK 17 AUDIO TITLE "Saint - Petersburg Shepot FM" PERFORMER "Bad & God" REM COMPOSER "" FLAGS DCP INDEX 01 60:41:06

Log EAC CD 2

Exact Audio Copy V1.3 from 2. September 2016
EAC extraction logfile from 23. June 2018, 16:13
Jungl / Saint - Petersburg Shepot FM
Used drive : ASUS SDRW-08D2S-U Adapter: 8 ID: 6
Read mode : SecureUtilize accurate stream : YesDefeat audio cache : YesMake use of C2 pointers : No
Read offset correction : 6Overread into Lead-In and Lead-Out : NoFill up missing offset samples with silence : YesDelete leading and trailing silent blocks : NoNull samples used in CRC calculations : YesUsed interface : Installed external ASPI interface
Used output format : User Defined EncoderSelected bitrate : 128 kBit/sQuality : HighAdd ID3 tag : NoCommand line compressor : D:\flac-1.3.2-win\win64\flac.exeAdditional command line options : -V -8 -T "Date=%year%" -T "COMMENT=ripped by Andy aka yetiisyou" -T "Genre=%genre%" %source%
TOC of the extracted CD
Track | Start | Length | Start sector | End sector --------------------------------------------------------- 1 | 0:00.00 | 6:59.74 | 0 | 31498 2 | 6:59.74 | 3:48.02 | 31499 | 48600 3 | 10:48.01 | 5:39.20 | 48601 | 74045 4 | 16:27.21 | 4:40.40 | 74046 | 95085 5 | 21:07.61 | 4:40.68 | 95086 | 116153 6 | 25:48.54 | 5:47.40 | 116154 | 142218 7 | 31:36.19 | 5:19.55 | 142219 | 166198 8 | 36:55.74 | 3:07.22 | 166199 | 180245 9 | 40:03.21 | 4:18.57 | 180246 | 199652 10 | 44:22.03 | 4:53.48 | 199653 | 221675 11 | 49:15.51 | 4:09.55 | 221676 | 240405 12 | 53:25.31 | 4:18.00 | 240406 | 259755 13 | 57:43.31 | 5:28.15 | 259756 | 284370
Range status and errors
Selected range
Filename E:\!Ripped by Andy aka yetiisyou\VA - Bad & God + Jungl - Saint - Petersburg Shepot FM [2008]\Jungl - Saint - Petersburg Shepot FM.wav
Peak level 96.4 % Extraction speed 5.1 X Range quality 100.0 % Test CRC F359FFDE Copy CRC F359FFDE Copy OK
No errors occurred
AccurateRip summary
Track 1 accurately ripped (confidence 1) [E9C26A45] (AR v2)Track 2 accurately ripped (confidence 1) [421D7D75] (AR v2)Track 3 accurately ripped (confidence 1) [7F297E66] (AR v2)Track 4 accurately ripped (confidence 1) [C5D1C0D9] (AR v2)Track 5 accurately ripped (confidence 1) [387D11A9] (AR v2)Track 6 accurately ripped (confidence 1) [3637AA3D] (AR v2)Track 7 accurately ripped (confidence 1) [93207FB3] (AR v2)Track 8 accurately ripped (confidence 1) [3B9E2CEF] (AR v2)Track 9 accurately ripped (confidence 1) [38B1ADA6] (AR v2)Track 10 accurately ripped (confidence 1) [750C3B54] (AR v2)Track 11 accurately ripped (confidence 1) [36BC995D] (AR v2)Track 12 accurately ripped (confidence 1) [0BE4838B] (AR v2)Track 13 accurately ripped (confidence 1) [2FFB8567] (AR v2)
All tracks accurately ripped
End of status report
---- CUETools DB Plugin V2.1.6
[CTDB TOCID: wArqzAodvzbo7FrtztAKYvLGQYc-] foundSubmit result: wArqzAodvzbo7FrtztAKYvLGQYc- has been confirmedTrack | CTDB Status 1 | (1/1) Accurately ripped 2 | (1/1) Accurately ripped 3 | (1/1) Accurately ripped 4 | (1/1) Accurately ripped 5 | (1/1) Accurately ripped 6 | (1/1) Accurately ripped 7 | (1/1) Accurately ripped 8 | (1/1) Accurately ripped 9 | (1/1) Accurately ripped 10 | (1/1) Accurately ripped 11 | (1/1) Accurately ripped 12 | (1/1) Accurately ripped 13 | (1/1) Accurately ripped
==== Log checksum B5726F1F149622E103C562FBB4D00C8999D57BD07F631887A5690F0DEED87A2D ====

cue CD 2

REM DISCID C30ECF0DREM COMMENT "ExactAudioCopy v1.3"PERFORMER "Jungl"TITLE "Saint - Petersburg Shepot FM"REM COMPOSER ""FILE "Jungl - Saint - Petersburg Shepot FM.flac" WAVE TRACK 01 AUDIO TITLE "Saint - Petersburg Shepot FM" PERFORMER "Jungl" REM COMPOSER "" FLAGS DCP INDEX 01 00:00:00 TRACK 02 AUDIO TITLE "Saint - Petersburg Shepot FM" PERFORMER "Jungl" REM COMPOSER "" FLAGS DCP INDEX 01 06:59:74 TRACK 03 AUDIO TITLE "Saint - Petersburg Shepot FM" PERFORMER "Jungl" REM COMPOSER "" FLAGS DCP INDEX 01 10:48:01 TRACK 04 AUDIO TITLE "Saint - Petersburg Shepot FM" PERFORMER "Jungl" REM COMPOSER "" FLAGS DCP INDEX 01 16:27:21 TRACK 05 AUDIO TITLE "Saint - Petersburg Shepot FM" PERFORMER "Jungl" REM COMPOSER "" FLAGS DCP INDEX 01 21:07:61 TRACK 06 AUDIO TITLE "Saint - Petersburg Shepot FM" PERFORMER "Jungl" REM COMPOSER "" FLAGS DCP INDEX 01 25:48:54 TRACK 07 AUDIO TITLE "Saint - Petersburg Shepot FM" PERFORMER "Jungl" REM COMPOSER "" FLAGS DCP INDEX 01 31:36:19 TRACK 08 AUDIO TITLE "Saint - Petersburg Shepot FM" PERFORMER "Jungl" REM COMPOSER "" FLAGS DCP INDEX 01 36:55:74 TRACK 09 AUDIO TITLE "Saint - Petersburg Shepot FM" PERFORMER "Jungl" REM COMPOSER "" FLAGS DCP INDEX 01 40:03:21 TRACK 10 AUDIO TITLE "Saint - Petersburg Shepot FM" PERFORMER "Jungl" REM COMPOSER "" FLAGS DCP INDEX 01 44:22:03 TRACK 11 AUDIO TITLE "Saint - Petersburg Shepot FM" PERFORMER "Jungl" REM COMPOSER "" FLAGS DCP INDEX 01 49:15:51 TRACK 12 AUDIO TITLE "Saint - Petersburg Shepot FM" PERFORMER "Jungl" REM COMPOSER "" FLAGS DCP INDEX 01 53:25:31 TRACK 13 AUDIO TITLE "Saint - Petersburg Shepot FM" PERFORMER "Jungl" REM COMPOSER "" FLAGS DCP INDEX 01 57:43:31


[islamvillage.com]_t_5641905.torrent
Торрент: Зарегистрирован ·  [ 2018-11-14 22:01 ] ·  4e9a1fecf917079dc77e5f1b35e1a993eb7201f0

17 KB

Статус: проверено
Скачан: 0 раз
Размер: 793 MB
Оценка: 
(Голосов: 0)
Сказали спасибо: 0  Спасибо
Похожие темы
[Профиль]    [ЛС]
Показать сообщения:    
Ответить на тему

Текущее время: Сегодня 23:33

Часовой пояс: GMT + 7



Вы не можете начинать темы
Вы не можете отвечать на сообщения
Вы не можете редактировать свои сообщения
Вы не можете удалять свои сообщения
Вы не можете голосовать в опросах
Вы не можете прикреплять файлы к сообщениям
Вы можете скачивать файлы


Damy i Wieśniaczki. Rosja - s02e15 | Yukihiro Takahashi 1996 Portrait With No Name {TOCT-9695} | Newborn Baby Doll Gift Toy Soft Vinyl Silicone Lifelike Xmas KidsToddler Girl UK