(Techno) [CDM] Playboy - In Da Jungle - 1997, FLAC (tracks+.cue), lossless

Ответить на тему
Статистика раздачи [Обновить пиров]
Размер:  146 MB   |    Зарегистрирован:  2 месяца 4 дня   |    Скачан:  0 раз

Полного источника не было: Никогда

 
   
 
 
 
Автор Сообщение

islamvillage.com

Создавать темы 14-Ноя-2018 22:03

[Цитировать]

[img=right]http://i3.imageban.ru/out/2018/11/08/a83855f58934f...085de2.png[/img]
Playboy / In Da Jungle
Жанр: Techno
Носитель: CDM
Год издания: 1997
Издатель (лейбл): ZYX Music
Номер по каталогу: ZYX 8597-8
Аудиокодек: FLAC (*.flac)
Тип рипа: tracks+.cue
Битрейт аудио: lossless
Продолжительность: 18:47
Источник (релизер): свой рип
Наличие сканов в содержимом раздачи: да
Треклист:
01. Playboy - In Da Jungle (7' Cut) (3:54)
02. Playboy - In Da Jungle (Pascal F.E.O.S. Mix) (8:30)
03. Playboy - In Da Jungle (Da Original) (6:23)

Лог создания рипа

Exact Audio Copy V1.3 from 2. September 2016
EAC extraction logfile from 17. June 2018, 10:50
Playboy / In Da Jungle
Used drive : ASUS DRW-24B5ST Adapter: 6 ID: 0
Read mode : SecureUtilize accurate stream : YesDefeat audio cache : YesMake use of C2 pointers : No
Read offset correction : 6Overread into Lead-In and Lead-Out : NoFill up missing offset samples with silence : YesDelete leading and trailing silent blocks : NoNull samples used in CRC calculations : YesUsed interface : Installed external ASPI interfaceGap handling : Appended to previous track
Used output format : User Defined EncoderSelected bitrate : 128 kBit/sQuality : HighAdd ID3 tag : NoCommand line compressor : D:\flac-1.3.2-win\win64\flac.exeAdditional command line options : -8 -V -T "ARTIST=%artist%" -T "TITLE=%title%" -T "ALBUM=%albumtitle%" -T "DATE=%year%" -T "TRACKNUMBER=%tracknr%" -T "GENRE=%genre%" -T "COMMENT=ripped by Andy aka yetiisyou" %source%
TOC of the extracted CD
Track | Start | Length | Start sector | End sector --------------------------------------------------------- 1 | 0:00.00 | 3:54.34 | 0 | 17583 2 | 3:54.34 | 8:30.02 | 17584 | 55835 3 | 12:24.36 | 6:22.57 | 55836 | 84542
Track 1
Filename E:\Ripped by Andy aka yetiisyou\Playboy - In Da Jungle [ZYX 8597-8] [1997]\01. Playboy - In Da Jungle (7'' Cut).wav
Pre-gap length 0:00:02.00
Peak level 94.9 % Extraction speed 3.3 X Track quality 100.0 % Test CRC DB486B18 Copy CRC DB486B18 Accurately ripped (confidence 2) [D574BEC6] (AR v2) Copy OK
Track 2
Filename E:\Ripped by Andy aka yetiisyou\Playboy - In Da Jungle [ZYX 8597-8] [1997]\02. Playboy - In Da Jungle (Pascal F.E.O.S. Mix).wav
Pre-gap length 0:00:01.73
Peak level 94.9 % Extraction speed 4.3 X Track quality 100.0 % Test CRC CF3FD7B9 Copy CRC CF3FD7B9 Accurately ripped (confidence 2) [B2CDDEF1] (AR v2) Copy OK
Track 3
Filename E:\Ripped by Andy aka yetiisyou\Playboy - In Da Jungle [ZYX 8597-8] [1997]\03. Playboy - In Da Jungle (Da Original).wav
Pre-gap length 0:00:01.73
Peak level 94.9 % Extraction speed 4.8 X Track quality 100.0 % Test CRC 2BDFDB11 Copy CRC 2BDFDB11 Accurately ripped (confidence 2) [37EC8AF2] (AR v2) Copy OK
All tracks accurately ripped
No errors occurred
End of status report
---- CUETools DB Plugin V2.1.6
[CTDB TOCID: 8.rlSOoZT0sgghjnpd8y1si_a4Y-] foundSubmit result: 8.rlSOoZT0sgghjnpd8y1si_a4Y- has been confirmedTrack | CTDB Status 1 | (2/2) Accurately ripped 2 | (2/2) Accurately ripped 3 | (2/2) Accurately ripped
==== Log checksum 3DEFFA9DC0482587B7A874B471447C7370E0DF46BD0E65B0B1247BA1755BFD87 ====

Содержание индексной карты (.CUE)

REM DATE 1997REM DISCID 1E046703REM COMMENT "ExactAudioCopy v1.3"PERFORMER "Playboy"TITLE "In Da Jungle"REM COMPOSER ""FILE "01. Playboy - In Da Jungle (7'' Cut).wav" WAVE TRACK 01 AUDIO TITLE "In Da Jungle (7' Cut)" PERFORMER "Playboy" REM COMPOSER "" ISRC DEA319700319 INDEX 01 00:00:00 TRACK 02 AUDIO TITLE "In Da Jungle (Pascal F.E.O.S. Mix)" PERFORMER "Playboy" REM COMPOSER "" ISRC DEA319700320 INDEX 00 03:52:36FILE "02. Playboy - In Da Jungle (Pascal F.E.O.S. Mix).wav" WAVE INDEX 01 00:00:00 TRACK 03 AUDIO TITLE "In Da Jungle (Da Original)" PERFORMER "Playboy" REM COMPOSER "" ISRC DEA319700321 INDEX 00 08:28:04FILE "03. Playboy - In Da Jungle (Da Original).wav" WAVE INDEX 01 00:00:00


[islamvillage.com]_t_5641440.torrent
Торрент: Зарегистрирован ·  [ 2018-11-14 22:01 ] ·  64bada1afef8be42d09a0baf279efb71a8d0d24b

12 KB

Статус: проверено
Скачан: 0 раз
Размер: 146 MB
Оценка: 
(Голосов: 0)
Сказали спасибо: 0  Спасибо
Похожие темы
[Профиль]    [ЛС]
Показать сообщения:    
Ответить на тему

Текущее время: Сегодня 23:00

Часовой пояс: GMT + 7



Вы не можете начинать темы
Вы не можете отвечать на сообщения
Вы не можете редактировать свои сообщения
Вы не можете удалять свои сообщения
Вы не можете голосовать в опросах
Вы не можете прикреплять файлы к сообщениям
Вы можете скачивать файлы


Another Time | X-Men: Apocalypse | Favorite to OneNote for IE