(Vocal Jazz / Jazz, Pop / Blues) Michael Buble (Bublé) - Love (Deluxe Edition) - 2018, FLAC (tracks+.cue) lossless

Ответить на тему
Статистика раздачи [Обновить пиров]
Размер:  281 MB   |    Зарегистрирован:  1 месяц 25 дней   |    Скачан:  0 раз

Полного источника не было: Никогда

 
   
 
 
 
Автор Сообщение

islamvillage.com

Создавать темы 23-Ноя-2018 01:56

[Цитировать]

Michael Buble (Bublé) - Love (Deluxe Edition)[img=right]http://i106.fastpic.ru/big/2018/1120/d4/00c045eeed...6f4dd4.jpg[/img]
Жанр: Vocal Jazz / Jazz, Pop / Blues
Год издания диска: 2018
Страна исполнителя (группы): Canada (Burnaby)
Издатель (лейбл): Reprise Records
Номер по каталогу: 9362-49028-7
Аудиокодек: FLAC
Тип рипа: tracks+.cue
Битрейт аудио: lossless
Продолжительность: 00:45:04
Источник: Спасибо, Filex
Наличие сканов в содержимом раздачи: только обложка
Треклист:
01. When I Fall in Love (4:03)
02. I Only Have Eyes for You (3:23)
03. Love You Anymore (3:03)
04. La vie en rose (3:50)
05. My Funny Valentine (4:26)
06. Such a Night (3:17)
07. Forever Now (3:40)
08. Help Me Make It Through the Night (3:42)
09. Unforgettable (3:08)
10. When You're Smiling (2:51)
11. Where or When (3:06)
12. When You're Not Here (3:38)
13. I Get a Kick Out of You (2:57)

Лог создания рипа:

Exact Audio Copy V1.3 from 2. September 2016
EAC extraction logfile from 19. November 2018, 18:15
Michael Bublé / Love
Used drive : PLEXTOR CD-R PX-230A Adapter: 1 ID: 1
Read mode : SecureUtilize accurate stream : YesDefeat audio cache : YesMake use of C2 pointers : No
Read offset correction : 738Overread into Lead-In and Lead-Out : NoFill up missing offset samples with silence : YesDelete leading and trailing silent blocks : NoNull samples used in CRC calculations : YesUsed interface : Native Win32 interface for Win NT & 2000Gap handling : Appended to previous track
Used output format : User Defined EncoderSelected bitrate : 1024 kBit/sQuality : HighAdd ID3 tag : NoCommand line compressor : C:\Program Files\Exact Audio Copy\Flac\flac.exeAdditional command line options : -6 -V -T "ARTIST=%artist%" -T "TITLE=%title%" -T "ALBUM=%albumtitle%" -T "DATE=%year%" -T "TRACKNUMBER=%tracknr%" -T "GENRE=%genre%" -T "COMMENT=%comment%" -T "ALBUMARTIST=%albuminterpret%" -T "COMPOSER=%composer%" -T "DISCNUMBER=%cdnumber%" -T "TOTALDISCS=%totalcds%" -T "TOTALTRACKS=%numtracks%" %source% -o %dest%
TOC of the extracted CD
Track | Start | Length | Start sector | End sector --------------------------------------------------------- 1 | 0:00.00 | 4:03.36 | 0 | 18260 2 | 4:03.36 | 3:22.63 | 18261 | 33473 3 | 7:26.24 | 3:02.44 | 33474 | 47167 4 | 10:28.68 | 3:49.70 | 47168 | 64412 5 | 14:18.63 | 4:25.48 | 64413 | 84335 6 | 18:44.36 | 3:17.10 | 84336 | 99120 7 | 22:01.46 | 3:40.18 | 99121 | 115638 8 | 25:41.64 | 3:42.10 | 115639 | 132298 9 | 29:23.74 | 3:08.01 | 132299 | 146399 10 | 32:32.00 | 2:50.50 | 146400 | 159199 11 | 35:22.50 | 3:05.44 | 159200 | 173118 12 | 38:28.19 | 3:38.18 | 173119 | 189486 13 | 42:06.37 | 2:57.07 | 189487 | 202768
Track 1
Filename C:\Ripped by Filex\01 - Michael Bublé - When I Fall in Love.wav
Pre-gap length 0:00:02.00
Peak level 100.0 % Extraction speed 5.4 X Track quality 100.0 % Test CRC 2D1D13F4 Copy CRC 2D1D13F4 Track not present in AccurateRip database Copy OK
Track 2
Filename C:\Ripped by Filex\02 - Michael Bublé - I Only Have Eyes for You.wav
Peak level 100.0 % Extraction speed 4.9 X Track quality 99.9 % Test CRC C0B5E686 Copy CRC C0B5E686 Track not present in AccurateRip database Copy OK
Track 3
Filename C:\Ripped by Filex\03 - Michael Bublé - Love You Anymore.wav
Peak level 100.0 % Extraction speed 4.8 X Track quality 99.9 % Test CRC 92A1BDDD Copy CRC 92A1BDDD Track not present in AccurateRip database Copy OK
Track 4
Filename C:\Ripped by Filex\04 - Michael Bublé feat. Cécile McLorin Salvant - La Vie En Rose.wav
Peak level 100.0 % Extraction speed 5.6 X Track quality 100.0 % Test CRC 710192BD Copy CRC 710192BD Track not present in AccurateRip database Copy OK
Track 5
Filename C:\Ripped by Filex\05 - Michael Bublé - My Funny Valentine.wav
Peak level 100.0 % Extraction speed 5.7 X Track quality 100.0 % Test CRC 90640813 Copy CRC 90640813 Track not present in AccurateRip database Copy OK
Track 6
Filename C:\Ripped by Filex\06 - Michael Bublé - Such a Night.wav
Peak level 100.0 % Extraction speed 5.5 X Track quality 100.0 % Test CRC 3CD8F79C Copy CRC 3CD8F79C Track not present in AccurateRip database Copy OK
Track 7
Filename C:\Ripped by Filex\07 - Michael Bublé - Forever Now.wav
Peak level 100.0 % Extraction speed 5.5 X Track quality 100.0 % Test CRC 8112A12F Copy CRC 8112A12F Track not present in AccurateRip database Copy OK
Track 8
Filename C:\Ripped by Filex\08 - Michael Bublé feat. Loren Allred - Help Me Make It Through the Night.wav
Peak level 100.0 % Extraction speed 5.4 X Track quality 100.0 % Test CRC 43391BD4 Copy CRC 43391BD4 Track not present in AccurateRip database Copy OK
Track 9
Filename C:\Ripped by Filex\09 - Michael Bublé - Unforgettable.wav
Peak level 100.0 % Extraction speed 5.4 X Track quality 100.0 % Test CRC 5220DA83 Copy CRC 5220DA83 Track not present in AccurateRip database Copy OK
Track 10
Filename C:\Ripped by Filex\10 - Michael Bublé - When You're Smiling.wav
Peak level 100.0 % Extraction speed 4.8 X Track quality 99.9 % Test CRC D9E625FF Copy CRC D9E625FF Track not present in AccurateRip database Copy OK
Track 11
Filename C:\Ripped by Filex\11 - Michael Bublé - Where or When.wav
Peak level 100.0 % Extraction speed 4.8 X Track quality 99.9 % Test CRC A84C990B Copy CRC A84C990B Track not present in AccurateRip database Copy OK
Track 12
Filename C:\Ripped by Filex\12 - Michael Bublé - When You're Not Here.wav
Peak level 100.0 % Extraction speed 4.7 X Track quality 100.0 % Test CRC DAAF96AF Copy CRC DAAF96AF Track not present in AccurateRip database Copy OK
Track 13
Filename C:\Ripped by Filex\13 - Michael Bublé - I Get a Kick out of You.wav
Peak level 100.0 % Extraction speed 5.2 X Track quality 100.0 % Test CRC 36455319 Copy CRC 36455319 Track not present in AccurateRip database Copy OK
None of the tracks are present in the AccurateRip database
No errors occurred
End of status report
---- CUETools DB Plugin V2.1.6
[CTDB TOCID: GuSbUFkzvWyYm9NbceQ39us3VKc-] foundSubmit result: GuSbUFkzvWyYm9NbceQ39us3VKc- has been confirmedTrack | CTDB Status 1 | (11/11) Accurately ripped 2 | (11/11) Accurately ripped 3 | (11/11) Accurately ripped 4 | (11/11) Accurately ripped 5 | (11/11) Accurately ripped 6 | (11/11) Accurately ripped 7 | (11/11) Accurately ripped 8 | (11/11) Accurately ripped 9 | (11/11) Accurately ripped 10 | (11/11) Accurately ripped 11 | (11/11) Accurately ripped 12 | (11/11) Accurately ripped 13 | (11/11) Accurately ripped
==== Log checksum 0B4A11C21C9A8823E81C8DC90375A955F1BA1A5302309A223B1ADC46DC5490E5 ====

LOG (.CUE):

REM GENRE PopREM DATE 2018REM DISCID 9A0A8F0DREM COMMENT "ExactAudioCopy v1.3"PERFORMER "Michael Bublй"TITLE "Love"FILE "01 - When I Fall in Love.wav" WAVE TRACK 01 AUDIO TITLE "When I Fall in Love" PERFORMER "Michael Bublй" INDEX 01 00:00:00FILE "02 - I Only Have Eyes for You.wav" WAVE TRACK 02 AUDIO TITLE "I Only Have Eyes for You" PERFORMER "Michael Bublй" INDEX 01 00:00:00FILE "03 - Love You Anymore.wav" WAVE TRACK 03 AUDIO TITLE "Love You Anymore" PERFORMER "Michael Bublй" INDEX 01 00:00:00FILE "04 - La vie en rose.wav" WAVE TRACK 04 AUDIO TITLE "La vie en rose" PERFORMER "Michael Bublй feat. Cйcile McLorin Salvant" INDEX 01 00:00:00FILE "05 - My Funny Valentine.wav" WAVE TRACK 05 AUDIO TITLE "My Funny Valentine" PERFORMER "Michael Bublй" INDEX 01 00:00:00FILE "06 - Such a Night.wav" WAVE TRACK 06 AUDIO TITLE "Such a Night" PERFORMER "Michael Bublй" INDEX 01 00:00:00FILE "07 - Forever Now.wav" WAVE TRACK 07 AUDIO TITLE "Forever Now" PERFORMER "Michael Bublй" INDEX 01 00:00:00FILE "08 - Help Me Make It Through the Night.wav" WAVE TRACK 08 AUDIO TITLE "Help Me Make It Through the Night" PERFORMER "Michael Bublй feat. Loren Allred" INDEX 01 00:00:00FILE "09 - Unforgettable.wav" WAVE TRACK 09 AUDIO TITLE "Unforgettable" PERFORMER "Michael Bublй" INDEX 01 00:00:00FILE "10 - When You're Smiling.wav" WAVE TRACK 10 AUDIO TITLE "When You're Smiling" PERFORMER "Michael Bublй" INDEX 01 00:00:00FILE "11 - Where or When.wav" WAVE TRACK 11 AUDIO TITLE "Where or When" PERFORMER "Michael Bublй" INDEX 01 00:00:00FILE "12 - When You're Not Here.wav" WAVE TRACK 12 AUDIO TITLE "When You're Not Here" PERFORMER "Michael Bublй" INDEX 01 00:00:00FILE "13 - I Get a Kick Out of You.wav" WAVE TRACK 13 AUDIO TITLE "I Get a Kick Out of You" PERFORMER "Michael Bublй" INDEX 01 00:00:00
-

Доп. информация:

love is Bublé's first release of any kind in two years, following his eldest son Noah being diagnosed with liver cancer, which he has said made him consider "never returning to music". He later returned to write and record songs in the studio as his son's condition improved. On his approach to the album, Bublé stated: "My end game for the new record was to create a series of short cinematic stories for each song I chose and have it stand on its own." Once the rough outline of his album concept was formed he pitched the idea to his band members while they were visiting his Vancouver home for a casual jam session and video games.
For the album, Bublé wrote the original song "Forever Now", and co-wrote the track "Love You Anymore" with Charlie Puth. The singer coaxed his mentor David Foster out of retirement from studio projects to oversee projection of much of the album. Bublé originally thought he would title the album My Romance in reference to his rekindled romance with music, but decided against it because he felt the title would involve frequent contextual explanation.
“I didn’t anticipate returning to recording or performing and I was fine with that. My entire world view has changed completely these last few years. I wanted to spend all my time with my wife and kids. That was my focus. During that time, I also learned how much love and humanity is out in the world from the prayers and good wishes we received. But slowly, along with understanding what my priorities in life are, I began to feel a new commitment to express the emotions and lessons I’ve embraced. Whether I am the narrator, the observer, the main character, the dreamer, the broken-hearted guy at a bar or having the night of a lifetime, I have stories to tell on this record. It’s all there in the songs. I have had so many blessings in life and one of them is that I hold the torch to keep these songs alive for generations to come. I take the responsibility very seriously. My end game for the new record was to create a series of short cinematic stories for each song I chose and have it stand on its own. I’m so proud of what we accomplished,” commented Bublé.
Bublé co-produced his new album and brings new love to several rich classics from the American Songbook. The album opens with the idealistic and dreamy “When I Fall In Love.” It also includes a haunting take on another Rogers & Hart standard, “My Funny Valentine.” Other standouts are an ebullient “When You’re Smiling,” a swinging “Such A Night” as well as Bublé’s hand-picked favorites including “Unforgettable,” “Help Me Make It Through The Night,” and “I Only Have Eyes For You.” Two standout tracks are Charlie Puth’s swinging “Love You Anymore” and an achingly poignant “La Vie En Rose” - a Bublé duet featuring singer Cecile McLorin Salvant. A touching Bublé penned original ‘Forever Now” demonstrates his songwriting skills, which were previously shown in such Bublé written hits like “Home,” “Haven’t Met You Yet” and “Everything.” The album closes with a show-stopping version of “Where or When.” Love was produced by David Foster, longtime collaborator Jochem van der Saag and Michael Bublé. The trio brought Bublé’s visions to life with luscious arrangements surrounding his rich vocals.
- -


[islamvillage.com]_t_5647334.torrent
Торрент: Зарегистрирован ·  [ 2018-11-23 01:52 ] ·  8f2b825a83c1ae0e68e5bb43c28d6751239c0dd9

23 KB

Статус: проверено
Скачан: 0 раз
Размер: 281 MB
Оценка: 
(Голосов: 0)
Сказали спасибо: 0  Спасибо
Похожие темы
[Профиль]    [ЛС]
Показать сообщения:    
Ответить на тему

Текущее время: Сегодня 11:19

Часовой пояс: GMT + 7



Вы не можете начинать темы
Вы не можете отвечать на сообщения
Вы не можете редактировать свои сообщения
Вы не можете удалять свои сообщения
Вы не можете голосовать в опросах
Вы не можете прикреплять файлы к сообщениям
Вы можете скачивать файлы


Terminos de uso | F 360 F1 Spider Challenge Stradale | Solette Alzatacco Cuscino D’Aria +3 +5 +7 Cm Alza Statura Regolabile 225-270 -