(Vocal Jazz, Swing) [CD] Connee Boswell - Connee Boswell and the Original Memphis Five in Hi-Fi - 1956 (2007 Japan Edition), FLAC (tracks+.cue), lossless

Ответить на тему
Статистика раздачи [Обновить пиров]
Размер:  116 MB   |    Зарегистрирован:  1 месяц 22 дня   |    Скачан:  0 раз

Полного источника не было: Никогда

 
   
 
 
 
Автор Сообщение

islamvillage.com

Создавать темы 23-Ноя-2018 22:49

[Цитировать]

Connee Boswell - Connee Boswell and the Original Memphis Five in Hi-Fi
[img=right]http://i106.fastpic.ru/big/2018/1123/da/9268660e70...1233da.jpg[/img]
Жанр: Vocal Jazz, Swing
Носитель: CD
Страна-производитель диска (релиза): Япония
Год издания: 1956 (2007)
Издатель (лейбл): BMG Japan, Inc.
Номер по каталогу: BVCJ-38156
Страна исполнителя (группы): США
Аудиокодек: FLAC (*.flac)
Тип рипа: tracks+.cue
Битрейт аудио: lossless
Продолжительность: 34:17
Источник (релизер): template
Наличие сканов в содержимом раздачи: нет
Треклист:
01. When My Sugar Walks Down the Street (2:44)
02. Say It Isn't So (3:24)
03. At the Jazz Band Ball (2:43)
04. Japanese Sandman (2:28)
05. Make Love to Me (2:59)
06. My Honey's Loving Arms (2:50)
07. Pagan Love Song (2:47)
08. Giannina Mia (2:51)
09. Singin' the Blues (3:37)
10. All of Me (1:55)
11. I Wish I Could Shimmy Like My Sister Kate (3:11)
12. When the Saints Go Marching In (2:48)
Состав:
Connie Boswell - vocals
James Lytell - clarinet
Billy Butterfield - trumpet
Milford Mole - trombone
Frank Signorelli - piano
Eugene Traxler - bass
Anthony Sbarbaro - drums

Лог создания рипа

X Lossless Decoder version 20181019 (151.1)
XLD extraction logfile from 2018-11-21 19:14:34 -0500
Connee Boswell and the Original Memphis Five / Connee Boswell and the Original Memphis Five in Hi-Fi
Used drive : TSSTcorp BDDVDW SE-506CB (revision TS02)Media type : Pressed CD
Ripper mode : XLD Secure RipperDisable audio cache : OK for the drive with a cache less than 1375KiBMake use of C2 pointers : NORead offset correction : 6Max retry count : 20Gap status : Analyzed, Appended (except HTOA)
TOC of the extracted CD Track | Start | Length | Start sector | End sector --------------------------------------------------------- 1 | 00:00:00 | 02:44:01 | 0 | 12300 2 | 02:44:01 | 03:24:24 | 12301 | 27624 3 | 06:08:25 | 02:43:05 | 27625 | 39854 4 | 08:51:30 | 02:27:73 | 39855 | 50952 5 | 11:19:28 | 02:59:19 | 50953 | 64396 6 | 14:18:47 | 02:49:55 | 64397 | 77126 7 | 17:08:27 | 02:47:32 | 77127 | 89683 8 | 19:55:59 | 02:51:26 | 89684 | 102534 9 | 22:47:10 | 03:36:50 | 102535 | 118784 10 | 26:23:60 | 01:55:13 | 118785 | 127422 11 | 28:18:73 | 03:11:00 | 127423 | 141747 12 | 31:29:73 | 02:48:33 | 141748 | 154380
AccurateRip Summary (DiscID: 000f5cde-008f36b5-98080a0c) Track 01 : OK (v2, confidence 2/2) Track 02 : OK (v2, confidence 2/2) Track 03 : OK (v2, confidence 2/2) Track 04 : OK (v2, confidence 2/2) Track 05 : OK (v2, confidence 2/2) Track 06 : OK (v2, confidence 2/2) Track 07 : OK (v2, confidence 2/2) Track 08 : OK (v2, confidence 2/2) Track 09 : OK (v2, confidence 2/2) Track 10 : OK (v2, confidence 2/2) Track 11 : OK (v2, confidence 2/2) Track 12 : OK (v2, confidence 2/2) ->All tracks accurately ripped.
All Tracks Album gain : -8.79 dB Peak : 0.999969 Statistics Read error : 0 Jitter error (maybe fixed) : 22 Retry sector count : 1845 Damaged sector count : 0
Track 01 Filename : /Users/jhmac/Music/XLD rips/Connee Boswell and the Original Memphis Five - Connee Boswell and the Original Memphis Five in Hi-Fi (1957) [FLAC]/01 When My Sugar Walks Down The Street.flac Pre-gap length : 00:02:00
Track gain : -9.24 dB Peak : 0.977173 CRC32 hash (test run) : 39395265 CRC32 hash : 39395265 CRC32 hash (skip zero) : 60013860 AccurateRip v1 signature : 82AC7C39 AccurateRip v2 signature : 63AFDF6F ->Accurately ripped (v2, confidence 2/2) Statistics Read error : 0 Jitter error (maybe fixed) : 1 Retry sector count : 187 Damaged sector count : 0
Track 02 Filename : /Users/jhmac/Music/XLD rips/Connee Boswell and the Original Memphis Five - Connee Boswell and the Original Memphis Five in Hi-Fi (1957) [FLAC]/02 Say It Isn't So.flac Pre-gap length : 00:02:38
Track gain : -7.02 dB Peak : 0.999969 CRC32 hash (test run) : 76286360 CRC32 hash : 76286360 CRC32 hash (skip zero) : 30F1E716 AccurateRip v1 signature : 67FDF814 AccurateRip v2 signature : C415F9D0 ->Accurately ripped (v2, confidence 2/2) Statistics Read error : 0 Jitter error (maybe fixed) : 4 Retry sector count : 457 Damaged sector count : 0
Track 03 Filename : /Users/jhmac/Music/XLD rips/Connee Boswell and the Original Memphis Five - Connee Boswell and the Original Memphis Five in Hi-Fi (1957) [FLAC]/03 At The Jazz Band Ball.flac Pre-gap length : 00:02:49
Track gain : -10.32 dB Peak : 0.999969 CRC32 hash (test run) : C2BC69A9 CRC32 hash : C2BC69A9 CRC32 hash (skip zero) : B66F7ECE AccurateRip v1 signature : D3DF7EFB AccurateRip v2 signature : 52956249 ->Accurately ripped (v2, confidence 2/2) Statistics Read error : 0 Jitter error (maybe fixed) : 3 Retry sector count : 0 Damaged sector count : 0
Track 04 Filename : /Users/jhmac/Music/XLD rips/Connee Boswell and the Original Memphis Five - Connee Boswell and the Original Memphis Five in Hi-Fi (1957) [FLAC]/04 Japanese Sandman.flac Pre-gap length : 00:02:21
Track gain : -7.21 dB Peak : 0.999969 CRC32 hash (test run) : 3E483816 CRC32 hash : 3E483816 CRC32 hash (skip zero) : 8C43463D AccurateRip v1 signature : 5900F11E AccurateRip v2 signature : A4CF4B5B ->Accurately ripped (v2, confidence 2/2) Statistics Read error : 0 Jitter error (maybe fixed) : 2 Retry sector count : 177 Damaged sector count : 0
Track 05 Filename : /Users/jhmac/Music/XLD rips/Connee Boswell and the Original Memphis Five - Connee Boswell and the Original Memphis Five in Hi-Fi (1957) [FLAC]/05 Make Love To Me.flac Pre-gap length : 00:02:39
Track gain : -7.77 dB Peak : 0.977173 CRC32 hash (test run) : 30CE6B10 CRC32 hash : 30CE6B10 CRC32 hash (skip zero) : 2A5CE628 AccurateRip v1 signature : 24261ECD AccurateRip v2 signature : 66D8117D ->Accurately ripped (v2, confidence 2/2) Statistics Read error : 0 Jitter error (maybe fixed) : 2 Retry sector count : 0 Damaged sector count : 0
Track 06 Filename : /Users/jhmac/Music/XLD rips/Connee Boswell and the Original Memphis Five - Connee Boswell and the Original Memphis Five in Hi-Fi (1957) [FLAC]/06 My Honey's Loving Arms.flac Pre-gap length : 00:02:37
Track gain : -9.90 dB Peak : 0.999969 CRC32 hash (test run) : 29504682 CRC32 hash : 29504682 CRC32 hash (skip zero) : D55459DB AccurateRip v1 signature : 592C7423 AccurateRip v2 signature : 2CF7EA3D ->Accurately ripped (v2, confidence 2/2) Statistics Read error : 0 Jitter error (maybe fixed) : 1 Retry sector count : 0 Damaged sector count : 0
Track 07 Filename : /Users/jhmac/Music/XLD rips/Connee Boswell and the Original Memphis Five - Connee Boswell and the Original Memphis Five in Hi-Fi (1957) [FLAC]/07 Pagan Love Song.flac Pre-gap length : 00:02:45
Track gain : -8.79 dB Peak : 0.999969 CRC32 hash (test run) : 356BC509 CRC32 hash : 356BC509 CRC32 hash (skip zero) : 417A3297 AccurateRip v1 signature : 1401486C AccurateRip v2 signature : 221DD58F ->Accurately ripped (v2, confidence 2/2) Statistics Read error : 0 Jitter error (maybe fixed) : 1 Retry sector count : 0 Damaged sector count : 0
Track 08 Filename : /Users/jhmac/Music/XLD rips/Connee Boswell and the Original Memphis Five - Connee Boswell and the Original Memphis Five in Hi-Fi (1957) [FLAC]/08 Giannina Mia.flac Pre-gap length : 00:02:36
Track gain : -7.17 dB Peak : 0.999969 CRC32 hash (test run) : 4B85F18D CRC32 hash : 4B85F18D CRC32 hash (skip zero) : 6112F89A AccurateRip v1 signature : 9B069FFF AccurateRip v2 signature : B0205A2D ->Accurately ripped (v2, confidence 2/2) Statistics Read error : 0 Jitter error (maybe fixed) : 0 Retry sector count : 0 Damaged sector count : 0
Track 09 Filename : /Users/jhmac/Music/XLD rips/Connee Boswell and the Original Memphis Five - Connee Boswell and the Original Memphis Five in Hi-Fi (1957) [FLAC]/09 Singin' The Blues.flac Pre-gap length : 00:02:48
Track gain : -8.11 dB Peak : 0.999969 CRC32 hash (test run) : 0639C21F CRC32 hash : 0639C21F CRC32 hash (skip zero) : B2F55A3F AccurateRip v1 signature : C1FB4505 AccurateRip v2 signature : 72E3F125 ->Accurately ripped (v2, confidence 2/2) Statistics Read error : 0 Jitter error (maybe fixed) : 1 Retry sector count : 0 Damaged sector count : 0
Track 10 Filename : /Users/jhmac/Music/XLD rips/Connee Boswell and the Original Memphis Five - Connee Boswell and the Original Memphis Five in Hi-Fi (1957) [FLAC]/10 All Of Me.flac Pre-gap length : 00:02:34
Track gain : -9.43 dB Peak : 0.999969 CRC32 hash (test run) : BD25B7AB CRC32 hash : BD25B7AB CRC32 hash (skip zero) : 515B4573 AccurateRip v1 signature : B6DC75BB AccurateRip v2 signature : 11A5A880 ->Accurately ripped (v2, confidence 2/2) Statistics Read error : 0 Jitter error (maybe fixed) : 1 Retry sector count : 0 Damaged sector count : 0
Track 11 Filename : /Users/jhmac/Music/XLD rips/Connee Boswell and the Original Memphis Five - Connee Boswell and the Original Memphis Five in Hi-Fi (1957) [FLAC]/11 I Wish I Could Shimmy Like My Sister Kate.flac Pre-gap length : 00:01:68
Track gain : -8.51 dB Peak : 0.999390 CRC32 hash (test run) : 77E4F285 CRC32 hash : 77E4F285 CRC32 hash (skip zero) : B4F0CEB6 AccurateRip v1 signature : 9F977F1A AccurateRip v2 signature : A866B143 ->Accurately ripped (v2, confidence 2/2) Statistics Read error : 0 Jitter error (maybe fixed) : 4 Retry sector count : 539 Damaged sector count : 0
Track 12 Filename : /Users/jhmac/Music/XLD rips/Connee Boswell and the Original Memphis Five - Connee Boswell and the Original Memphis Five in Hi-Fi (1957) [FLAC]/12 When The Saints Go Marching In.flac Pre-gap length : 00:02:23
Track gain : -10.43 dB Peak : 0.999969 CRC32 hash (test run) : 76380059 CRC32 hash : 76380059 CRC32 hash (skip zero) : 241C47AC AccurateRip v1 signature : EE06AE30 AccurateRip v2 signature : F67097A2 ->Accurately ripped (v2, confidence 2/2) Statistics Read error : 0 Jitter error (maybe fixed) : 2 Retry sector count : 485 Damaged sector count : 0
No errors occurred
End of status report
-----BEGIN XLD SIGNATURE-----4eeyMBM0DflbZhGfzfvI410AZJdCsCMTbhETXw0BJ00MaW.f5sbjIVpPt.VnMNafhG3JD1GjTgjP2oR8YL8ZsWh9scNoBQ.AmlCse_4-----END XLD SIGNATURE-----

Содержание индексной карты (.CUE)

TITLE "Connee Boswell and the Original Memphis Five in Hi-Fi"PERFORMER "Connee Boswell"CATALOG 4988017651339REM GENRE "Jazz"REM DATE "1956"REM DISCID 98080A0CREM REPLAYGAIN_ALBUM_GAIN -8.79 dBREM REPLAYGAIN_ALBUM_PEAK 0.999969FILE "01 - When My Sugar Walks Down the Street.flac" WAVE TRACK 01 AUDIO TITLE "When My Sugar Walks Down the Street" REM REPLAYGAIN_TRACK_GAIN -9.24 dB REM REPLAYGAIN_TRACK_PEAK 0.977173 INDEX 01 00:00:00 TRACK 02 AUDIO TITLE "Say It Isn't So" REM REPLAYGAIN_TRACK_GAIN -7.02 dB REM REPLAYGAIN_TRACK_PEAK 0.999969 INDEX 00 02:41:38FILE "02 - Say It Isn't So.flac" WAVE INDEX 01 00:00:00 TRACK 03 AUDIO TITLE "At the Jazz Band Ball" REM REPLAYGAIN_TRACK_GAIN -10.32 dB REM REPLAYGAIN_TRACK_PEAK 0.999969 INDEX 00 03:21:50FILE "03 - At the Jazz Band Ball.flac" WAVE INDEX 01 00:00:00 TRACK 04 AUDIO TITLE "Japanese Sandman" REM REPLAYGAIN_TRACK_GAIN -7.21 dB REM REPLAYGAIN_TRACK_PEAK 0.999969 INDEX 00 02:40:59FILE "04 - Japanese Sandman.flac" WAVE INDEX 01 00:00:00 TRACK 05 AUDIO TITLE "Make Love to Me" REM REPLAYGAIN_TRACK_GAIN -7.77 dB REM REPLAYGAIN_TRACK_PEAK 0.977173 INDEX 00 02:25:34FILE "05 - Make Love to Me.flac" WAVE INDEX 01 00:00:00 TRACK 06 AUDIO TITLE "My Honey's Loving Arms" REM REPLAYGAIN_TRACK_GAIN -9.90 dB REM REPLAYGAIN_TRACK_PEAK 0.999969 INDEX 00 02:56:57FILE "06 - My Honey's Loving Arms.flac" WAVE INDEX 01 00:00:00 TRACK 07 AUDIO TITLE "Pagan Love Song" REM REPLAYGAIN_TRACK_GAIN -8.79 dB REM REPLAYGAIN_TRACK_PEAK 0.999969 INDEX 00 02:47:10FILE "07 - Pagan Love Song.flac" WAVE INDEX 01 00:00:00 TRACK 08 AUDIO TITLE "Giannina Mia" REM REPLAYGAIN_TRACK_GAIN -7.17 dB REM REPLAYGAIN_TRACK_PEAK 0.999969 INDEX 00 02:44:71FILE "08 - Giannina Mia.flac" WAVE INDEX 01 00:00:00 TRACK 09 AUDIO TITLE "Singin' the Blues" REM REPLAYGAIN_TRACK_GAIN -8.11 dB REM REPLAYGAIN_TRACK_PEAK 0.999969 INDEX 00 02:48:53FILE "09 - Singin' the Blues.flac" WAVE INDEX 01 00:00:00 TRACK 10 AUDIO TITLE "All of Me" REM REPLAYGAIN_TRACK_GAIN -9.43 dB REM REPLAYGAIN_TRACK_PEAK 0.999969 INDEX 00 03:34:16FILE "10 - All of Me.flac" WAVE INDEX 01 00:00:00 TRACK 11 AUDIO TITLE "I Wish I Could Shimmy Like My Sister Kate" REM REPLAYGAIN_TRACK_GAIN -8.51 dB REM REPLAYGAIN_TRACK_PEAK 0.999390 INDEX 00 01:53:20FILE "11 - I Wish I Could Shimmy Like My Sister Kate.flac" WAVE INDEX 01 00:00:00 TRACK 12 AUDIO TITLE "When the Saints Go Marching In" REM REPLAYGAIN_TRACK_GAIN -10.43 dB REM REPLAYGAIN_TRACK_PEAK 0.999969 INDEX 00 03:08:52FILE "12 - When the Saints Go Marching In.flac" WAVE INDEX 01 00:00:00

Отчет CUETools

[CUETools log; Date: 23.11.2018 1:23:09; Version: 2.1.5][CTDB TOCID: ZzYYjbt8whi52VxAf6d3mqbcONw-] found.Track | CTDB Status 1 | (1/1) Accurately ripped 2 | (1/1) Accurately ripped 3 | (1/1) Accurately ripped 4 | (1/1) Accurately ripped 5 | (1/1) Accurately ripped 6 | (1/1) Accurately ripped 7 | (1/1) Accurately ripped 8 | (1/1) Accurately ripped 9 | (1/1) Accurately ripped 10 | (1/1) Accurately ripped 11 | (1/1) Accurately ripped 12 | (1/1) Accurately ripped[AccurateRip ID: 000f5cde-008f36b5-98080a0c] found.Track [ CRC | V2 ] Status 01 [82ac7c39|63afdf6f] (0+2/2) Accurately ripped 02 [67fdf814|c415f9d0] (0+2/2) Accurately ripped 03 [d3df7efb|52956249] (0+2/2) Accurately ripped 04 [5900f11e|a4cf4b5b] (0+2/2) Accurately ripped 05 [24261ecd|66d8117d] (0+2/2) Accurately ripped 06 [592c7423|2cf7ea3d] (0+2/2) Accurately ripped 07 [1401486c|221dd58f] (0+2/2) Accurately ripped 08 [9b069fff|b0205a2d] (0+2/2) Accurately ripped 09 [c1fb4505|72e3f125] (0+2/2) Accurately ripped 10 [b6dc75bb|11a5a880] (0+2/2) Accurately ripped 11 [9f977f1a|a866b143] (0+2/2) Accurately ripped 12 [ee06ae30|f67097a2] (0+2/2) Accurately ripped
Track Peak [ CRC32 ] [W/O NULL] -- 100,0 [9A844D76] [7524D9CB] 01 97,7 [39395265] [60013860] 02 100,0 [76286360] [30F1E716] 03 100,0 [C2BC69A9] [B66F7ECE] 04 100,0 [3E483816] [8C43463D] 05 97,7 [30CE6B10] [2A5CE628] 06 100,0 [29504682] [D55459DB] 07 100,0 [356BC509] [417A3297] 08 100,0 [4B85F18D] [6112F89A] 09 100,0 [0639C21F] [B2F55A3F] 10 100,0 [BD25B7AB] [515B4573] 11 100,0 [77E4F285] [B4F0CEB6] 12 100,0 [76380059] [241C47AC]

Об альбоме (сборнике)

Will Friedwald, in his definitive book “Jazz Singing” names this album, “Connee Boswell And The Original Memphis Five In Hi-Fi” as one of the greatest jazz vocal albums of ALL TIME. This is straight up Dixie style jazz, and the horns just about ooze out of the speakers in rich high fidelity sound (hence the name) and Connee Boswell turns in the absolute best of her latter-day performances. There are a number of instrumentals here mixed in with the vocals, and Connee was pretty much in charge of all of the arrangements. For many years this was quite a hard recording to come by, one of those “lost classics,” and now that it’s finally here on Amazon, interested parties should grab it before it’s too late. I’m afraid that Connee Boswell and the Original Memphis Five just don’t command the attention from music consumers that they would in a perfectly balanced world. This album was essentially the swan song for Connee AND trombonist Miff Mole, and they really took advantage of the opportunity to secure their legacies as consummate jazz artists. Connee did a couple other recordings for small labels, and they are good, but this really is her “spiritual” swan song, if you will. These musicians were there almost at the very beginning of jazz proper, blazing brilliant musical paths which resonate still. That they were given the opportunity to say farewell in such a bright and wonderful way is a minor miracle. Seldom do careers in music wrap up on such a high note. Pick up this little known classic before it disappears for good–it’s something special.


[islamvillage.com]_t_5648705.torrent
Торрент: Зарегистрирован ·  [ 2018-11-23 22:49 ] ·  956248af30e90faf4a000a45bf1002ba60f2216d

20 KB

Статус: проверено
Скачан: 0 раз
Размер: 116 MB
Оценка: 
(Голосов: 0)
Сказали спасибо: 0  Спасибо
Похожие темы
[Профиль]    [ЛС]
Показать сообщения:    
Ответить на тему

Текущее время: Сегодня 14:34

Часовой пояс: GMT + 7



Вы не можете начинать темы
Вы не можете отвечать на сообщения
Вы не можете редактировать свои сообщения
Вы не можете удалять свои сообщения
Вы не можете голосовать в опросах
Вы не можете прикреплять файлы к сообщениям
Вы можете скачивать файлы


Economics and Dependent Variable Increases | wohnwagen knaus azur | Spider-Man: Into the Spider-Verse2018117 min +101