(Vocal Jazz) [CD] Lori Cullen with the Ron Davis Trio - So Much - 2002, FLAC (tracks+.cue), lossless

Ответить на тему
Статистика раздачи [Обновить пиров]
Размер:  262 MB   |    Зарегистрирован:  1 месяц 20 дней   |    Скачан:  0 раз

Полного источника не было: Никогда

 
   
 
 
 
Автор Сообщение

islamvillage.com

Создавать темы 27-Ноя-2018 20:27

[Цитировать]

[img=right]http://i108.fastpic.ru/big/2018/1127/a3/0511185aea...859fa3.jpg[/img]
Lori Cullen with the Ron Davis Trio / So Much
Жанр: Vocal Jazz
Носитель: CD
Страна-производитель диска (релиза): Canada
Год издания: 2002
Издатель (лейбл): Cullinor Records ‎
Номер по каталогу: CD 2358
Страна исполнителя (группы): Canada
Аудиокодек: FLAC (*.flac)
Тип рипа: tracks+.cue
Битрейт аудио: lossless
Продолжительность: 50:54
Источник (релизер): net
Наличие сканов : да
Треклист:
1 The Best It Yet To Come
2 Eleanor Rigby
3 The Folks Who Live On The Hill
4 Cherokee
5 At 17
6 Every Day I Have The Blues
7 Little Things
8 Gentle Rain
9 So Much Larger Than Life
10 Don't Get Around Much Anymore
11 If I Only Had A Brain
12 Two Sleep People
13 My Cherie Amour

techЛог создания рипа

X Lossless Decoder version 20140504 (147.0)
XLD extraction logfile from 2014-09-20 13:59:35 -0400
Lori Cullen with the Ron Davis Trio / So Much
Used drive : ASUS SDRW-08D2S-U (revision A611)Media type : Pressed CD
Ripper mode : XLD Secure RipperDisable audio cache : OK for the drive with a cache less than 1375KiBMake use of C2 pointers : NORead offset correction : 6Max retry count : 20Gap status : Analyzed, Appended (except HTOA)
TOC of the extracted CD Track | Start | Length | Start sector | End sector --------------------------------------------------------- 1 | 00:01:00 | 02:46:50 | 75 | 12574 2 | 02:47:50 | 04:37:03 | 12575 | 33352 3 | 07:24:53 | 04:12:07 | 33353 | 52259 4 | 11:36:60 | 03:02:67 | 52260 | 65976 5 | 14:39:52 | 05:03:74 | 65977 | 88775 6 | 19:43:51 | 04:00:34 | 88776 | 106809 7 | 23:44:10 | 03:08:00 | 106810 | 120909 8 | 26:52:10 | 04:23:73 | 120910 | 140707 9 | 31:16:08 | 04:10:22 | 140708 | 159479 10 | 35:26:30 | 04:54:02 | 159480 | 181531 11 | 40:20:32 | 02:40:53 | 181532 | 193584 12 | 43:01:10 | 03:22:64 | 193585 | 208798 13 | 46:23:74 | 04:30:71 | 208799 | 229119
AccurateRip Summary Disc not found in AccurateRip DB.
All Tracks Album gain : -3.48 dB Peak : 0.944336 Statistics Read error : 0 Jitter error (maybe fixed) : 0 Retry sector count : 0 Damaged sector count : 0
Track 01 Filename : /Users/Shared/Lori Cullen with the Ron Davis Trio - So Much (2002) [LAME MP3 (VBR-new quality 0.0)]/01 The Best Is Yet To Come.mp3 /Users/Shared/Lori Cullen with the Ron Davis Trio - So Much (2002) [LAME MP3 (VBR-new quality 2.0)]/01 The Best Is Yet To Come.mp3 /Users/Shared/Lori Cullen with the Ron Davis Trio - So Much (2002) [LAME MP3 (CBR 320kbps)]/01 The Best Is Yet To Come.mp3 /Users/Shared/Lori Cullen with the Ron Davis Trio - So Much (2002) [FLAC (level 4)]/01 The Best Is Yet To Come.flac Pre-gap length : 00:03:00
Track gain : -4.90 dB Peak : 0.944336 CRC32 hash (test run) : B10F9510 CRC32 hash : B10F9510 CRC32 hash (skip zero) : 6F9B7C4E AccurateRip v1 signature : 5DC61FF7 AccurateRip v2 signature : CFA79341 ->Track not present in AccurateRip database. Statistics Read error : 0 Jitter error (maybe fixed) : 0 Retry sector count : 0 Damaged sector count : 0
Track 02 Filename : /Users/Shared/Lori Cullen with the Ron Davis Trio - So Much (2002) [LAME MP3 (VBR-new quality 0.0)]/02 Elanor Rigby.mp3 /Users/Shared/Lori Cullen with the Ron Davis Trio - So Much (2002) [LAME MP3 (VBR-new quality 2.0)]/02 Elanor Rigby.mp3 /Users/Shared/Lori Cullen with the Ron Davis Trio - So Much (2002) [LAME MP3 (CBR 320kbps)]/02 Elanor Rigby.mp3 /Users/Shared/Lori Cullen with the Ron Davis Trio - So Much (2002) [FLAC (level 4)]/02 Elanor Rigby.flac Pre-gap length : 00:00:20
Track gain : -3.61 dB Peak : 0.935303 CRC32 hash (test run) : 8DFBC2E7 CRC32 hash : 8DFBC2E7 CRC32 hash (skip zero) : F9775955 AccurateRip v1 signature : 80B4E873 AccurateRip v2 signature : C4C44802 ->Track not present in AccurateRip database. Statistics Read error : 0 Jitter error (maybe fixed) : 0 Retry sector count : 0 Damaged sector count : 0
Track 03 Filename : /Users/Shared/Lori Cullen with the Ron Davis Trio - So Much (2002) [LAME MP3 (VBR-new quality 0.0)]/03 The Folks Who Live On The Hill.mp3 /Users/Shared/Lori Cullen with the Ron Davis Trio - So Much (2002) [LAME MP3 (VBR-new quality 2.0)]/03 The Folks Who Live On The Hill.mp3 /Users/Shared/Lori Cullen with the Ron Davis Trio - So Much (2002) [LAME MP3 (CBR 320kbps)]/03 The Folks Who Live On The Hill.mp3 /Users/Shared/Lori Cullen with the Ron Davis Trio - So Much (2002) [FLAC (level 4)]/03 The Folks Who Live On The Hill.flac Pre-gap length : 00:01:45
Track gain : -2.80 dB Peak : 0.816437 CRC32 hash (test run) : 50867FBE CRC32 hash : 50867FBE CRC32 hash (skip zero) : 0E9EA4D1 AccurateRip v1 signature : FE4E9E7A AccurateRip v2 signature : A30681CE ->Track not present in AccurateRip database. Statistics Read error : 0 Jitter error (maybe fixed) : 0 Retry sector count : 0 Damaged sector count : 0
Track 04 Filename : /Users/Shared/Lori Cullen with the Ron Davis Trio - So Much (2002) [LAME MP3 (VBR-new quality 0.0)]/04 Cherokee.mp3 /Users/Shared/Lori Cullen with the Ron Davis Trio - So Much (2002) [LAME MP3 (VBR-new quality 2.0)]/04 Cherokee.mp3 /Users/Shared/Lori Cullen with the Ron Davis Trio - So Much (2002) [LAME MP3 (CBR 320kbps)]/04 Cherokee.mp3 /Users/Shared/Lori Cullen with the Ron Davis Trio - So Much (2002) [FLAC (level 4)]/04 Cherokee.flac Pre-gap length : 00:01:45
Track gain : -5.29 dB Peak : 0.935059 CRC32 hash (test run) : 5AB563DE CRC32 hash : 5AB563DE CRC32 hash (skip zero) : 14EB4423 AccurateRip v1 signature : 8DB1FEC7 AccurateRip v2 signature : BE5B1D75 ->Track not present in AccurateRip database. Statistics Read error : 0 Jitter error (maybe fixed) : 0 Retry sector count : 0 Damaged sector count : 0
Track 05 Filename : /Users/Shared/Lori Cullen with the Ron Davis Trio - So Much (2002) [LAME MP3 (VBR-new quality 0.0)]/05 At 17.mp3 /Users/Shared/Lori Cullen with the Ron Davis Trio - So Much (2002) [LAME MP3 (VBR-new quality 2.0)]/05 At 17.mp3 /Users/Shared/Lori Cullen with the Ron Davis Trio - So Much (2002) [LAME MP3 (CBR 320kbps)]/05 At 17.mp3 /Users/Shared/Lori Cullen with the Ron Davis Trio - So Much (2002) [FLAC (level 4)]/05 At 17.flac Pre-gap length : 00:02:45
Track gain : -2.84 dB Peak : 0.862183 CRC32 hash (test run) : A65F3B09 CRC32 hash : A65F3B09 CRC32 hash (skip zero) : 44C040F3 AccurateRip v1 signature : 6F2D386B AccurateRip v2 signature : D99D9036 ->Track not present in AccurateRip database. Statistics Read error : 0 Jitter error (maybe fixed) : 0 Retry sector count : 0 Damaged sector count : 0
Track 06 Filename : /Users/Shared/Lori Cullen with the Ron Davis Trio - So Much (2002) [LAME MP3 (VBR-new quality 0.0)]/06 Every Day I Have The Blues.mp3 /Users/Shared/Lori Cullen with the Ron Davis Trio - So Much (2002) [LAME MP3 (VBR-new quality 2.0)]/06 Every Day I Have The Blues.mp3 /Users/Shared/Lori Cullen with the Ron Davis Trio - So Much (2002) [LAME MP3 (CBR 320kbps)]/06 Every Day I Have The Blues.mp3 /Users/Shared/Lori Cullen with the Ron Davis Trio - So Much (2002) [FLAC (level 4)]/06 Every Day I Have The Blues.flac Pre-gap length : 00:01:45
Track gain : -2.99 dB Peak : 0.939178 CRC32 hash (test run) : 15BA5381 CRC32 hash : 15BA5381 CRC32 hash (skip zero) : 1D247025 AccurateRip v1 signature : FC9714EE AccurateRip v2 signature : F400BB9B ->Track not present in AccurateRip database. Statistics Read error : 0 Jitter error (maybe fixed) : 0 Retry sector count : 0 Damaged sector count : 0
Track 07 Filename : /Users/Shared/Lori Cullen with the Ron Davis Trio - So Much (2002) [LAME MP3 (VBR-new quality 0.0)]/07 Little Things.mp3 /Users/Shared/Lori Cullen with the Ron Davis Trio - So Much (2002) [LAME MP3 (VBR-new quality 2.0)]/07 Little Things.mp3 /Users/Shared/Lori Cullen with the Ron Davis Trio - So Much (2002) [LAME MP3 (CBR 320kbps)]/07 Little Things.mp3 /Users/Shared/Lori Cullen with the Ron Davis Trio - So Much (2002) [FLAC (level 4)]/07 Little Things.flac Pre-gap length : 00:01:45
Track gain : -2.40 dB Peak : 0.929565 CRC32 hash (test run) : EF50534D CRC32 hash : EF50534D CRC32 hash (skip zero) : FF114FC1 AccurateRip v1 signature : 6603D801 AccurateRip v2 signature : 68F1280A ->Track not present in AccurateRip database. Statistics Read error : 0 Jitter error (maybe fixed) : 0 Retry sector count : 0 Damaged sector count : 0
Track 08 Filename : /Users/Shared/Lori Cullen with the Ron Davis Trio - So Much (2002) [LAME MP3 (VBR-new quality 0.0)]/08 Gentle Rain.mp3 /Users/Shared/Lori Cullen with the Ron Davis Trio - So Much (2002) [LAME MP3 (VBR-new quality 2.0)]/08 Gentle Rain.mp3 /Users/Shared/Lori Cullen with the Ron Davis Trio - So Much (2002) [LAME MP3 (CBR 320kbps)]/08 Gentle Rain.mp3 /Users/Shared/Lori Cullen with the Ron Davis Trio - So Much (2002) [FLAC (level 4)]/08 Gentle Rain.flac Pre-gap length : 00:00:36
Track gain : -3.17 dB Peak : 0.815887 CRC32 hash (test run) : 34786290 CRC32 hash : 34786290 CRC32 hash (skip zero) : 19B27C85 AccurateRip v1 signature : 92EB996F AccurateRip v2 signature : A80E695D ->Track not present in AccurateRip database. Statistics Read error : 0 Jitter error (maybe fixed) : 0 Retry sector count : 0 Damaged sector count : 0
Track 09 Filename : /Users/Shared/Lori Cullen with the Ron Davis Trio - So Much (2002) [LAME MP3 (VBR-new quality 0.0)]/09 So Much Larger Than Life.mp3 /Users/Shared/Lori Cullen with the Ron Davis Trio - So Much (2002) [LAME MP3 (VBR-new quality 2.0)]/09 So Much Larger Than Life.mp3 /Users/Shared/Lori Cullen with the Ron Davis Trio - So Much (2002) [LAME MP3 (CBR 320kbps)]/09 So Much Larger Than Life.mp3 /Users/Shared/Lori Cullen with the Ron Davis Trio - So Much (2002) [FLAC (level 4)]/09 So Much Larger Than Life.flac Pre-gap length : 00:01:45
Track gain : -2.93 dB Peak : 0.937500 CRC32 hash (test run) : 5C655900 CRC32 hash : 5C655900 CRC32 hash (skip zero) : 6EA4EB30 AccurateRip v1 signature : B8465BD6 AccurateRip v2 signature : E9A12FCA ->Track not present in AccurateRip database. Statistics Read error : 0 Jitter error (maybe fixed) : 0 Retry sector count : 0 Damaged sector count : 0
Track 10 Filename : /Users/Shared/Lori Cullen with the Ron Davis Trio - So Much (2002) [LAME MP3 (VBR-new quality 0.0)]/10 Don't Get Around Much Anymore.mp3 /Users/Shared/Lori Cullen with the Ron Davis Trio - So Much (2002) [LAME MP3 (VBR-new quality 2.0)]/10 Don't Get Around Much Anymore.mp3 /Users/Shared/Lori Cullen with the Ron Davis Trio - So Much (2002) [LAME MP3 (CBR 320kbps)]/10 Don't Get Around Much Anymore.mp3 /Users/Shared/Lori Cullen with the Ron Davis Trio - So Much (2002) [FLAC (level 4)]/10 Don't Get Around Much Anymore.flac Pre-gap length : 00:00:22
Track gain : -1.41 dB Peak : 0.859070 CRC32 hash (test run) : FA05494F CRC32 hash : FA05494F CRC32 hash (skip zero) : FA3BD487 AccurateRip v1 signature : E62DA0DE AccurateRip v2 signature : 38F37D91 ->Track not present in AccurateRip database. Statistics Read error : 0 Jitter error (maybe fixed) : 0 Retry sector count : 0 Damaged sector count : 0
Track 11 Filename : /Users/Shared/Lori Cullen with the Ron Davis Trio - So Much (2002) [LAME MP3 (VBR-new quality 0.0)]/11 If I Only Had A Brain.mp3 /Users/Shared/Lori Cullen with the Ron Davis Trio - So Much (2002) [LAME MP3 (VBR-new quality 2.0)]/11 If I Only Had A Brain.mp3 /Users/Shared/Lori Cullen with the Ron Davis Trio - So Much (2002) [LAME MP3 (CBR 320kbps)]/11 If I Only Had A Brain.mp3 /Users/Shared/Lori Cullen with the Ron Davis Trio - So Much (2002) [FLAC (level 4)]/11 If I Only Had A Brain.flac Pre-gap length : 00:01:44
Track gain : -4.80 dB Peak : 0.935181 CRC32 hash (test run) : 052DDED0 CRC32 hash : 052DDED0 CRC32 hash (skip zero) : 0071BB2F AccurateRip v1 signature : 4C1F9685 AccurateRip v2 signature : 30A7A0E1 ->Track not present in AccurateRip database. Statistics Read error : 0 Jitter error (maybe fixed) : 0 Retry sector count : 0 Damaged sector count : 0
Track 12 Filename : /Users/Shared/Lori Cullen with the Ron Davis Trio - So Much (2002) [LAME MP3 (VBR-new quality 0.0)]/12 Two Sleepy People.mp3 /Users/Shared/Lori Cullen with the Ron Davis Trio - So Much (2002) [LAME MP3 (VBR-new quality 2.0)]/12 Two Sleepy People.mp3 /Users/Shared/Lori Cullen with the Ron Davis Trio - So Much (2002) [LAME MP3 (CBR 320kbps)]/12 Two Sleepy People.mp3 /Users/Shared/Lori Cullen with the Ron Davis Trio - So Much (2002) [FLAC (level 4)]/12 Two Sleepy People.flac Pre-gap length : 00:03:33
Track gain : -3.43 dB Peak : 0.909790 CRC32 hash (test run) : D29A6EE6 CRC32 hash : D29A6EE6 CRC32 hash (skip zero) : E565E1E3 AccurateRip v1 signature : 6E1ED638 AccurateRip v2 signature : F29E9194 ->Track not present in AccurateRip database. Statistics Read error : 0 Jitter error (maybe fixed) : 0 Retry sector count : 0 Damaged sector count : 0
Track 13 Filename : /Users/Shared/Lori Cullen with the Ron Davis Trio - So Much (2002) [LAME MP3 (VBR-new quality 0.0)]/13 My Cherie Amour.mp3 /Users/Shared/Lori Cullen with the Ron Davis Trio - So Much (2002) [LAME MP3 (VBR-new quality 2.0)]/13 My Cherie Amour.mp3 /Users/Shared/Lori Cullen with the Ron Davis Trio - So Much (2002) [LAME MP3 (CBR 320kbps)]/13 My Cherie Amour.mp3 /Users/Shared/Lori Cullen with the Ron Davis Trio - So Much (2002) [FLAC (level 4)]/13 My Cherie Amour.flac Pre-gap length : 00:09:45
Track gain : -3.36 dB Peak : 0.933899 CRC32 hash (test run) : 224BA00A CRC32 hash : 224BA00A CRC32 hash (skip zero) : 3476A98E AccurateRip v1 signature : 688D7A2E AccurateRip v2 signature : D0486B60 ->Track not present in AccurateRip database. Statistics Read error : 0 Jitter error (maybe fixed) : 0 Retry sector count : 0 Damaged sector count : 0
No errors occurred
End of status report
-----BEGIN XLD SIGNATURE-----6PJuCORMOXJ1cV0DH3UTRrrHM22Q0sIFW8IBXR5QvmUQ6nUbDGRgJ0m0_t8kC_ioNGIhvHAsUpyb7AyTfH6FumpwGiaXS.X5WBLA1g8-----END XLD SIGNATURE-----

Содержание индексной карты (.CUE)

TITLE "So Much"PERFORMER "Lori Cullen with the Ron Davis Trio"REM GENRE "Jazz"REM DATE "2002"REM DISCID C80BED0DREM REPLAYGAIN_ALBUM_GAIN -3.48 dBREM REPLAYGAIN_ALBUM_PEAK 0.944336FILE "01 The Best Is Yet To Come.flac" WAVE TRACK 01 AUDIO TITLE "The Best Is Yet To Come" FLAGS DCP REM REPLAYGAIN_TRACK_GAIN -4.90 dB REM REPLAYGAIN_TRACK_PEAK 0.944336 PREGAP 00:01:00 INDEX 01 00:00:00 TRACK 02 AUDIO TITLE "Elanor Rigby" FLAGS DCP REM REPLAYGAIN_TRACK_GAIN -3.61 dB REM REPLAYGAIN_TRACK_PEAK 0.935303 INDEX 00 02:46:30FILE "02 Elanor Rigby.flac" WAVE INDEX 01 00:00:00 TRACK 03 AUDIO TITLE "The Folks Who Live On The Hill" FLAGS DCP REM REPLAYGAIN_TRACK_GAIN -2.80 dB REM REPLAYGAIN_TRACK_PEAK 0.816437 INDEX 00 04:35:33FILE "03 The Folks Who Live On The Hill.flac" WAVE INDEX 01 00:00:00 TRACK 04 AUDIO TITLE "Cherokee" FLAGS DCP REM REPLAYGAIN_TRACK_GAIN -5.29 dB REM REPLAYGAIN_TRACK_PEAK 0.935059 INDEX 00 04:10:37FILE "04 Cherokee.flac" WAVE INDEX 01 00:00:00 TRACK 05 AUDIO TITLE "At 17" FLAGS DCP REM REPLAYGAIN_TRACK_GAIN -2.84 dB REM REPLAYGAIN_TRACK_PEAK 0.862183 INDEX 00 03:00:22FILE "05 At 17.flac" WAVE INDEX 01 00:00:00 TRACK 06 AUDIO TITLE "Every Day I Have The Blues" FLAGS DCP REM REPLAYGAIN_TRACK_GAIN -2.99 dB REM REPLAYGAIN_TRACK_PEAK 0.939178 INDEX 00 05:02:29FILE "06 Every Day I Have The Blues.flac" WAVE INDEX 01 00:00:00 TRACK 07 AUDIO TITLE "Little Things" FLAGS DCP REM REPLAYGAIN_TRACK_GAIN -2.40 dB REM REPLAYGAIN_TRACK_PEAK 0.929565 INDEX 00 03:58:64FILE "07 Little Things.flac" WAVE INDEX 01 00:00:00 TRACK 08 AUDIO TITLE "Gentle Rain" FLAGS DCP REM REPLAYGAIN_TRACK_GAIN -3.17 dB REM REPLAYGAIN_TRACK_PEAK 0.815887 INDEX 00 03:07:39FILE "08 Gentle Rain.flac" WAVE INDEX 01 00:00:00 TRACK 09 AUDIO TITLE "So Much Larger Than Life" FLAGS DCP REM REPLAYGAIN_TRACK_GAIN -2.93 dB REM REPLAYGAIN_TRACK_PEAK 0.937500 INDEX 00 04:22:28FILE "09 So Much Larger Than Life.flac" WAVE INDEX 01 00:00:00 TRACK 10 AUDIO TITLE "Don't Get Around Much Anymore" FLAGS DCP REM REPLAYGAIN_TRACK_GAIN -1.41 dB REM REPLAYGAIN_TRACK_PEAK 0.859070 INDEX 00 04:10:00FILE "10 Don't Get Around Much Anymore.flac" WAVE INDEX 01 00:00:00 TRACK 11 AUDIO TITLE "If I Only Had A Brain" FLAGS DCP REM REPLAYGAIN_TRACK_GAIN -4.80 dB REM REPLAYGAIN_TRACK_PEAK 0.935181 INDEX 00 04:52:33FILE "11 If I Only Had A Brain.flac" WAVE INDEX 01 00:00:00 TRACK 12 AUDIO TITLE "Two Sleepy People" FLAGS DCP REM REPLAYGAIN_TRACK_GAIN -3.43 dB REM REPLAYGAIN_TRACK_PEAK 0.909790 INDEX 00 02:37:20FILE "12 Two Sleepy People.flac" WAVE INDEX 01 00:00:00 TRACK 13 AUDIO TITLE "My Cherie Amour" FLAGS DCP REM REPLAYGAIN_TRACK_GAIN -3.36 dB REM REPLAYGAIN_TRACK_PEAK 0.933899 INDEX 00 03:13:19FILE "13 My Cherie Amour.flac" WAVE INDEX 01 00:00:00

Лог проверки качества

-----------------------
DON'T MODIFY THIS FILE
-----------------------
PERFORMER: auCDtect Task Manager, ver. 1.6.0 RC1 build 1.6.0.1Copyright (c) 2008-2010 y-soft. All rights reservedhttp://y-soft.org
ANALYZER: auCDtect: CD records authenticity detector, version 0.8.2Copyright (c) 2004 Oleg Berngardt. All rights reserved.Copyright (c) 2004 Alexander Djourik. All rights reserved.
FILE: 13 My Cherie Amour.flac Size: 26217319 Hash: 06B0C324642A7F03CACED2F782C0593D Accuracy: -m0 Conclusion: CDDA 100% Signature: 91F4727A54975BAB9E18131AD9BD926E6DB36CCFFILE: 12 Two Sleepy People.flac Size: 15865322 Hash: A53E78D9885E30E9848B847DBD22C5D2 Accuracy: -m0 Conclusion: CDDA 86% Signature: 1B69086860C72D1D8946F6AC9376A0A028DB4126FILE: 11 If I Only Had A Brain.flac Size: 15064113 Hash: D55A587A59F789F891BD36107600DFC2 Accuracy: -m0 Conclusion: CDDA 100% Signature: 0FEF0D02D3625540F0280AEC93D9AE048EEA5CBDFILE: 10 Don't Get Around Much Anymore.flac Size: 20984206 Hash: 0FC379D9BD454340F2B8D1464EED1F20 Accuracy: -m0 Conclusion: CDDA 100% Signature: FBA909A40835A8817650772AE2A56D487AF60766FILE: 09 So Much Larger Than Life.flac Size: 25290025 Hash: 425852C2B31F507124695C658CEDDA3C Accuracy: -m0 Conclusion: CDDA 100% Signature: 591556011595FB927AD2B58265C66694913D21F9FILE: 08 Gentle Rain.flac Size: 26173849 Hash: FD71C6FF561CE3FF55E70A06CAB3C9DB Accuracy: -m0 Conclusion: CDDA 99% Signature: 16221B128317B8DCFD771367F8158BFC8E3FC830FILE: 07 Little Things.flac Size: 14468739 Hash: AC3D7FD3DD84055867F56FD6B33C2B47 Accuracy: -m0 Conclusion: CDDA 100% Signature: 8F8C885E801F3D1F6D700AE86F3A394862A84183FILE: 06 Every Day I Have The Blues.flac Size: 21629229 Hash: C3047461641E185987551E44ACFCAB7F Accuracy: -m0 Conclusion: CDDA 100% Signature: 51B501BBD06AA636643279C5BA9CB120E418A4D8FILE: 05 At 17.flac Size: 23581090 Hash: DE53329AC8DCF4F3A5EBCDE9F236A8C1 Accuracy: -m0 Conclusion: CDDA 100% Signature: 1AC727421125CE50985122C2D61DF67D76EF99C3FILE: 04 Cherokee.flac Size: 19441756 Hash: B645757D8A2BA744B0BB794CB7500502 Accuracy: -m0 Conclusion: CDDA 100% Signature: 9A75D26776C2106DEA29BEA5AD662A7F111E7E14FILE: 03 The Folks Who Live On The Hill.flac Size: 24657758 Hash: AFC4BFDF730E85DDD231E1F29451E302 Accuracy: -m0 Conclusion: CDDA 100% Signature: FA3AA7FFCCDDD13AE9F7F50712BF78CA014584E1FILE: 02 Elanor Rigby.flac Size: 24913937 Hash: 3BEB697731186154CD36F807950B1C9E Accuracy: -m0 Conclusion: CDDA 99% Signature: F4924807D2C2492FF88A202C60D8681EF1D5091CFILE: 01 The Best Is Yet To Come.flac Size: 16317193 Hash: E9EFEC444FB46BFA365736664B503A4D Accuracy: -m0 Conclusion: CDDA 100% Signature: 1BDFB5C4188D9C9F4E5871A227F3970C1B0FE011

artistОб исполнителе (группе)

Lori Cullen is a Canadian pop and jazz singer-songwriter.
http://www.loricullen.com/

Состав

Lori Cullen
The Ron Davis Trio
Drew Birston
Mark Mariash


[islamvillage.com]_t_5650728.torrent
Торрент: Зарегистрирован ·  [ 2018-11-27 20:27 ] ·  bbb4b540755a0ff3f175a911a1287a2bb6920f64

22 KB

Статус: проверено
Скачан: 0 раз
Размер: 262 MB
Оценка: 
(Голосов: 0)
Сказали спасибо: 0  Спасибо
Похожие темы
[Профиль]    [ЛС]
Показать сообщения:    
Ответить на тему

Текущее время: Сегодня 09:57

Часовой пояс: GMT + 7



Вы не можете начинать темы
Вы не можете отвечать на сообщения
Вы не можете редактировать свои сообщения
Вы не можете удалять свои сообщения
Вы не можете голосовать в опросах
Вы не можете прикреплять файлы к сообщениям
Вы можете скачивать файлы


Archivo 253 | Historyczne | Thonkmop