(Electro) [CDM] MJ Lan - Kraze - 1999, FLAC (tracks+.cue) lossless

Ответить на тему
Статистика раздачи [Обновить пиров]
Размер:  146 MB   |    Зарегистрирован:  1 месяц 19 дней   |    Скачан:  0 раз

Полного источника не было: Никогда

 
   
 
 
 
Автор Сообщение

islamvillage.com

Создавать темы 29-Ноя-2018 00:55

[Цитировать]

[img=right]http://i1.imageban.ru/out/2018/11/26/e87ead6e3351a...dfe4fa.png[/img]
MJ Lan / Kraze
Жанр: Electro
Страна-производитель диска: Germany
Год издания диска: 1999
Издатель (лейбл): Electric Kingdom
Номер по каталогу: 74321 69386 2
Аудио кодек: FLAC (*.flac)
Тип рипа: tracks+.cue
Битрейт аудио: lossless
Продолжительность: 18:39
Источник (релизер): свой рип
Наличие сканов в содержимом раздачи: да
Треклист:
1. Kraze - Kraze (Short) (3:41)
2. Kraze - Kraze (Technolectro Mix) (5:15)
3. Kraze - MJ LAN Vs Mittig Utilities (4:28)
4. Kraze - Kraze (Long) (5:15)

Лог создания рипа

Exact Audio Copy V1.3 from 2. September 2016
EAC extraction logfile from 21. November 2018, 13:59
MJ Lan / Kraze
Used drive : ASUS DRW-24B5ST Adapter: 6 ID: 0
Read mode : SecureUtilize accurate stream : YesDefeat audio cache : YesMake use of C2 pointers : No
Read offset correction : 6Overread into Lead-In and Lead-Out : NoFill up missing offset samples with silence : YesDelete leading and trailing silent blocks : NoNull samples used in CRC calculations : YesUsed interface : Installed external ASPI interfaceGap handling : Appended to previous track
Used output format : User Defined EncoderSelected bitrate : 128 kBit/sQuality : HighAdd ID3 tag : NoCommand line compressor : D:\flac-1.3.2-win\win64\flac.exeAdditional command line options : -8 -V -T "ARTIST=%artist%" -T "TITLE=%title%" -T "ALBUM=%albumtitle%" -T "DATE=%year%" -T "TRACKNUMBER=%tracknr%" -T "GENRE=%genre%" -T "COMMENT=ripped by Andy aka yetiisyou" %source%
TOC of the extracted CD
Track | Start | Length | Start sector | End sector --------------------------------------------------------- 1 | 0:00.32 | 3:41.50 | 32 | 16656 2 | 3:42.07 | 5:15.00 | 16657 | 40281 3 | 8:57.07 | 4:28.35 | 40282 | 60416 4 | 13:25.42 | 5:15.65 | 60417 | 84106
Track 1
Filename E:\!Ripped by Andy aka yetiisyou\MJ Lan - Kraze [74321 69386 2] [1999]\01. MJ Lan - Kraze (Short).wav
Pre-gap length 0:00:02.32
Peak level 99.0 % Extraction speed 2.6 X Track quality 100.0 % Test CRC 0819E919 Copy CRC 0819E919 Track not present in AccurateRip database Copy OK
Track 2
Filename E:\!Ripped by Andy aka yetiisyou\MJ Lan - Kraze [74321 69386 2] [1999]\02. MJ Lan - Kraze (Technolectro Mix).wav
Pre-gap length 0:00:01.50
Peak level 97.3 % Extraction speed 3.0 X Track quality 100.0 % Test CRC 8B568004 Copy CRC 8B568004 Accurately ripped (confidence 1) [7A8427D9] (AR v2) Copy OK
Track 3
Filename E:\!Ripped by Andy aka yetiisyou\MJ Lan - Kraze [74321 69386 2] [1999]\03. MJ Lan - MJ LAN Vs Mittig Utilities.wav
Pre-gap length 0:00:01.20
Peak level 91.4 % Extraction speed 3.3 X Track quality 100.0 % Test CRC 59B0F720 Copy CRC 59B0F720 Track not present in AccurateRip database Copy OK
Track 4
Filename E:\!Ripped by Andy aka yetiisyou\MJ Lan - Kraze [74321 69386 2] [1999]\04. MJ Lan - Kraze (Long).wav
Pre-gap length 0:00:01.02
Peak level 99.0 % Extraction speed 3.6 X Track quality 100.0 % Test CRC 9218682B Copy CRC 9218682B Accurately ripped (confidence 1) [2A717E12] (AR v2) Copy OK
2 track(s) accurately ripped 2 track(s) not present in the AccurateRip database
Some tracks could not be verified as accurate
No errors occurred
End of status report
---- CUETools DB Plugin V2.1.6
[CTDB TOCID: rWifid0I5ukNhkUDJag2IMYCCLk-] disk not present in databaseSubmit result: rWifid0I5ukNhkUDJag2IMYCCLk- has been uploaded
==== Log checksum 6065BBAD640A888D15B5C2EF6293FDBEA92627A5D727DBCA2389781F882C07BC ====

Содержание индексной карты (.CUE)

REM DATE 1999REM DISCID 2A046104REM COMMENT "ExactAudioCopy v1.3"PERFORMER "MJ Lan"TITLE "Kraze"REM COMPOSER ""FILE "01. MJ Lan - Kraze (Short).wav" WAVE TRACK 01 AUDIO TITLE "Kraze (Short)" PERFORMER "MJ Lan" REM COMPOSER "" ISRC DEE199900113 PREGAP 00:00:32 INDEX 01 00:00:00 TRACK 02 AUDIO TITLE "Kraze (Technolectro Mix)" PERFORMER "MJ Lan" REM COMPOSER "" ISRC DEE199900114 INDEX 00 03:40:00FILE "02. MJ Lan - Kraze (Technolectro Mix).wav" WAVE INDEX 01 00:00:00 TRACK 03 AUDIO TITLE "MJ LAN Vs Mittig Utilities" PERFORMER "MJ Lan" REM COMPOSER "" ISRC DEE199900112 INDEX 00 05:13:55FILE "03. MJ Lan - MJ LAN Vs Mittig Utilities.wav" WAVE INDEX 01 00:00:00 TRACK 04 AUDIO TITLE "Kraze (Long)" PERFORMER "MJ Lan" REM COMPOSER "" ISRC DEE199900111 INDEX 00 04:27:33FILE "04. MJ Lan - Kraze (Long).wav" WAVE INDEX 01 00:00:00


[islamvillage.com]_t_3242972.torrent
Торрент: Зарегистрирован ·  [ 2018-11-29 00:54 ] ·  f1c127cd657937f4456c0f6047d389876f19cb30

12 KB

Статус: проверено
Скачан: 0 раз
Размер: 146 MB
Оценка: 
(Голосов: 0)
Сказали спасибо: 0  Спасибо
Похожие темы
[Профиль]    [ЛС]
Показать сообщения:    
Ответить на тему

Текущее время: Сегодня 22:22

Часовой пояс: GMT + 7



Вы не можете начинать темы
Вы не можете отвечать на сообщения
Вы не можете редактировать свои сообщения
Вы не можете удалять свои сообщения
Вы не можете голосовать в опросах
Вы не можете прикреплять файлы к сообщениям
Вы можете скачивать файлы


Young.Justice.S03E01.WEB.x264-PHOENiX[TGx] | Sapphic Seduction (2017) | IMDb: 7 S1E24 Age Of Feeling