(Techno, Minimal, Tech House) [2xCD] VA - Fashion Only Presents - Dj Sapunov - 2006, FLAC (image+.cue), lossless

Ответить на тему
Статистика раздачи [Обновить пиров]
Размер:  728 MB   |    Зарегистрирован:  1 месяц 19 дней   |    Скачан:  0 раз

Полного источника не было: Никогда

 
   
 
 
 
Автор Сообщение

islamvillage.com

Создавать темы 29-Ноя-2018 00:55

[Цитировать]

Fashion Only Presents - Dj Sapunov
[img=right]http://i2.imageban.ru/out/2018/11/18/4ce39dfd57090...81826e.png[/img]
Жанр: Techno, Minimal, Tech House
Носитель: CD
Год издания: 2006
Издатель (лейбл): Fashion Only Records
Номер по каталогу: FOR! 0009/0010
Аудиокодек: FLAC (*.flac)
Тип рипа: image+.cue
Битрейт аудио: lossless
Продолжительность: 02:08:40
Источник (релизер): свой рип
Наличие сканов в содержимом раздачи: да
Треклист:
CD 1
01. Vector Lovers - Boulevard (9:56)
02. I'm Not A Gun - Sundays Will Never Change (John Tejada Remix) (4:42)
03. SCSI-9 - Senorita Tristeza (9:38)
04. Ada - Cool My Fire (I'm Burning) (4:19)
05. Unknown Artist - Untitled (5:58)
06. Fabio Della Torre & David C. - Scrumbled Decks (4:09)
07. Unknown Artist - Untitled (5:20)
08. Fabio Della Torre & David C. - Magenta (5:47)
09. Extrawelt - Zu Fuss (Muttermix) (3:08)
10. Arnaud Le Texier - Fish On The Moon (4:48)
CD 2
01. The Liptrick - Aerosol (4:52)
02. Tigerskin - Microline (5:22)
03. Soulrack - Tb Or Not Tb (Martinez Remix) (4:36)
04. Unknown Artist - Untitled (3:18)
05. Nooncat - Sex (5:52)
06. Der Dritte Raum - Raumzeit (3:00)
07. Vincenzo - Valium (4:31)
08. Hug - The Angry Ghost (4:15)
09. Argy - Love Dose (Luciano Remix) (2:46)
10. Rework - Psych Doll (4:46)
11. Peace Division - Poke (4:15)
12. 3 Channels - Koko With Steve (1:45)
13. Elektrochemie - Vexed (7:56)
14. Unknown Artist - Untitled (2:29)
15. Limacon - Catch (5:43)
16. Unknown Artist - Untitled (5:27)

logs and sheetsLog EAC CD 1

Exact Audio Copy V1.3 from 2. September 2016
EAC extraction logfile from 20. March 2018, 12:55
Dj Sapunov / Fashion Only Presents (disc 1)
Used drive : ASUS SDRW-08D2S-U Adapter: 9 ID: 0
Read mode : SecureUtilize accurate stream : YesDefeat audio cache : YesMake use of C2 pointers : No
Read offset correction : 6Overread into Lead-In and Lead-Out : NoFill up missing offset samples with silence : YesDelete leading and trailing silent blocks : NoNull samples used in CRC calculations : YesUsed interface : Installed external ASPI interface
Used output format : User Defined EncoderSelected bitrate : 128 kBit/sQuality : HighAdd ID3 tag : NoCommand line compressor : D:\flac-1.3.2-win\win64\flac.exeAdditional command line options : -V -8 -T "Date=%year%" -T "COMMENT=ripped by Andy aka yetiisyou" -T "Genre=%genre%" %source%
TOC of the extracted CD
Track | Start | Length | Start sector | End sector --------------------------------------------------------- 1 | 0:00.00 | 9:56.21 | 0 | 44720 2 | 9:56.21 | 4:42.25 | 44721 | 65895 3 | 14:38.46 | 9:38.13 | 65896 | 109258 4 | 24:16.59 | 4:18.43 | 109259 | 128651 5 | 28:35.27 | 5:58.09 | 128652 | 155510 6 | 34:33.36 | 4:09.14 | 155511 | 174199 7 | 38:42.50 | 5:19.40 | 174200 | 198164 8 | 44:02.15 | 5:46.56 | 198165 | 224170 9 | 49:48.71 | 3:08.29 | 224171 | 238299 10 | 52:57.25 | 4:47.54 | 238300 | 259878
Range status and errors
Selected range
Filename E:\!Ripped by Andy aka yetiisyou\VA - Fashion Only Presents - Dj Sapunov [2006]\Dj Sapunov - Fashion Only Presents (disc 1).wav
Peak level 100.0 % Extraction speed 4.9 X Range quality 100.0 % Test CRC 3F763A0F Copy CRC 3F763A0F Copy OK
No errors occurred
AccurateRip summary
Track 1 accurately ripped (confidence 2) [8F20FBF0] (AR v2)Track 2 accurately ripped (confidence 2) [700AD5E6] (AR v2)Track 3 accurately ripped (confidence 2) [0A2F60E3] (AR v2)Track 4 accurately ripped (confidence 2) [805A7C6B] (AR v2)Track 5 accurately ripped (confidence 2) [570C4FBB] (AR v2)Track 6 accurately ripped (confidence 2) [FFEA0453] (AR v2)Track 7 accurately ripped (confidence 2) [CED286B3] (AR v2)Track 8 accurately ripped (confidence 2) [2186448D] (AR v2)Track 9 accurately ripped (confidence 2) [0A0835AF] (AR v2)Track 10 accurately ripped (confidence 2) [EC46EF05] (AR v2)
All tracks accurately ripped
End of status report
---- CUETools DB Plugin V2.1.6
[CTDB TOCID: CcUSeTooOGD0uc3dsOT_YNdB1k8-] foundSubmit result: CcUSeTooOGD0uc3dsOT_YNdB1k8- has been confirmedTrack | CTDB Status 1 | (1/1) Accurately ripped 2 | (1/1) Accurately ripped 3 | (1/1) Accurately ripped 4 | (1/1) Accurately ripped 5 | (1/1) Accurately ripped 6 | (1/1) Accurately ripped 7 | (1/1) Accurately ripped 8 | (1/1) Accurately ripped 9 | (1/1) Accurately ripped 10 | (1/1) Accurately ripped
==== Log checksum F3A06D7CB5FC3E1C5B0F9F1B804C853EC3F14A53E5B15873ED0598401E06688E ====

cue CD 1

REM DATE 2006REM DISCID 9B0D890AREM COMMENT "ExactAudioCopy v1.3"PERFORMER "Dj Sapunov"TITLE "Fashion Only Presents (disc 1)"REM COMPOSER ""FILE "Dj Sapunov - Fashion Only Presents (disc 1).flac" WAVE TRACK 01 AUDIO TITLE "Boulevard" PERFORMER "Vector Lovers" REM COMPOSER "" INDEX 01 00:00:00 TRACK 02 AUDIO TITLE "Sundays Will Never Change (John Tejada Remix)" PERFORMER "I'm Not A Gun" REM COMPOSER "" INDEX 01 09:56:21 TRACK 03 AUDIO TITLE "Senorita Tristeza" PERFORMER "SCSI-9" REM COMPOSER "" INDEX 01 14:38:46 TRACK 04 AUDIO TITLE "Cool My Fire (I'm Burning)" PERFORMER "Ada" REM COMPOSER "" INDEX 01 24:16:59 TRACK 05 AUDIO TITLE "Untitled" PERFORMER "Unknown Artist" REM COMPOSER "" INDEX 01 28:35:27 TRACK 06 AUDIO TITLE "Scrumbled Decks" PERFORMER "Fabio Della Torre & David C." REM COMPOSER "" INDEX 01 34:33:36 TRACK 07 AUDIO TITLE "Untitled" PERFORMER "Unknown Artist" REM COMPOSER "" INDEX 01 38:42:50 TRACK 08 AUDIO TITLE "Magenta" PERFORMER "Fabio Della Torre & David C." REM COMPOSER "" INDEX 01 44:02:15 TRACK 09 AUDIO TITLE "Zu Fuss (Muttermix)" PERFORMER "Extrawelt" REM COMPOSER "" INDEX 01 49:48:71 TRACK 10 AUDIO TITLE "Fish On The Moon" PERFORMER "Arnaud Le Texier" REM COMPOSER "" INDEX 01 52:57:25

Log EAC CD 2

Exact Audio Copy V1.3 from 2. September 2016
EAC extraction logfile from 20. March 2018, 13:43
Dj Sapunov / Fashion Only Presents (disc 2)
Used drive : ASUS SDRW-08D2S-U Adapter: 9 ID: 0
Read mode : SecureUtilize accurate stream : YesDefeat audio cache : YesMake use of C2 pointers : No
Read offset correction : 6Overread into Lead-In and Lead-Out : NoFill up missing offset samples with silence : YesDelete leading and trailing silent blocks : NoNull samples used in CRC calculations : YesUsed interface : Installed external ASPI interface
Used output format : User Defined EncoderSelected bitrate : 128 kBit/sQuality : HighAdd ID3 tag : NoCommand line compressor : D:\flac-1.3.2-win\win64\flac.exeAdditional command line options : -V -8 -T "Date=%year%" -T "COMMENT=ripped by Andy aka yetiisyou" -T "Genre=%genre%" %source%
TOC of the extracted CD
Track | Start | Length | Start sector | End sector --------------------------------------------------------- 1 | 0:00.00 | 4:52.22 | 0 | 21921 2 | 4:52.22 | 5:22.35 | 21922 | 46106 3 | 10:14.57 | 4:35.41 | 46107 | 66772 4 | 14:50.23 | 3:17.49 | 66773 | 81596 5 | 18:07.72 | 5:51.59 | 81597 | 107980 6 | 23:59.56 | 3:00.37 | 107981 | 121517 7 | 27:00.18 | 4:30.72 | 121518 | 141839 8 | 31:31.15 | 4:15.33 | 141840 | 160997 9 | 35:46.48 | 2:46.35 | 160998 | 173482 10 | 38:33.08 | 4:46.16 | 173483 | 194948 11 | 43:19.24 | 4:14.42 | 194949 | 214040 12 | 47:33.66 | 1:45.27 | 214041 | 221942 13 | 49:19.18 | 7:56.34 | 221943 | 257676 14 | 57:15.52 | 2:29.11 | 257677 | 268862 15 | 59:44.63 | 5:43.02 | 268863 | 294589 16 | 65:27.65 | 5:27.22 | 294590 | 319136
Range status and errors
Selected range
Filename E:\!Ripped by Andy aka yetiisyou\VA - Fashion Only Presents - Dj Sapunov [2006]\Dj Sapunov - Fashion Only Presents (disc 2).wav
Peak level 100.0 % Extraction speed 5.2 X Range quality 100.0 % Test CRC B1572C8D Copy CRC B1572C8D Copy OK
No errors occurred
AccurateRip summary
Track 1 accurately ripped (confidence 2) [CD1CB5AA] (AR v2)Track 2 accurately ripped (confidence 2) [B7C0F878] (AR v2)Track 3 accurately ripped (confidence 2) [41C840AB] (AR v2)Track 4 accurately ripped (confidence 2) [FD57E581] (AR v2)Track 5 accurately ripped (confidence 2) [118E755B] (AR v2)Track 6 accurately ripped (confidence 2) [4E782F7E] (AR v2)Track 7 accurately ripped (confidence 2) [89A1425F] (AR v2)Track 8 accurately ripped (confidence 2) [50C2468D] (AR v2)Track 9 accurately ripped (confidence 2) [16D2D3F3] (AR v2)Track 10 accurately ripped (confidence 2) [25D9AAF4] (AR v2)Track 11 accurately ripped (confidence 2) [D2E6D04D] (AR v2)Track 12 accurately ripped (confidence 2) [0BFB80BC] (AR v2)Track 13 accurately ripped (confidence 2) [6C2B1553] (AR v2)Track 14 accurately ripped (confidence 2) [7CC1ABEF] (AR v2)Track 15 accurately ripped (confidence 2) [E118C897] (AR v2)Track 16 accurately ripped (confidence 2) [4FA1E61F] (AR v2)
All tracks accurately ripped
End of status report
---- CUETools DB Plugin V2.1.6
[CTDB TOCID: 5rAikfgDBrxIYM0aVVQrO5He81U-] foundSubmit result: 5rAikfgDBrxIYM0aVVQrO5He81U- has been confirmedTrack | CTDB Status 1 | (1/1) Accurately ripped 2 | (1/1) Accurately ripped 3 | (1/1) Accurately ripped 4 | (1/1) Accurately ripped 5 | (1/1) Accurately ripped 6 | (1/1) Accurately ripped 7 | (1/1) Accurately ripped 8 | (1/1) Accurately ripped 9 | (1/1) Accurately ripped 10 | (1/1) Accurately ripped 11 | (1/1) Accurately ripped 12 | (1/1) Accurately ripped 13 | (1/1) Accurately ripped 14 | (1/1) Accurately ripped 15 | (1/1) Accurately ripped 16 | (1/1) Accurately ripped
==== Log checksum E4650F35BF05A04A9E6D7BE8CB71F0B90D203FB89EC572C34DB50DB0818C29E5 ====

cue CD 2

REM DATE 2006REM DISCID F4109F10REM COMMENT "ExactAudioCopy v1.3"PERFORMER "Dj Sapunov"TITLE "Fashion Only Presents (disc 2)"REM COMPOSER ""FILE "Dj Sapunov - Fashion Only Presents (disc 2).flac" WAVE TRACK 01 AUDIO TITLE "Aerosol" PERFORMER "The Liptrick" REM COMPOSER "" INDEX 01 00:00:00 TRACK 02 AUDIO TITLE "Microline" PERFORMER "Tigerskin" REM COMPOSER "" INDEX 01 04:52:22 TRACK 03 AUDIO TITLE "Tb Or Not Tb (Martinez Remix)" PERFORMER "Soulrack" REM COMPOSER "" INDEX 01 10:14:57 TRACK 04 AUDIO TITLE "Untitled" PERFORMER "Unknown Artist" REM COMPOSER "" INDEX 01 14:50:23 TRACK 05 AUDIO TITLE "Sex" PERFORMER "Nooncat" REM COMPOSER "" INDEX 01 18:07:72 TRACK 06 AUDIO TITLE "Raumzeit" PERFORMER "Der Dritte Raum" REM COMPOSER "" INDEX 01 23:59:56 TRACK 07 AUDIO TITLE "Valium" PERFORMER "Vincenzo" REM COMPOSER "" INDEX 01 27:00:18 TRACK 08 AUDIO TITLE "The Angry Ghost" PERFORMER "Hug" REM COMPOSER "" INDEX 01 31:31:15 TRACK 09 AUDIO TITLE "Love Dose (Luciano Remix)" PERFORMER "Argy" REM COMPOSER "" INDEX 01 35:46:48 TRACK 10 AUDIO TITLE "Psych Doll" PERFORMER "Rework" REM COMPOSER "" INDEX 01 38:33:08 TRACK 11 AUDIO TITLE "Poke" PERFORMER "Peace Division" REM COMPOSER "" INDEX 01 43:19:24 TRACK 12 AUDIO TITLE "Koko With Steve" PERFORMER "3 Channels" REM COMPOSER "" INDEX 01 47:33:66 TRACK 13 AUDIO TITLE "Vexed" PERFORMER "Elektrochemie" REM COMPOSER "" INDEX 01 49:19:18 TRACK 14 AUDIO TITLE "Untitled" PERFORMER "Unknown Artist" REM COMPOSER "" INDEX 01 57:15:52 TRACK 15 AUDIO TITLE "Catch" PERFORMER "Limacon" REM COMPOSER "" INDEX 01 59:44:63 TRACK 16 AUDIO TITLE "Untitled" PERFORMER "Unknown Artist" REM COMPOSER "" INDEX 01 65:27:65


[islamvillage.com]_t_5646823.torrent
Торрент: Зарегистрирован ·  [ 2018-11-29 00:54 ] ·  f8e46ec44c8ad64861ea69f44f55c76251fa6fe5

16 KB

Статус: проверено
Скачан: 0 раз
Размер: 728 MB
Оценка: 
(Голосов: 0)
Сказали спасибо: 0  Спасибо
Похожие темы
[Профиль]    [ЛС]
Показать сообщения:    
Ответить на тему

Текущее время: Сегодня 23:16

Часовой пояс: GMT + 7



Вы не можете начинать темы
Вы не можете отвечать на сообщения
Вы не можете редактировать свои сообщения
Вы не можете удалять свои сообщения
Вы не можете голосовать в опросах
Вы не можете прикреплять файлы к сообщениям
Вы можете скачивать файлы


White horny man fucks slim ... | [HorribleSubs] Seishun Buta Yarou wa Bunny Girl Senpai no Yume wo Minai - 06 (1080p) | Funda Profesional Ps4 Carcasa Silicona Para Mando Sony Playstation Dualshock 4