(Techno, Electro) [CD] VA - DJ Muhomorov - Adult Only - 2005, FLAC (tracks+.cue), lossless

Ответить на тему
Статистика раздачи [Обновить пиров]
Размер:  512 MB   |    Зарегистрирован:  1 месяц 19 дней   |    Скачан:  0 раз

Полного источника не было: Никогда

 
   
 
 
 
Автор Сообщение

islamvillage.com

Создавать темы 29-Ноя-2018 01:05

[Цитировать]

DJ Muhomorov - Adult Only
[img=right]http://i3.imageban.ru/out/2018/11/18/23403cbf3e3bf...4c8306.png[/img]
Жанр: Techno, Electro
Носитель: CD
Год издания: 2005
Издатель (лейбл): Resistance Music
Номер по каталогу: RSM062
Аудиокодек: FLAC (*.flac)
Тип рипа: tracks+.cue
Битрейт аудио: lossless
Продолжительность: 59:26
Источник (релизер): свой рип
Наличие сканов в содержимом раздачи: да
Треклист:
01. DJ Muhomorov - Adult Only (3:21)
02. DJ Muhomorov - Adult Only (2:39)
03. DJ Muhomorov - Adult Only (2:35)
04. DJ Muhomorov - Adult Only (4:40)
05. DJ Muhomorov - Adult Only (3:12)
06. DJ Muhomorov - Adult Only (3:50)
07. DJ Muhomorov - Adult Only (4:26)
08. DJ Muhomorov - Adult Only (2:52)
09. DJ Muhomorov - Adult Only (4:40)
10. DJ Muhomorov - Adult Only (2:08)
11. DJ Muhomorov - Adult Only (3:28)
12. DJ Muhomorov - Adult Only (3:11)
13. DJ Muhomorov - Adult Only (3:29)
14. DJ Muhomorov - Adult Only (2:41)
15. DJ Muhomorov - Adult Only (5:02)
16. DJ Muhomorov - Adult Only (3:07)
17. DJ Muhomorov - Adult Only (4:04)

Лог создания рипа

Exact Audio Copy V1.3 from 2. September 2016
EAC extraction logfile from 16. June 2018, 18:47
DJ Muhomorov / Adult Only
Used drive : ASUS SDRW-08D2S-U Adapter: 9 ID: 1
Read mode : SecureUtilize accurate stream : YesDefeat audio cache : YesMake use of C2 pointers : No
Read offset correction : 6Overread into Lead-In and Lead-Out : NoFill up missing offset samples with silence : YesDelete leading and trailing silent blocks : NoNull samples used in CRC calculations : YesUsed interface : Installed external ASPI interface
Used output format : User Defined EncoderSelected bitrate : 128 kBit/sQuality : HighAdd ID3 tag : NoCommand line compressor : D:\flac-1.3.2-win\win64\flac.exeAdditional command line options : -V -8 -T "Date=%year%" -T "COMMENT=ripped by Andy aka yetiisyou" -T "Genre=%genre%" %source%
TOC of the extracted CD
Track | Start | Length | Start sector | End sector --------------------------------------------------------- 1 | 0:00.00 | 3:21.15 | 0 | 15089 2 | 3:21.15 | 2:38.67 | 15090 | 27006 3 | 6:00.07 | 2:35.36 | 27007 | 38667 4 | 8:35.43 | 4:40.15 | 38668 | 59682 5 | 13:15.58 | 3:12.32 | 59683 | 74114 6 | 16:28.15 | 3:50.08 | 74115 | 91372 7 | 20:18.23 | 4:25.60 | 91373 | 111307 8 | 24:44.08 | 2:52.17 | 111308 | 124224 9 | 27:36.25 | 4:40.03 | 124225 | 145227 10 | 32:16.28 | 2:07.52 | 145228 | 154804 11 | 34:24.05 | 3:28.36 | 154805 | 170440 12 | 37:52.41 | 3:10.39 | 170441 | 184729 13 | 41:03.05 | 3:28.51 | 184730 | 200380 14 | 44:31.56 | 2:41.28 | 200381 | 212483 15 | 47:13.09 | 5:01.59 | 212484 | 235117 16 | 52:14.68 | 3:06.47 | 235118 | 249114 17 | 55:21.40 | 4:04.14 | 249115 | 267428
Range status and errors
Selected range
Filename E:\Ripped by Andy aka yetiisyou\VA - DJ Muhomorov - Adult Only [RSM062] [2005]\DJ Muhomorov - Adult Only.wav
Peak level 96.2 % Extraction speed 4.5 X Range quality 99.9 % Test CRC 86E414B1 Copy CRC 86E414B1 Copy OK
No errors occurred
AccurateRip summary
Track 1 not present in databaseTrack 2 not present in databaseTrack 3 not present in databaseTrack 4 not present in databaseTrack 5 not present in databaseTrack 6 not present in databaseTrack 7 not present in databaseTrack 8 not present in databaseTrack 9 not present in databaseTrack 10 not present in databaseTrack 11 not present in databaseTrack 12 not present in databaseTrack 13 not present in databaseTrack 14 not present in databaseTrack 15 not present in databaseTrack 16 not present in databaseTrack 17 not present in database
None of the tracks are present in the AccurateRip database
End of status report
---- CUETools DB Plugin V2.1.6
[CTDB TOCID: 4qisPjh8nZ4irrqH78rB1NZkeNI-] foundSubmit result: 4qisPjh8nZ4irrqH78rB1NZkeNI- has been confirmedTrack | CTDB Status 1 | (1/1) Accurately ripped 2 | (1/1) Accurately ripped 3 | (1/1) Accurately ripped 4 | (1/1) Accurately ripped 5 | (1/1) Accurately ripped 6 | (1/1) Accurately ripped 7 | (1/1) Accurately ripped 8 | (1/1) Accurately ripped 9 | (1/1) Accurately ripped 10 | (1/1) Accurately ripped 11 | (1/1) Accurately ripped 12 | (1/1) Accurately ripped 13 | (1/1) Accurately ripped 14 | (1/1) Accurately ripped 15 | (1/1) Accurately ripped 16 | (1/1) Accurately ripped 17 | (1/1) Accurately ripped
==== Log checksum 71CB6C15355770CFBCCC5FFAB3E7A4509AA44AC4A6C7C8C98302E5972013E04F ====


[islamvillage.com]_t_5646687.torrent
Торрент: Зарегистрирован ·  [ 2018-11-29 01:05 ] ·  9f6978742dcc35955271393a64ecd1e2b648e70e

11 KB

Статус: проверено
Скачан: 0 раз
Размер: 512 MB
Оценка: 
(Голосов: 0)
Сказали спасибо: 0  Спасибо
Похожие темы
[Профиль]    [ЛС]
Показать сообщения:    
Ответить на тему

Текущее время: Сегодня 22:35

Часовой пояс: GMT + 7



Вы не можете начинать темы
Вы не можете отвечать на сообщения
Вы не можете редактировать свои сообщения
Вы не можете удалять свои сообщения
Вы не можете голосовать в опросах
Вы не можете прикреплять файлы к сообщениям
Вы можете скачивать файлы


Mahershala Ali | Buy It Now | Kamienie śmierci / Dolmen