(Electro House, Electro, Techno) [2xCD] VA - Kosinus & Slutkey - 06 Megamix - 2006, FLAC (image+.cue), lossless

Ответить на тему
Статистика раздачи [Обновить пиров]
Размер:  1.11 GB   |    Зарегистрирован:  1 месяц 19 дней   |    Скачан:  0 раз

Полного источника не было: Никогда

 
   
 
 
 
Автор Сообщение

islamvillage.com

Создавать темы 29-Ноя-2018 01:05

[Цитировать]

Kosinus & Slutkey - 06 Megamix
[img=right]http://i3.imageban.ru/out/2018/11/18/ae2f232a81db0...605ee3.png[/img]
Жанр: Electro House, Electro, Techno
Носитель: CD
Год издания: 2006
Издатель (лейбл): Father & Bitch Records
Номер по каталогу: FBR 007.2006
Аудиокодек: FLAC (*.flac)
Тип рипа: image+.cue
Битрейт аудио: lossless
Продолжительность: 02:35:51
Источник (релизер): свой рип
Наличие сканов в содержимом раздачи: да
Треклист:
CD 1
01. Die Raketen - Popsong (Short) (3:03)
02. Prince - When Doves Cry (Untitled Remix) (3:47)
03. Unknown Artist - Untitled (4:09)
04. Markus Gardeweg - 25 Years (Untitled Remix) (6:49)
05. Flat Pack - Sweet Child O' Mine (6:34)
06. White Cell - Tainted Love (4:58)
07. Mando Diao - Down In The Past (Moonbootica Remix) (3:49)
08. Sacha Robotti - Nintendo (Robosonic The Hedgehog Remix) (5:33)
09. 2raumwohnung & Moguai - Sasha (Sex Secret) (Moguai Mix) (6:50)
10. Freeform Five - No More Conversations (Richard X Remix) (5:18)
11. Persephone's Bees - Nice Day (Pete Heller's Concise Club Mix) (7:04)
12. Unknown Artist - Untitled (5:11)
13. Unknown Artist - Untitled (6:27)
14. Duoteque - Blick (5:26)
15. Unknown Artist - Untitled (2:19)
CD 2
01. Moonbootica - Pretty Little Angel (Clubmix) (6:06)
02. Unknown Artist - Untitled (6:51)
03. Audio Unit - Irresistible (Live Mix) (5:32)
04. Play Paul - Love Song (4:48)
05. The Neon Judgement - Tv Treated (Tiga's Treated Vox) (6:18)
06. DJ Remo Featuring Chelonis R. Jones - Black Sabrina (Thomas Schumacher Mix) (5:18)
07. Exchpoptrue - Discoteca (Jack'in Mix) (5:18)
08. In Flagranti - We Make Love In A House Made Of Glass (4:44)
09. Unknown Artist - Untitled (6:34)
10. Cajmere Featuring Walter Phillips - Midnight (4:18)
11. Rosenstolz - Ich Bin Ich (Wir Sind Wir) (Mousse T. / So Phat! Club Mix) (4:33)
12. Tiefschwarz - Warning Siren (4:18)
13. Telepopmusik - Into Everything (Plan B Missive Mix) (4:18)
14. Markus Lange - Strange Smile (Sweatshop Mix) (4:05)
15. Bot'Ox - Grand Central (5:37)

logs and sheetsLog EAC CD 1

Exact Audio Copy V1.3 from 2. September 2016
EAC extraction logfile from 27. October 2018, 23:16
Kosinus & Slutkey / 06 Megamix (Disc 1)
Used drive : ASUS DRW-24B5ST Adapter: 6 ID: 0
Read mode : SecureUtilize accurate stream : YesDefeat audio cache : YesMake use of C2 pointers : No
Read offset correction : 6Overread into Lead-In and Lead-Out : NoFill up missing offset samples with silence : YesDelete leading and trailing silent blocks : NoNull samples used in CRC calculations : YesUsed interface : Installed external ASPI interface
Used output format : User Defined EncoderSelected bitrate : 128 kBit/sQuality : HighAdd ID3 tag : NoCommand line compressor : D:\flac-1.3.2-win\win64\flac.exeAdditional command line options : -V -8 -T "Date=%year%" -T "COMMENT=ripped by Andy aka yetiisyou" -T "Genre=%genre%" %source%
TOC of the extracted CD
Track | Start | Length | Start sector | End sector --------------------------------------------------------- 1 | 0:00.00 | 3:03.24 | 0 | 13748 2 | 3:03.24 | 3:46.49 | 13749 | 30747 3 | 6:49.73 | 4:09.32 | 30748 | 49454 4 | 10:59.30 | 6:48.42 | 49455 | 80096 5 | 17:47.72 | 6:33.40 | 80097 | 109611 6 | 24:21.37 | 4:58.35 | 109612 | 131996 7 | 29:19.72 | 3:48.45 | 131997 | 149141 8 | 33:08.42 | 5:32.51 | 149142 | 174092 9 | 38:41.18 | 6:50.19 | 174093 | 204861 10 | 45:31.37 | 5:17.52 | 204862 | 228688 11 | 50:49.14 | 7:03.71 | 228689 | 260484 12 | 57:53.10 | 5:10.45 | 260485 | 283779 13 | 63:03.55 | 6:26.41 | 283780 | 312770 14 | 69:30.21 | 5:25.74 | 312771 | 337219 15 | 74:56.20 | 2:18.60 | 337220 | 347629
Range status and errors
Selected range
Filename E:\!Ripped by Andy aka yetiisyou\VA - Kosinus & Slutkey - 06 Megamix [FBR 007.2006] [2006]\Kosinus & Slutkey - 06 Megamix (Disc 1).wav
Peak level 97.7 % Extraction speed 6.6 X Range quality 99.9 % Test CRC 0CB9CEAB Copy CRC 0CB9CEAB Copy OK
No errors occurred
AccurateRip summary
Track 1 accurately ripped (confidence 1) [F943D46F] (AR v2)Track 2 accurately ripped (confidence 1) [FCADF9A7] (AR v2)Track 3 accurately ripped (confidence 1) [A05E7FC8] (AR v2)Track 4 accurately ripped (confidence 1) [EE694398] (AR v2)Track 5 accurately ripped (confidence 1) [77F5CBFE] (AR v2)Track 6 accurately ripped (confidence 1) [009A3914] (AR v2)Track 7 accurately ripped (confidence 1) [9A16872B] (AR v2)Track 8 accurately ripped (confidence 1) [B4281AFD] (AR v2)Track 9 accurately ripped (confidence 1) [3B3A1280] (AR v2)Track 10 accurately ripped (confidence 1) [24AF0193] (AR v2)Track 11 accurately ripped (confidence 1) [F81FB6DC] (AR v2)Track 12 accurately ripped (confidence 1) [C5F6898B] (AR v2)Track 13 accurately ripped (confidence 1) [BB583543] (AR v2)Track 14 accurately ripped (confidence 1) [8BDE5895] (AR v2)Track 15 accurately ripped (confidence 1) [BFE2B58A] (AR v2)
All tracks accurately ripped
End of status report
---- CUETools DB Plugin V2.1.6
[CTDB TOCID: mWkTN9a5NTmZicehLcc6mOzLX1A-] foundSubmit result: mWkTN9a5NTmZicehLcc6mOzLX1A- has been confirmedTrack | CTDB Status 1 | (1/1) Accurately ripped 2 | (1/1) Accurately ripped 3 | (1/1) Accurately ripped 4 | (1/1) Accurately ripped 5 | (1/1) Accurately ripped 6 | (1/1) Accurately ripped 7 | (1/1) Accurately ripped 8 | (1/1) Accurately ripped 9 | (1/1) Accurately ripped 10 | (1/1) Accurately ripped 11 | (1/1) Accurately ripped 12 | (1/1) Accurately ripped 13 | (1/1) Accurately ripped 14 | (1/1) Accurately ripped 15 | (1/1) Accurately ripped
==== Log checksum 446992F6AFA3F3F66FA8D40FC278E2E045E5AEFC0E05DE714679A78B8B561C87 ====

cue CD 1

REM DATE 2006REM DISCID D6121B0FREM COMMENT "ExactAudioCopy v1.3"PERFORMER "Kosinus & Slutkey"TITLE "06 Megamix (Disc 1)"REM COMPOSER ""FILE "Kosinus & Slutkey - 06 Megamix (Disc 1).flac" WAVE TRACK 01 AUDIO TITLE "Popsong (Short)" PERFORMER "Die Raketen" REM COMPOSER "" FLAGS DCP INDEX 01 00:00:00 TRACK 02 AUDIO TITLE "When Doves Cry (Untitled Remix)" PERFORMER "Prince" REM COMPOSER "" FLAGS DCP INDEX 01 03:03:24 TRACK 03 AUDIO TITLE "Untitled" PERFORMER "Unknown Artist" REM COMPOSER "" FLAGS DCP INDEX 01 06:49:73 TRACK 04 AUDIO TITLE "25 Years (Untitled Remix)" PERFORMER "Markus Gardeweg" REM COMPOSER "" FLAGS DCP INDEX 01 10:59:30 TRACK 05 AUDIO TITLE "Sweet Child O' Mine " PERFORMER "Flat Pack" REM COMPOSER "" FLAGS DCP INDEX 01 17:47:72 TRACK 06 AUDIO TITLE "Tainted Love" PERFORMER "White Cell" REM COMPOSER "" FLAGS DCP INDEX 01 24:21:37 TRACK 07 AUDIO TITLE "Down In The Past (Moonbootica Remix)" PERFORMER "Mando Diao" REM COMPOSER "" FLAGS DCP INDEX 01 29:19:72 TRACK 08 AUDIO TITLE "Nintendo (Robosonic The Hedgehog Remix)" PERFORMER "Sacha Robotti" REM COMPOSER "" FLAGS DCP INDEX 01 33:08:42 TRACK 09 AUDIO TITLE "Sasha (Sex Secret) (Moguai Mix)" PERFORMER "2raumwohnung & Moguai" REM COMPOSER "" FLAGS DCP INDEX 01 38:41:18 TRACK 10 AUDIO TITLE "No More Conversations (Richard X Remix)" PERFORMER "Freeform Five" REM COMPOSER "" FLAGS DCP INDEX 01 45:31:37 TRACK 11 AUDIO TITLE "Nice Day (Pete Heller's Concise Club Mix)" PERFORMER "Persephone's Bees" REM COMPOSER "" FLAGS DCP INDEX 01 50:49:14 TRACK 12 AUDIO TITLE "Untitled" PERFORMER "Unknown Artist" REM COMPOSER "" FLAGS DCP INDEX 01 57:53:10 TRACK 13 AUDIO TITLE "Untitled" PERFORMER "Unknown Artist" REM COMPOSER "" FLAGS DCP INDEX 01 63:03:55 TRACK 14 AUDIO TITLE "Blick" PERFORMER "Duoteque" REM COMPOSER "" FLAGS DCP INDEX 01 69:30:21 TRACK 15 AUDIO TITLE "Untitled" PERFORMER "Unknown Artist" REM COMPOSER "" FLAGS DCP INDEX 01 74:56:20

Log EAC CD 2

Exact Audio Copy V1.3 from 2. September 2016
EAC extraction logfile from 27. October 2018, 23:42
Kosinus & Slutkey / 06 Megamix (Disc 2)
Used drive : ASUS DRW-24B5ST Adapter: 6 ID: 0
Read mode : SecureUtilize accurate stream : YesDefeat audio cache : YesMake use of C2 pointers : No
Read offset correction : 6Overread into Lead-In and Lead-Out : NoFill up missing offset samples with silence : YesDelete leading and trailing silent blocks : NoNull samples used in CRC calculations : YesUsed interface : Installed external ASPI interface
Used output format : User Defined EncoderSelected bitrate : 128 kBit/sQuality : HighAdd ID3 tag : NoCommand line compressor : D:\flac-1.3.2-win\win64\flac.exeAdditional command line options : -V -8 -T "Date=%year%" -T "COMMENT=ripped by Andy aka yetiisyou" -T "Genre=%genre%" %source%
TOC of the extracted CD
Track | Start | Length | Start sector | End sector --------------------------------------------------------- 1 | 0:00.00 | 6:06.04 | 0 | 27453 2 | 6:06.04 | 6:51.24 | 27454 | 58302 3 | 12:57.28 | 5:32.05 | 58303 | 83207 4 | 18:29.33 | 4:47.46 | 83208 | 104778 5 | 23:17.04 | 6:17.56 | 104779 | 133109 6 | 29:34.60 | 5:17.56 | 133110 | 156940 7 | 34:52.41 | 5:17.53 | 156941 | 180768 8 | 40:10.19 | 4:43.73 | 180769 | 202066 9 | 44:54.17 | 6:34.10 | 202067 | 231626 10 | 51:28.27 | 4:17.52 | 231627 | 250953 11 | 55:46.04 | 4:32.63 | 250954 | 271416 12 | 60:18.67 | 4:17.42 | 271417 | 290733 13 | 64:36.34 | 4:17.42 | 290734 | 310050 14 | 68:54.01 | 4:04.42 | 310051 | 328392 15 | 72:58.43 | 5:37.27 | 328393 | 353694
Range status and errors
Selected range
Filename E:\!Ripped by Andy aka yetiisyou\VA - Kosinus & Slutkey - 06 Megamix [FBR 007.2006] [2006]\Kosinus & Slutkey - 06 Megamix (Disc 2).wav
Peak level 97.7 % Extraction speed 6.8 X Range quality 100.0 % Test CRC E5BDF05B Copy CRC E5BDF05B Copy OK
No errors occurred
AccurateRip summary
Track 1 accurately ripped (confidence 1) [A35D533C] (AR v2)Track 2 accurately ripped (confidence 1) [A359DEA5] (AR v2)Track 3 accurately ripped (confidence 1) [AD4A7E3C] (AR v2)Track 4 accurately ripped (confidence 1) [2B0B00FD] (AR v2)Track 5 accurately ripped (confidence 1) [3644D62A] (AR v2)Track 6 accurately ripped (confidence 1) [AFD15064] (AR v2)Track 7 accurately ripped (confidence 1) [5DED8FFC] (AR v2)Track 8 accurately ripped (confidence 1) [192E1CC3] (AR v2)Track 9 accurately ripped (confidence 1) [E7248F5F] (AR v2)Track 10 accurately ripped (confidence 1) [9621DF5A] (AR v2)Track 11 accurately ripped (confidence 1) [FF82CDF8] (AR v2)Track 12 accurately ripped (confidence 1) [46E6C203] (AR v2)Track 13 accurately ripped (confidence 1) [4C6B619A] (AR v2)Track 14 accurately ripped (confidence 1) [12C29B7D] (AR v2)Track 15 accurately ripped (confidence 1) [912B56A4] (AR v2)
All tracks accurately ripped
End of status report
---- CUETools DB Plugin V2.1.6
[CTDB TOCID: O.1m2E5s89lv6PBio1ybnkRdXVE-] foundSubmit result: O.1m2E5s89lv6PBio1ybnkRdXVE- has been confirmedTrack | CTDB Status 1 | (1/1) Accurately ripped 2 | (1/1) Accurately ripped 3 | (1/1) Accurately ripped 4 | (1/1) Accurately ripped 5 | (1/1) Accurately ripped 6 | (1/1) Accurately ripped 7 | (1/1) Accurately ripped 8 | (1/1) Accurately ripped 9 | (1/1) Accurately ripped 10 | (1/1) Accurately ripped 11 | (1/1) Accurately ripped 12 | (1/1) Accurately ripped 13 | (1/1) Accurately ripped 14 | (1/1) Accurately ripped 15 | (1/1) Accurately ripped
==== Log checksum C7E9C0CF077171BA167F60591D183D2291A36700CB5CA5631A1EB4EB9B2D4AC8 ====

cue CD 2

REM DATE 2006REM DISCID E8126B0FREM COMMENT "ExactAudioCopy v1.3"PERFORMER "Kosinus & Slutkey"TITLE "06 Megamix (Disc 2)"REM COMPOSER ""FILE "Kosinus & Slutkey - 06 Megamix (Disc 2).flac" WAVE TRACK 01 AUDIO TITLE "Pretty Little Angel (Clubmix)" PERFORMER "Moonbootica" REM COMPOSER "" FLAGS DCP INDEX 01 00:00:00 TRACK 02 AUDIO TITLE "Untitled" PERFORMER "Unknown Artist" REM COMPOSER "" FLAGS DCP INDEX 01 06:06:04 TRACK 03 AUDIO TITLE "Irresistible (Live Mix)" PERFORMER "Audio Unit" REM COMPOSER "" FLAGS DCP INDEX 01 12:57:28 TRACK 04 AUDIO TITLE "Love Song" PERFORMER "Play Paul" REM COMPOSER "" FLAGS DCP INDEX 01 18:29:33 TRACK 05 AUDIO TITLE "Tv Treated (Tiga's Treated Vox)" PERFORMER "The Neon Judgement" REM COMPOSER "" FLAGS DCP INDEX 01 23:17:04 TRACK 06 AUDIO TITLE "Black Sabrina (Thomas Schumacher Mix)" PERFORMER "DJ Remo Featuring Chelonis R. Jones" REM COMPOSER "" FLAGS DCP INDEX 01 29:34:60 TRACK 07 AUDIO TITLE "Discoteca (Jack'in Mix)" PERFORMER "Exchpoptrue" REM COMPOSER "" FLAGS DCP INDEX 01 34:52:41 TRACK 08 AUDIO TITLE "We Make Love In A House Made Of Glass" PERFORMER "In Flagranti" REM COMPOSER "" FLAGS DCP INDEX 01 40:10:19 TRACK 09 AUDIO TITLE "Untitled" PERFORMER "Unknown Artist" REM COMPOSER "" FLAGS DCP INDEX 01 44:54:17 TRACK 10 AUDIO TITLE "Midnight" PERFORMER "Cajmere Featuring Walter Phillips" REM COMPOSER "" FLAGS DCP INDEX 01 51:28:27 TRACK 11 AUDIO TITLE "Ich Bin Ich (Wir Sind Wir) (Mousse T. / So Phat! Club Mix)" PERFORMER "Rosenstolz" REM COMPOSER "" FLAGS DCP INDEX 01 55:46:04 TRACK 12 AUDIO TITLE "Warning Siren" PERFORMER "Tiefschwarz" REM COMPOSER "" FLAGS DCP INDEX 01 60:18:67 TRACK 13 AUDIO TITLE "Into Everything (Plan B Missive Mix)" PERFORMER "Telepopmusik" REM COMPOSER "" FLAGS DCP INDEX 01 64:36:34 TRACK 14 AUDIO TITLE "Strange Smile (Sweatshop Mix)" PERFORMER "Markus Lange" REM COMPOSER "" FLAGS DCP INDEX 01 68:54:01 TRACK 15 AUDIO TITLE "Grand Central" PERFORMER "Bot'Ox" REM COMPOSER "" FLAGS DCP INDEX 01 72:58:43


[islamvillage.com]_t_3048261.torrent
Торрент: Зарегистрирован ·  [ 2018-11-29 01:05 ] ·  3f159313737cc174e4f75e26f55aada3efb50c34

12 KB

Статус: проверено
Скачан: 0 раз
Размер: 1.11 GB
Оценка: 
(Голосов: 0)
Сказали спасибо: 0  Спасибо
Похожие темы
[Профиль]    [ЛС]
Показать сообщения:    
Ответить на тему

Текущее время: Сегодня 23:25

Часовой пояс: GMT + 7



Вы не можете начинать темы
Вы не можете отвечать на сообщения
Вы не можете редактировать свои сообщения
Вы не можете удалять свои сообщения
Вы не можете голосовать в опросах
Вы не можете прикреплять файлы к сообщениям
Вы можете скачивать файлы


Watch Rush Hour (2016) Online | They Shall Not Grow Old (2018) | Sicurezza e antifurti