(Vocal Jazz) [CD] Katie Melua - Ketevan (Promo CD) - 2013, FLAC (image+.cue), lossless

Ответить на тему
Статистика раздачи [Обновить пиров]
Размер:  245 MB   |    Зарегистрирован:  1 месяц 13 дней   |    Скачан:  0 раз

Полного источника не было: Никогда

 
   
 
 
 
Автор Сообщение

islamvillage.com

Создавать темы 04-Дек-2018 22:06

[Цитировать]

Katie Melua / Ketevan (Promo CD)
[img=right]http://i107.fastpic.ru/big/2018/1128/6a/3ee8f16575...e3046a.jpg[/img]
Жанр: Vocal Jazz
Носитель: CD
Страна-производитель диска (релиза): UK
Год издания: 2013
Издатель (лейбл): Dramatico Entertainment Ltd
Номер по каталогу: DRAMCD0095
Страна исполнителя (группы): UK
Аудиокодек: FLAC (*.flac)
Тип рипа: image+.cue
Битрейт аудио: lossless
Продолжительность: 00:40:09
Источник (релизер): собственный рип
Наличие сканов в содержимом раздачи: да
Треклист:
01. Never Felt Less Like Dancing [0:04:12.52]
02. Sailing Ships From Heaven [0:05:01.04]
03. Love Is A Silent Thief [0:03:00.49]
04. Shiver And Shake [0:02:59.63]
05. The Love I'm Frightened Of [0:03:35.59]
06. Where Does The Ocean Go? [0:03:38.00]
07. Idiot School [0:03:35.08]
08. Mad, Mad Men [0:03:21.37]
09. Chase Me [0:03:41.62]
10. I Never Fall [0:02:46.51]
11. I Will Be There [0:04:16.27]

Лог создания рипа

Exact Audio Copy V1.3 from 2. September 2016
Отчёт EAC об извлечении, выполненном 28. ноября 2018, 17:00
Katie Melua / Ketevan
Дисковод: PLEXTOR DVDR PX-755A Adapter: 1 ID: 0
Режим чтения : ДостоверностьИспользование точного потока : ДаОтключение кэша аудио : ДаИспользование указателей C2 : Нет
Коррекция смещения при чтении : 30Способность читать области Lead-in и Lead-out : НетЗаполнение пропущенных сэмплов тишиной : ДаУдаление блоков с тишиной в начале и конце : НетПри вычислениях CRC использовались нулевые сэмплы : ДаИнтерфейс : Встроенный Win32-интерфейс для Win NT/2000
Выходной формат : Пользовательский кодировщикВыбранный битрейт : 1024 kBit/sКачество : ВысокийДобавление ID3-тега : НетУтилита сжатия : C:\Program Files (x86)\Exact Audio Copy\FLAC\FLAC.EXEДополнительные параметры : -6 -V -T "ARTIST=%artist%" -T "TITLE=%title%" -T "ALBUM=%albumtitle%" -T "DATE=%year%" -T "TRACKNUMBER=%tracknr%" -T "GENRE=%genre%" -T "COMMENT=%comment%" -T "BAND=%albuminterpret%" -T "ALBUMARTIST=%albuminterpret%" -T "COMPOSER=%composer%" %haslyrics%--tag-from-file=LYRICS="%lyricsfile%"%haslyrics% -T "DISCNUMBER=%cdnumber%" -T "TOTALDISCS=%totalcds%" -T "TOTALTRACKS=%numtracks%" %hascover%--picture="%coverfile%"%hascover% %source% -o %dest%
TOC извлечённого CD
Трек | Старт | Длительность | Начальный сектор | Конечный сектор --------------------------------------------------------------------- 1 | 0:00.00 | 4:12.52 | 0 | 18951 2 | 4:12.52 | 5:01.04 | 18952 | 41530 3 | 9:13.56 | 3:00.49 | 41531 | 55079 4 | 12:14.30 | 2:59.63 | 55080 | 68567 5 | 15:14.18 | 3:35.59 | 68568 | 84751 6 | 18:50.02 | 3:38.00 | 84752 | 101101 7 | 22:28.02 | 3:35.08 | 101102 | 117234 8 | 26:03.10 | 3:21.37 | 117235 | 132346 9 | 29:24.47 | 3:41.62 | 132347 | 148983 10 | 33:06.34 | 2:46.51 | 148984 | 161484 11 | 35:53.10 | 4:16.27 | 161485 | 180711
Характеристики диапазона извлечения и сообщения об ошибках
Выбранный диапазон
Имя файла E:\РАЗДАЧА\Katie Melua - Katavan (Promo CD)\Katie Melua - Ketevan.wav
Пиковый уровень 100.0 % Скорость извлечения 7.6 X Качество диапазона 100.0 % CRC теста 565B9322 CRC копии 565B9322 Копирование... OK
Ошибок не произошло
AccurateRip: сводка
Трек 1 отсутствует в базе данныхТрек 2 отсутствует в базе данныхТрек 3 отсутствует в базе данныхТрек 4 отсутствует в базе данныхТрек 5 отсутствует в базе данныхТрек 6 отсутствует в базе данныхТрек 7 отсутствует в базе данныхТрек 8 отсутствует в базе данныхТрек 9 отсутствует в базе данныхТрек 10 отсутствует в базе данныхТрек 11 отсутствует в базе данных
Ни одного трека нет в базе AccurateRip
Конец отчёта


[islamvillage.com]_t_5651312.torrent
Торрент: Зарегистрирован ·  [ 2018-12-04 22:06 ] ·  79b7aef1878c1bbbce403b4b96a0a412ed465b30

20 KB

Статус: проверено
Скачан: 0 раз
Размер: 245 MB
Оценка: 
(Голосов: 0)
Сказали спасибо: 0  Спасибо
Похожие темы
[Профиль]    [ЛС]
Показать сообщения:    
Ответить на тему

Текущее время: Сегодня 10:17

Часовой пояс: GMT + 7



Вы не можете начинать темы
Вы не можете отвечать на сообщения
Вы не можете редактировать свои сообщения
Вы не можете удалять свои сообщения
Вы не можете голосовать в опросах
Вы не можете прикреплять файлы к сообщениям
Вы можете скачивать файлы


Effects of computer to college students | A Connecticut Yankee ... | Read more