(Female Vocal Jazz) [CD] The Whizkey Brothers feat. Sona MacDonald - Eine Hommage an Billie Holiday - 2018, FLAC (tracks), lossless

Ответить на тему
Статистика раздачи [Обновить пиров]
Размер:  184 MB   |    Зарегистрирован:  1 месяц 13 дней   |    Скачан:  0 раз

Полного источника не было: Никогда

 
   
 
 
 
Автор Сообщение

islamvillage.com

Создавать темы 05-Дек-2018 00:01

[Цитировать]

The Whizkey Brothers
featuring
Sona Macdonald
Eine Hommage an
Billie Holiday

[img=right]http://a.radikal.ru/a21/1812/9b/4d54861d1039.jpg[/img]
Жанр: Female Vocal Jazz
Страна-производитель диска: Austria
Год издания: 2018
Издатель (лейбл): Frankmusic
Номер по каталогу: X27200001-2
Аудиокодек: FLAC (*.flac)
Тип рипа: tracks
Битрейт аудио: lossless
Продолжительность: 33:05
Источник (релизер): www
Наличие сканов: нет
Треклист:
1. Fine and Mellow
2. All of Me
3. Billie's Blues
4. God Bless the Child
5. Your Mother's Son In Law
6. Summertime
7. One For My Baby, One More For the Road
8. Strange Fruit
9. I'll Be Seeing You
10. As Time Goes By
11. Blue Moon

Лог проверки качества

AUDIOCHECKER v2.0 beta (build 457) - by Dester - opdester@freemail.hu~~~~~~~~~~~~~~~~~~~~~~~~~~~~~~~~~~-=== DO NOT EDIT THIS FILE! ===-
Path: ...\The Whizkey Brothers & Sona MacDonald – Eine Hommage an Billie Holiday (2018) [FLAC]
01 -=- 01 - Fine And Mellow.flac -=- CDDA (100%)02 -=- 02 - All Of Me.flac -=- CDDA (100%)03 -=- 03 - Billie's Blues.flac -=- CDDA (100%)04 -=- 04 - God Bless The Child.flac -=- CDDA (100%)05 -=- 05 - Your Mother's Son In Law.flac -=- CDDA (100%)06 -=- 06 - Summertime.flac -=- CDDA (100%)07 -=- 07 - One For My Baby, One More For The Road.flac -=- CDDA (100%)08 -=- 08 - Strange Fruit.flac -=- CDDA (100%)09 -=- 09 - I'll Be Seeing You.flac -=- CDDA (100%)10 -=- 10 - As Time Goes By.flac -=- CDDA (100%)11 -=- 11 - Blue Moon.flac -=- CDDA (100%)
Summary 100,00% CDDA
88580964

DR

foobar2000 1.3.12 / Замер динамического диапазона (DR) 1.1.1Дата отчёта: 2018-12-04 01:45:34
--------------------------------------------------------------------------------Анализ: The Whizkey Brothers feat. Sona MacDonald / Eine Hommage An Billie Holiday--------------------------------------------------------------------------------
DR Пики RMS Продолжительность трека--------------------------------------------------------------------------------DR11 -1.00 дБ -14.50 дБ 3:48 01-Fine And MellowDR10 -1.00 дБ -14.40 дБ 2:30 02-All Of MeDR12 -1.00 дБ -16.05 дБ 3:35 03-Billie's BluesDR12 -1.00 дБ -17.09 дБ 3:17 04-God Bless The ChildDR11 -1.00 дБ -14.42 дБ 2:14 05-Your Mother's Son In LawDR12 -1.00 дБ -17.01 дБ 3:01 06-SummertimeDR10 -1.00 дБ -14.22 дБ 2:54 07-One For My Baby, One More For The RoadDR11 -1.00 дБ -16.59 дБ 2:51 08-Strange FruitDR11 -1.00 дБ -16.94 дБ 2:49 09-I'll Be Seeing YouDR11 -1.00 дБ -16.26 дБ 3:06 10-As Time Goes ByDR10 -1.00 дБ -14.88 дБ 3:03 11-Blue Moon--------------------------------------------------------------------------------
Количество треков: 11Реальные значения DR: DR11
Частота: 44100 ГцКаналов: 2Разрядность: 16Битрейт: 740 кбит/сКодек: FLAC================================================================================

Состав

Sona Macdonald - vocals
Christian Frank - piano
Herbert Berger - tenor sax, clarinet, harmonica
Andy Mayerl - double bass
Klaus Pérez-Salado - drums


[islamvillage.com]_t_5654312.torrent
Торрент: Зарегистрирован ·  [ 2018-12-05 00:01 ] ·  cae9301baa28cc997abc5b485e8522ac60563817

16 KB

Статус: проверено
Скачан: 0 раз
Размер: 184 MB
Оценка: 
(Голосов: 0)
Сказали спасибо: 0  Спасибо
Похожие темы
[Профиль]    [ЛС]
Показать сообщения:    
Ответить на тему

Текущее время: Сегодня 10:09

Часовой пояс: GMT + 7



Вы не можете начинать темы
Вы не можете отвечать на сообщения
Вы не можете редактировать свои сообщения
Вы не можете удалять свои сообщения
Вы не можете голосовать в опросах
Вы не можете прикреплять файлы к сообщениям
Вы можете скачивать файлы


sedamaru | Billionaire - Yo Yo Honey Singh | RS4 Badge Emblem Decal Sticker Logo A4 S4 RS Audi boot lid rear trunk tailgate