(Vocal Jazz) [CD] Matt Belsante - Nice \'n\' Easy - 2018, FLAC (tracks+.cue), lossless

Ответить на тему
Статистика раздачи [Обновить пиров]
Размер:  315 MB   |    Зарегистрирован:  1 месяц 13 дней   |    Скачан:  0 раз

Полного источника не было: Никогда

 
   
 
 
 
Автор Сообщение

islamvillage.com

Создавать темы 05-Дек-2018 00:02

[Цитировать]

Matt Belsante - Nice 'n' Easy
[img=right]http://i106.fastpic.ru/big/2018/1203/7f/c6a713d8da...4b037f.jpg[/img]
Жанр: Vocal Jazz
Носитель: CD
Страна-производитель диска (релиза): США
Год издания: 2018
Издатель (лейбл): Green Hill Productions
Номер по каталогу: GHD6151
Аудиокодек: FLAC (*.flac)
Тип рипа: tracks+.cue
Битрейт аудио: lossless
Продолжительность: 56:50
Источник (релизер): Negative_Creep
Наличие сканов в содержимом раздачи: нет
Треклист:
01. Nice 'n' Easy (4:13)
02. Cheek to Cheek (4:42)
03. Since I Fell for You (4:22)
04. There Will Never Be Another You (4:37)
05. I Got It Bad and That Ain't Good (4:49)
06. The Look of Love (4:50)
07. They Can't Take That Away from Me (3:36)
08. After You've Gone (3:08)
09. Moon River (4:22)
10. In a Sentimental Mood (5:14)
11. Will You Still Love Me Tomorrow (4:46)
12. You'd Be So Nice to Come Home To (3:46)
13. One for My Baby (4:25)

Лог создания рипа

Exact Audio Copy V1.1 from 23. June 2015
EAC extraction logfile from 2. December 2018, 9:36
Matt Belsante / Nice 'n' Easy
Used drive : HL-DT-STDVDRAM GP65NS60 Adapter: 1 ID: 1
Read mode : SecureUtilize accurate stream : YesDefeat audio cache : YesMake use of C2 pointers : No
Read offset correction : 6Overread into Lead-In and Lead-Out : NoFill up missing offset samples with silence : YesDelete leading and trailing silent blocks : NoNull samples used in CRC calculations : YesUsed interface : Native Win32 interface for Win NT & 2000Gap handling : Appended to previous track
Used output format : User Defined EncoderSelected bitrate : 1024 kBit/sQuality : HighAdd ID3 tag : NoCommand line compressor : C:\Program Files (x86)\Exact Audio Copy\Flac\flac.exeAdditional command line options : -8 -e -V -T "ARTIST=%artist%" -T "TITLE=%title%" -T "ALBUM=%albumtitle%" -T "DATE=%year%" -T "TRACKNUMBER=%tracknr%" -T "GENRE=%genre%" -T "PERFORMER=%albuminterpret%" -T "COMPOSER=%composer%" %haslyrics%--tag-from-file=LYRICS="%lyricsfile%"%haslyrics% -T "ALBUMARTIST=%albumartist%" -T "DISCNUMBER=%cdnumber%" -T "TOTALDISCS=%totalcds%" -T "TOTALTRACKS=%numtracks%" -T "COMMENT=%comment%" %source% -o %dest%
TOC of the extracted CD
Track | Start | Length | Start sector | End sector --------------------------------------------------------- 1 | 0:00.00 | 4:13.28 | 0 | 19002 2 | 4:13.28 | 4:42.28 | 19003 | 40180 3 | 8:55.56 | 4:22.37 | 40181 | 59867 4 | 13:18.18 | 4:37.13 | 59868 | 80655 5 | 17:55.31 | 4:49.05 | 80656 | 102335 6 | 22:44.36 | 4:50.27 | 102336 | 124112 7 | 27:34.63 | 3:36.26 | 124113 | 140338 8 | 31:11.14 | 3:07.38 | 140339 | 154401 9 | 34:18.52 | 4:22.16 | 154402 | 174067 10 | 38:40.68 | 5:14.18 | 174068 | 197635 11 | 43:55.11 | 4:45.54 | 197636 | 219064 12 | 48:40.65 | 3:46.05 | 219065 | 236019 13 | 52:26.70 | 4:25.08 | 236020 | 255902
Track 1
Filename D:\Matt Belsante - Nice 'n' Easy (GHD6151) [FLAC]\01 - Nice 'n' Easy.wav
Pre-gap length 0:00:02.00
Peak level 99.9 % Extraction speed 2.6 X Track quality 100.0 % Test CRC D8489858 Copy CRC D8489858 Accurately ripped (confidence 1) [57A88B71] (AR v2) Copy OK
Track 2
Filename D:\Matt Belsante - Nice 'n' Easy (GHD6151) [FLAC]\02 - Cheek to Cheek.wav
Pre-gap length 0:00:02.56
Peak level 99.9 % Extraction speed 3.0 X Track quality 100.0 % Test CRC 10845283 Copy CRC 10845283 Accurately ripped (confidence 1) [0A5136A6] (AR v2) Copy OK
Track 3
Filename D:\Matt Belsante - Nice 'n' Easy (GHD6151) [FLAC]\03 - Sine I Fell for You.wav
Pre-gap length 0:00:02.97
Peak level 99.9 % Extraction speed 3.2 X Track quality 100.0 % Test CRC 235FED12 Copy CRC 235FED12 Accurately ripped (confidence 1) [843529DC] (AR v2) Copy OK
Track 4
Filename D:\Matt Belsante - Nice 'n' Easy (GHD6151) [FLAC]\04 - There Will Never Be Another You.wav
Pre-gap length 0:00:02.98
Peak level 99.9 % Extraction speed 3.5 X Track quality 100.0 % Test CRC 7FC40726 Copy CRC 7FC40726 Accurately ripped (confidence 1) [81790732] (AR v2) Copy OK
Track 5
Filename D:\Matt Belsante - Nice 'n' Easy (GHD6151) [FLAC]\05 - I Got It Bad And That Ain't Good.wav
Pre-gap length 0:00:02.52
Peak level 99.9 % Extraction speed 3.8 X Track quality 100.0 % Test CRC D13C5F79 Copy CRC D13C5F79 Accurately ripped (confidence 1) [541E2C1F] (AR v2) Copy OK
Track 6
Filename D:\Matt Belsante - Nice 'n' Easy (GHD6151) [FLAC]\06 - The Look of Love.wav
Pre-gap length 0:00:02.98
Peak level 99.9 % Extraction speed 4.1 X Track quality 100.0 % Test CRC E9AC44F6 Copy CRC E9AC44F6 Accurately ripped (confidence 1) [AC3304FD] (AR v2) Copy OK
Track 7
Filename D:\Matt Belsante - Nice 'n' Easy (GHD6151) [FLAC]\07 - They Can't Take That Away From Me.wav
Pre-gap length 0:00:02.56
Peak level 99.7 % Extraction speed 4.1 X Track quality 100.0 % Test CRC E15BA5C7 Copy CRC E15BA5C7 Accurately ripped (confidence 1) [B5D1928F] (AR v2) Copy OK
Track 8
Filename D:\Matt Belsante - Nice 'n' Easy (GHD6151) [FLAC]\08 - After You've Gone.wav
Pre-gap length 0:00:02.25
Peak level 99.9 % Extraction speed 4.1 X Track quality 100.0 % Test CRC EC9008D0 Copy CRC EC9008D0 Accurately ripped (confidence 1) [33E9169A] (AR v2) Copy OK
Track 9
Filename D:\Matt Belsante - Nice 'n' Easy (GHD6151) [FLAC]\09 - Moon River.wav
Pre-gap length 0:00:02.93
Peak level 99.9 % Extraction speed 4.5 X Track quality 100.0 % Test CRC CD0E67AF Copy CRC CD0E67AF Accurately ripped (confidence 1) [D851D5C4] (AR v2) Copy OK
Track 10
Filename D:\Matt Belsante - Nice 'n' Easy (GHD6151) [FLAC]\10 - In a Sentimental Mood.wav
Pre-gap length 0:00:02.45
Peak level 99.8 % Extraction speed 4.7 X Track quality 100.0 % Test CRC 1ECD0C45 Copy CRC 1ECD0C45 Accurately ripped (confidence 1) [E70B0EE5] (AR v2) Copy OK
Track 11
Filename D:\Matt Belsante - Nice 'n' Easy (GHD6151) [FLAC]\11 - Will You Still Love Me Tomorrow.wav
Pre-gap length 0:00:02.98
Peak level 99.9 % Extraction speed 4.9 X Track quality 100.0 % Test CRC B1E74D30 Copy CRC B1E74D30 Accurately ripped (confidence 1) [FCAD9306] (AR v2) Copy OK
Track 12
Filename D:\Matt Belsante - Nice 'n' Easy (GHD6151) [FLAC]\12 - You'd Be So Nice to Come Home To.wav
Pre-gap length 0:00:02.46
Peak level 99.9 % Extraction speed 4.1 X Track quality 99.9 % Test CRC 2D1BE86D Copy CRC 2D1BE86D Accurately ripped (confidence 1) [1F654DE2] (AR v2) Copy OK
Track 13
Filename D:\Matt Belsante - Nice 'n' Easy (GHD6151) [FLAC]\13 - One for My Baby.wav
Pre-gap length 0:00:02.98
Peak level 99.8 % Extraction speed 5.1 X Track quality 100.0 % Test CRC 26955570 Copy CRC 26955570 Accurately ripped (confidence 1) [F99A5DCF] (AR v2) Copy OK
All tracks accurately ripped
No errors occurred
End of status report
---- CUETools DB Plugin V2.1.6
[CTDB TOCID: Ioqsbtv3_bgFew6O..1YhtGqJvg-] foundSubmit result: Ioqsbtv3_bgFew6O..1YhtGqJvg- has been confirmedTrack | CTDB Status 1 | (1/2) Accurately ripped 2 | (1/2) Accurately ripped 3 | (1/2) Accurately ripped 4 | (1/2) Accurately ripped 5 | (1/2) Accurately ripped 6 | (1/2) Accurately ripped 7 | (1/2) Accurately ripped 8 | (1/2) Accurately ripped 9 | (1/2) Accurately ripped 10 | (1/2) Accurately ripped 11 | (1/2) Accurately ripped 12 | (1/2) Accurately ripped 13 | (1/2) Accurately ripped
==== Log checksum 8569B12E6E5A8615B0E70B1214571556A3D8AD58AC38F728A20D20FF281173D1 ====

Содержание индексной карты (.CUE)

REM GENRE JazzREM DATE 2018REM DISCID AB0D540DREM COMMENT "ExactAudioCopy v1.1"CATALOG 0792755615126PERFORMER "Matt Belsante"TITLE "Nice 'n' Easy"FILE "01 - Nice 'n' Easy.wav" WAVE TRACK 01 AUDIO TITLE "Nice 'n' Easy" PERFORMER "Matt Belsante" ISRC US86A1700091 INDEX 01 00:00:00 TRACK 02 AUDIO TITLE "Cheek to Cheek" PERFORMER "Matt Belsante" ISRC US86A1700092 INDEX 00 04:10:61FILE "02 - Cheek to Cheek.wav" WAVE INDEX 01 00:00:00 TRACK 03 AUDIO TITLE "Since I Fell for You" PERFORMER "Matt Belsante" ISRC US86A1700093 INDEX 00 04:39:30FILE "03 - Since I Fell for You.wav" WAVE INDEX 01 00:00:00 TRACK 04 AUDIO TITLE "There Will Never Be Another You" PERFORMER "Matt Belsante" ISRC US86A1700094 INDEX 00 04:19:38FILE "04 - There Will Never Be Another You.wav" WAVE INDEX 01 00:00:00 TRACK 05 AUDIO TITLE "I Got It Bad and That Ain't Good" PERFORMER "Matt Belsante" ISRC US86A1700095 INDEX 00 04:34:49FILE "05 - I Got It Bad and That Ain't Good.wav" WAVE INDEX 01 00:00:00 TRACK 06 AUDIO TITLE "The Look of Love" PERFORMER "Matt Belsante" ISRC US86A1700096 INDEX 00 04:46:06FILE "06 - The Look of Love.wav" WAVE INDEX 01 00:00:00 TRACK 07 AUDIO TITLE "They Can't Take That Away from Me" PERFORMER "Matt Belsante" ISRC US86A1700097 INDEX 00 04:47:60FILE "07 - They Can't Take That Away from Me.wav" WAVE INDEX 01 00:00:00 TRACK 08 AUDIO TITLE "After You've Gone" PERFORMER "Matt Belsante" ISRC US86A1700098 INDEX 00 03:34:07FILE "08 - After You've Gone.wav" WAVE INDEX 01 00:00:00 TRACK 09 AUDIO TITLE "Moon River" PERFORMER "Matt Belsante" ISRC US86A1700099 INDEX 00 03:04:43FILE "09 - Moon River.wav" WAVE INDEX 01 00:00:00 TRACK 10 AUDIO TITLE "In a Sentimental Mood" PERFORMER "Matt Belsante" ISRC US86A1700100 INDEX 00 04:19:57FILE "10 - In a Sentimental Mood.wav" WAVE INDEX 01 00:00:00 TRACK 11 AUDIO TITLE "Will You Still Love Me Tomorrow" PERFORMER "Matt Belsante" ISRC US86A1700101 INDEX 00 05:11:19FILE "11 - Will You Still Love Me Tomorrow.wav" WAVE INDEX 01 00:00:00 TRACK 12 AUDIO TITLE "You'd Be So Nice to Come Home To" PERFORMER "Matt Belsante" ISRC US86A1700102 INDEX 00 04:43:19FILE "12 - You'd Be So Nice to Come Home To.wav" WAVE INDEX 01 00:00:00 TRACK 13 AUDIO TITLE "One for My Baby" PERFORMER "Matt Belsante" ISRC US86A1700103 INDEX 00 03:43:06FILE "13 - One for My Baby.wav" WAVE INDEX 01 00:00:00

Отчет CUETools

[CUETools log; Date: 03.12.2018 1:17:03; Version: 2.1.6][CTDB TOCID: Ioqsbtv3_bgFew6O..1YhtGqJvg-] found.Track | CTDB Status 1 | (2/3) Accurately ripped 2 | (2/3) Accurately ripped 3 | (2/3) Accurately ripped 4 | (2/3) Accurately ripped 5 | (2/3) Accurately ripped 6 | (2/3) Accurately ripped 7 | (2/3) Accurately ripped 8 | (2/3) Accurately ripped 9 | (2/3) Accurately ripped 10 | (2/3) Accurately ripped 11 | (2/3) Accurately ripped 12 | (2/3) Accurately ripped 13 | (2/3) Accurately ripped[AccurateRip ID: 001b8546-0112848d-ab0d540d] found.Track [ CRC | V2 ] Status 01 [652d2c7a|57a88b71] (0+1/1) Accurately ripped 02 [aaf349a4|0a5136a6] (0+1/1) Accurately ripped 03 [a3d6c243|843529dc] (0+1/1) Accurately ripped 04 [3a8e37a0|81790732] (0+1/1) Accurately ripped 05 [6954db46|541e2c1f] (0+1/1) Accurately ripped 06 [bca00075|ac3304fd] (0+1/1) Accurately ripped 07 [9500f92f|b5d1928f] (0+1/1) Accurately ripped 08 [87da074b|33e9169a] (0+1/1) Accurately ripped 09 [c00a3811|d851d5c4] (0+1/1) Accurately ripped 10 [ee32440d|e70b0ee5] (0+1/1) Accurately ripped 11 [e1b02d22|fcad9306] (0+1/1) Accurately ripped 12 [b8a87a4d|1f654de2] (0+1/1) Accurately ripped 13 [d0ee7f26|f99a5dcf] (0+1/1) Accurately ripped
Track Peak [ CRC32 ] [W/O NULL] [ LOG ] -- 99,9 [95418D67] [771F2962] 01 99,9 [D8489858] [F0E43862] CRC32 02 99,9 [10845283] [A752ED9D] CRC32 03 99,9 [235FED12] [BA63ADEC] CRC32 04 99,9 [7FC40726] [7BD3A324] CRC32 05 99,9 [D13C5F79] [3C3A883E] CRC32 06 99,9 [E9AC44F6] [E4E71223] CRC32 07 99,7 [E15BA5C7] [894F2B7F] CRC32 08 99,9 [EC9008D0] [F0581CC2] CRC32 09 99,9 [CD0E67AF] [C98E9809] CRC32 10 99,8 [1ECD0C45] [AAB987FC] CRC32 11 99,9 [B1E74D30] [879CA82E] CRC32 12 99,9 [2D1BE86D] [3FC1EDC2] CRC32 13 99,8 [26955570] [4EF01A35] CRC32

Об альбоме (сборнике)

The smooth crooner gently swings the standards featuring the Mason Embry Trio and the Jeff Steinberg Orchestra. Every once in a while there comes along a singer who reminds you of something familiar yet something so new that it leaves you smiling; a young crooner’s voice that wraps around you like a warm coat on a cold winters day. Matt Belsante is that rare kind of artist who has something new to offer.


[islamvillage.com]_t_5653819.torrent
Торрент: Зарегистрирован ·  [ 2018-12-05 00:01 ] ·  ba0b9558cbed4be9a8c7af1d91fa74e9cdccd825

14 KB

Статус: проверено
Скачан: 0 раз
Размер: 315 MB
Оценка: 
(Голосов: 0)
Сказали спасибо: 0  Спасибо
Похожие темы
[Профиль]    [ЛС]
Показать сообщения:    
Ответить на тему

Текущее время: Сегодня 10:36

Часовой пояс: GMT + 7



Вы не можете начинать темы
Вы не можете отвечать на сообщения
Вы не можете редактировать свои сообщения
Вы не можете удалять свои сообщения
Вы не можете голосовать в опросах
Вы не можете прикреплять файлы к сообщениям
Вы можете скачивать файлы


NUOVO Minoxidil 5% p/v + 5% DI TAURINA Lozione Anti caduta Capelli | Fantastic Beasts: The Crimes of Grindelwald The second installment of the "Fantastic Beasts" series featuring the adventures of Magizoologist Newt Scamander. | Hajime No Ippo : New Challenger