(Vocal Jazz) [CD] Sabina Hank - Blue Moments - 2001, FLAC (tracks+.cue), lossless

Ответить на тему
Статистика раздачи [Обновить пиров]
Размер:  376 MB   |    Зарегистрирован:  1 месяц 13 дней   |    Скачан:  0 раз

Полного источника не было: Никогда

 
   
 
 
 
Автор Сообщение

islamvillage.com

Создавать темы 05-Дек-2018 00:02

[Цитировать]

Sabina Hank - Blue Moments
[img=right]http://i108.fastpic.ru/big/2018/1202/90/ab7d80e0a1...c5e390.jpg[/img]
Жанр: Vocal Jazz
Носитель: CD
Страна-производитель диска (релиза): Австрия
Год издания: 2001
Издатель (лейбл): Quinton Records
Номер по каталогу: Q-0105-2
Аудиокодек: FLAC (*.flac)
Тип рипа: tracks+.cue
Битрейт аудио: lossless
Продолжительность: 65:00
Источник (релизер): Biganon
Наличие сканов в содержимом раздачи: нет
Треклист:
01. Restless Souls (Hank) - 4:35
02. Out in Birmingham B. (Hank) - 4:20
03. On the Street Where You Live (Loewe-Lerner) - 4:03
04. Beautiful Love (Young-Gillespie) - 7:00
05. Smoke (Hank) - 5:40
06. More Than a Friend (Hank) - 7:38
07. Caravan (Strayhorn-Ellington) - 6:10
08. Secret Sun (Hank) - 5:34
09. Silent Tears (Hank) - 6:31
10. Cruising Around Birmingham B. (instrumental) (Hank) - 6:57
11. For All We Know (Coots-Lewis) - 6:32
Состав:
Sabina Hank - vocals, piano, arrangements
Georg Breinschmid, Alex Meik (#2,5,8,10) - bass
Stephan Eppinger - drums
Recorded at Studio Hafner on February 5-9, 2001.

Лог создания рипа

Exact Audio Copy V1.3 from 2. September 2016
EAC extraction logfile from 29. November 2018, 16:07
Sabina Hank / Blue Moments
Used drive : TSSTcorpCDDVDW SH-224BB Adapter: 1 ID: 0
Read mode : SecureUtilize accurate stream : YesDefeat audio cache : YesMake use of C2 pointers : No
Read offset correction : 6Overread into Lead-In and Lead-Out : NoFill up missing offset samples with silence : YesDelete leading and trailing silent blocks : NoNull samples used in CRC calculations : YesUsed interface : Native Win32 interface for Win NT & 2000Gap handling : Appended to previous track
Used output format : User Defined EncoderSelected bitrate : 1024 kBit/sQuality : HighAdd ID3 tag : NoCommand line compressor : C:\Program Files (x86)\Exact Audio Copy\Flac\flac.exeAdditional command line options : -8 -V -T "ARTIST=%artist%" -T "TITLE=%title%" -T "ALBUM=%albumtitle%" -T "DATE=%year%" -T "TRACKNUMBER=%tracknr%" -T "GENRE=%genre%" -T "PERFORMER=%albuminterpret%" -T "COMPOSER=%composer%" %haslyrics%--tag-from-file=LYRICS="%lyricsfile%"%haslyrics% -T "ALBUMARTIST=%albumartist%" -T "DISCNUMBER=%cdnumber%" -T "TOTALDISCS=%totalcds%" -T "TOTALTRACKS=%numtracks%" -T "COMMENT=%comment%" %source% -o %dest%
TOC of the extracted CD
Track | Start | Length | Start sector | End sector --------------------------------------------------------- 1 | 0:00.00 | 4:35.36 | 0 | 20660 2 | 4:35.36 | 4:20.06 | 20661 | 40166 3 | 8:55.42 | 4:02.48 | 40167 | 58364 4 | 12:58.15 | 6:59.54 | 58365 | 89843 5 | 19:57.69 | 5:40.03 | 89844 | 115346 6 | 25:37.72 | 7:37.39 | 115347 | 149660 7 | 33:15.36 | 6:10.15 | 149661 | 177425 8 | 39:25.51 | 5:34.24 | 177426 | 202499 9 | 45:00.00 | 6:30.48 | 202500 | 231797 10 | 51:30.48 | 6:57.36 | 231798 | 263108 11 | 58:28.09 | 6:31.67 | 263109 | 292500
Track 1
Filename Z:\rips\Sabina Hank - Blue Moments (2001) [FLAC] {0105-2}\01 - Restless Souls.wav
Pre-gap length 0:00:02.00
Peak level 76.1 % Extraction speed 4.7 X Track quality 100.0 % Test CRC 77A0759E Copy CRC 77A0759E Accurately ripped (confidence 7) [C87771BA] (AR v2) Copy OK
Track 2
Filename Z:\rips\Sabina Hank - Blue Moments (2001) [FLAC] {0105-2}\02 - Out in Birmingham B..wav
Peak level 96.1 % Extraction speed 5.2 X Track quality 100.0 % Test CRC 9904FB40 Copy CRC 9904FB40 Accurately ripped (confidence 7) [9B8FA261] (AR v2) Copy OK
Track 3
Filename Z:\rips\Sabina Hank - Blue Moments (2001) [FLAC] {0105-2}\03 - On the Street Where You Live.wav
Pre-gap length 0:00:02.32
Peak level 99.8 % Extraction speed 5.6 X Track quality 100.0 % Test CRC C14C365B Copy CRC C14C365B Accurately ripped (confidence 7) [A0A541B6] (AR v2) Copy OK
Track 4
Filename Z:\rips\Sabina Hank - Blue Moments (2001) [FLAC] {0105-2}\04 - Beautiful Love.wav
Pre-gap length 0:00:02.06
Peak level 98.4 % Extraction speed 6.6 X Track quality 100.0 % Test CRC FE094501 Copy CRC FE094501 Accurately ripped (confidence 7) [8575432C] (AR v2) Copy OK
Track 5
Filename Z:\rips\Sabina Hank - Blue Moments (2001) [FLAC] {0105-2}\05 - Smoke.wav
Pre-gap length 0:00:03.80
Peak level 100.0 % Extraction speed 7.0 X Track quality 100.0 % Test CRC 0625C3F6 Copy CRC 0625C3F6 Accurately ripped (confidence 7) [12400ACD] (AR v2) Copy OK
Track 6
Filename Z:\rips\Sabina Hank - Blue Moments (2001) [FLAC] {0105-2}\06 - More Than a Friend.wav
Pre-gap length 0:00:03.17
Peak level 95.3 % Extraction speed 7.2 X Track quality 99.9 % Test CRC E9C4203D Copy CRC E9C4203D Accurately ripped (confidence 7) [172A0AC8] (AR v2) Copy OK
Track 7
Filename Z:\rips\Sabina Hank - Blue Moments (2001) [FLAC] {0105-2}\07 - Caravan.wav
Pre-gap length 0:00:01.82
Peak level 97.3 % Extraction speed 7.4 X Track quality 99.9 % Test CRC 4B3DFAC1 Copy CRC 4B3DFAC1 Accurately ripped (confidence 7) [592B8570] (AR v2) Copy OK
Track 8
Filename Z:\rips\Sabina Hank - Blue Moments (2001) [FLAC] {0105-2}\08 - Secret Sun.wav
Pre-gap length 0:00:01.85
Peak level 86.8 % Extraction speed 7.6 X Track quality 99.9 % Test CRC 2D1FB743 Copy CRC 2D1FB743 Accurately ripped (confidence 7) [00D4D230] (AR v2) Copy OK
Track 9
Filename Z:\rips\Sabina Hank - Blue Moments (2001) [FLAC] {0105-2}\09 - Silent Tears.wav
Pre-gap length 0:00:03.76
Peak level 97.7 % Extraction speed 9.0 X Track quality 100.0 % Test CRC 58AB9023 Copy CRC 58AB9023 Accurately ripped (confidence 7) [E653D8D6] (AR v2) Copy OK
Track 10
Filename Z:\rips\Sabina Hank - Blue Moments (2001) [FLAC] {0105-2}\10 - Cruising Around Birmingham B..wav
Pre-gap length 0:00:02.10
Peak level 95.6 % Extraction speed 7.3 X Track quality 99.9 % Test CRC 642D40CC Copy CRC 642D40CC Accurately ripped (confidence 7) [CE51216A] (AR v2) Copy OK
Track 11
Filename Z:\rips\Sabina Hank - Blue Moments (2001) [FLAC] {0105-2}\11 - For All We Know.wav
Pre-gap length 0:00:05.74
Peak level 95.3 % Extraction speed 9.7 X Track quality 100.0 % Test CRC EE540B1F Copy CRC EE540B1F Accurately ripped (confidence 7) [52DF9D7D] (AR v2) Copy OK
All tracks accurately ripped
No errors occurred
End of status report
==== Log checksum 9BB0D7B026099084F7F7DF90D6319A92D2D6B79F6170F22B72CAA97A5E8E37C0 ====

Содержание индексной карты (.CUE)

REM GENRE JazzREM DATE 2001REM DISCID A40F3C0BREM COMMENT "ExactAudioCopy v1.3"PERFORMER "Sabina Hank"TITLE "Blue Moments"FILE "01 - Restless Souls.wav" WAVE TRACK 01 AUDIO TITLE "Restless Souls" PERFORMER "Sabina Hank" INDEX 01 00:00:00FILE "02 - Out in Birmingham B..wav" WAVE TRACK 02 AUDIO TITLE "Out in Birmingham B." PERFORMER "Sabina Hank" INDEX 01 00:00:00 TRACK 03 AUDIO TITLE "On the Street Where You Live" PERFORMER "Sabina Hank" INDEX 00 04:17:57FILE "03 - On the Street Where You Live.wav" WAVE INDEX 01 00:00:00 TRACK 04 AUDIO TITLE "Beautiful Love" PERFORMER "Sabina Hank" INDEX 00 04:00:43FILE "04 - Beautiful Love.wav" WAVE INDEX 01 00:00:00 TRACK 05 AUDIO TITLE "Smoke" PERFORMER "Sabina Hank" INDEX 00 06:55:69FILE "05 - Smoke.wav" WAVE INDEX 01 00:00:00 TRACK 06 AUDIO TITLE "More Than a Friend" PERFORMER "Sabina Hank" INDEX 00 05:36:65FILE "06 - More Than a Friend.wav" WAVE INDEX 01 00:00:00 TRACK 07 AUDIO TITLE "Caravan" PERFORMER "Sabina Hank" INDEX 00 07:35:52FILE "07 - Caravan.wav" WAVE INDEX 01 00:00:00 TRACK 08 AUDIO TITLE "Secret Sun" PERFORMER "Sabina Hank" INDEX 00 06:08:26FILE "08 - Secret Sun.wav" WAVE INDEX 01 00:00:00 TRACK 09 AUDIO TITLE "Silent Tears" PERFORMER "Sabina Hank" INDEX 00 05:30:42FILE "09 - Silent Tears.wav" WAVE INDEX 01 00:00:00 TRACK 10 AUDIO TITLE "Cruising Around Birmingham B. (instrumental)" PERFORMER "Sabina Hank" INDEX 00 06:28:40FILE "10 - Cruising Around Birmingham B. (instrumental).wav" WAVE INDEX 01 00:00:00 TRACK 11 AUDIO TITLE "For All We Know" PERFORMER "Sabina Hank" INDEX 00 06:51:55FILE "11 - For All We Know.wav" WAVE INDEX 01 00:00:00

Отчет CUETools

[CUETools log; Date: 02.12.2018 1:41:53; Version: 2.1.6][CTDB TOCID: sxGb8CXAtElvB4FdNKpTdaDXoT8-] found.Track | CTDB Status 1 | (11/11) Accurately ripped 2 | (10/11) Accurately ripped 3 | (10/11) Accurately ripped 4 | (10/11) Accurately ripped 5 | (10/11) Accurately ripped 6 | (10/11) Accurately ripped 7 | ( 9/11) Accurately ripped 8 | (10/11) Accurately ripped 9 | ( 8/11) Accurately ripped 10 | ( 9/11) Accurately ripped 11 | ( 9/11) Accurately ripped[AccurateRip ID: 00190ba3-00ddfd58-a40f3c0b] found.Track [ CRC | V2 ] Status 01 [aede507b|c87771ba] (03+07/10) Accurately ripped 02 [e5697c3e|9b8fa261] (03+07/10) Accurately ripped 03 [d08dac93|a0a541b6] (04+07/11) Accurately ripped 04 [cd872a31|8575432c] (03+07/10) Accurately ripped 05 [8e82f421|12400acd] (03+07/10) Accurately ripped 06 [0a489fe2|172a0ac8] (03+07/10) Accurately ripped 07 [425125ea|592b8570] (03+07/10) Accurately ripped 08 [5af00be3|00d4d230] (03+07/10) Accurately ripped 09 [ab0fb746|e653d8d6] (03+07/10) Accurately ripped 10 [6a43a9f3|ce51216a] (02+07/09) Accurately ripped 11 [02581cde|52df9d7d] (02+07/09) Accurately ripped
Track Peak [ CRC32 ] [W/O NULL] [ LOG ] -- 100,0 [57CDAFBB] [AFC68AFE] 01 76,1 [77A0759E] [2313C8CA] CRC32 02 96,1 [9904FB40] [3AD24021] CRC32 03 99,8 [C14C365B] [8AE8BB7A] CRC32 04 98,4 [FE094501] [D304F08E] CRC32 05 100,0 [0625C3F6] [41B74873] CRC32 06 95,3 [E9C4203D] [B0811AD7] CRC32 07 97,3 [4B3DFAC1] [FBE95457] CRC32 08 86,8 [2D1FB743] [0C3A1B6B] CRC32 09 97,7 [58AB9023] [7B1DE2A0] CRC32 10 95,6 [642D40CC] [146E5089] CRC32 11 95,3 [EE540B1F] [9AF11936] CRC32

Review by Christopher Loudon

Based on the limited liner notes for Blue Moments (Quinton), I’m guessing that Sabina Hank is a 20-something, British-born singer-pianist working in Germany or Austria. Her age and where she hails from are, however, immaterial. All you need to know is that she has a stunning voice and a superb jazz sensibility. Imagine the clarity and precision of Doris Day or Jo Stafford mixed with the distingue allure of Everything But the Girl’s Tracey Thorn and you come close to understanding Hank’s sizable appeal. She’s also a terrific keyboardist and, based on the seven original compositions included in this 11-track collection, a formidable songwriter. Her “More Than a Friend” is, for instance, a hauntingly beautiful examination of satisfying, if less than ideal, love, while “Silent Tears” is a vibrant salute to personal redemption. Hank also delivers a wonderfully outre “Caravan,” a rich, fulfilling “For All We Know” and a delightfully ebullient “On the Street Where You Live.” Before too long, some clever A&R executive is going to sign Hank to a major label deal. When it happens, Diana Krall might be facing some stiff new competition.


[islamvillage.com]_t_5653187.torrent
Торрент: Зарегистрирован ·  [ 2018-12-05 00:01 ] ·  596998b4e758dffa87006c44376d71dd45f36b51

16 KB

Статус: проверено
Скачан: 0 раз
Размер: 376 MB
Оценка: 
(Голосов: 0)
Сказали спасибо: 0  Спасибо
Похожие темы
[Профиль]    [ЛС]
Показать сообщения:    
Ответить на тему

Текущее время: Сегодня 10:07

Часовой пояс: GMT + 7



Вы не можете начинать темы
Вы не можете отвечать на сообщения
Вы не можете редактировать свои сообщения
Вы не можете удалять свои сообщения
Вы не можете голосовать в опросах
Вы не можете прикреплять файлы к сообщениям
Вы можете скачивать файлы


All Listings | Mr. Robot | Australian Sterling Silver Zygmunt Libucha Goanna Lizard Paper Knife