Искренне ваш... Роман Карцев (Евгений Ланской) [1992, юмор, DVB]

Ответить на тему
Статистика раздачи [Обновить пиров]
Размер:  1.45 GB   |    Зарегистрирован:  1 месяц 9 дней   |    Скачан:  0 раз

Полного источника не было: Никогда

 
   
 
 
 
Автор Сообщение

islamvillage.com

Создавать темы 09-Дек-2018 00:51

[Цитировать]

Искренне ваш... Роман Карцев
[img=right]http://i107.fastpic.ru/big/2018/1125/0a/b933fe3eb0...68ac0a.jpg[/img]
Жанр: моноспектакль
Год выхода: 1992
Продолжительность: 01:07:08
Перевод: Не требуется
Режиссёр: Евгений Ланской
В ролях: Роман Карцев
Описание:
Вступительное слово – режиссер, народный артист России Михаил Левитин.
Моноспектакль по произведениям А. Чехова, М. Зощенко, Ш. Алейхема, М. Жванецкого. Автор композиции и исполнитель народный артист России Роман Карцев. Постановка Евгения Ланского (США).
Для многих Роман Карцев – блистательный эстрадный исполнитель, классик жанра. Например, знаменитую миниатюру М. Жванецого "Раки" в его исполнении, в которой эти раки " вчера были большие, но по пять, а сегодня маленькие, но по три" знают, пожалуй, все – от мала до велика. Но сегодня мы встретимся с другим Карцевым – артистом не только большого дарования, но и большого актерского диапазона, которому доступны и тонкий юмор, и сатира, и почти трагические душевные переживания. Перед нами появится добрый клоун с грустными глазами, полными сочувствия к болям и печалям "маленького человека".
Качество видео: DVB
Формат файла: TS
Видео: MPEG4 Video (H264) 720x576 (20:11) 25fps Bit rate: 2 771 Kbps
Аудио: MPEG Audio 48000Hz stereo 192kbps

Сэмпл
- http://yadi.sk/d/iYBaYlvJLtZQ-A

MediaInfo

General
ID : 1 (0x1)
Complete name : Искренне ваш... Роман Карцев.ts
Format : BDAV
Format/Info : Blu-ray Video
File size : 1.45 GiB
Duration : 1h 7mn
Overall bit rate : 3 094 Kbps
Video
ID : 1061 (0x425)
Menu ID : 1060 (0x424)
Format : AVC
Format/Info : Advanced Video Codec
Format profile : Main@L3.0
Format settings, CABAC : Yes
Format settings, ReFrames : 3 frames
Format settings, GOP : M=4, N=28
Codec ID : 27
Duration : 1h 7mn
Bit rate : 2 771 Kbps
Width : 720 pixels
Height : 576 pixels
Display aspect ratio : 16:9
Frame rate : 25.000 fps
Standard : Component
Color space : YUV
Chroma subsampling : 4:2:0
Bit depth : 8 bits
Scan type : Interlaced
Scan order : Top Field First
Bits/(Pixel*Frame) : 0.267
Stream size : 1.30 GiB (89%)
Color primaries : BT.470-6 System B, BT.470-6 System G, BT.601-6 625, BT.1358 625, BT.1700 625 PAL, BT.1700 625 SECAM
Transfer characteristics : BT.470-6 System B, BT.470-6 System G
Matrix coefficients : BT.470-6 System B, BT.470-6 System G, BT.601-6 625, BT.1358 625, BT.1700 625 PAL, BT.1700 625 SECAM, IEC 61966-2-4 601
Audio
ID : 1062 (0x426)
Menu ID : 1060 (0x424)
Format : MPEG Audio
Format version : Version 1
Format profile : Layer 2
Codec ID : 3
Duration : 1h 7mn
Bit rate mode : Constant
Bit rate : 192 Kbps
Channel(s) : 2 channels
Sampling rate : 48.0 KHz
Compression mode : Lossy
Delay relative to video : -694ms
Stream size : 92.2 MiB (6%)


[islamvillage.com]_t_5649909.torrent
Торрент: Зарегистрирован ·  [ 2018-12-09 00:51 ] ·  0f69635410e17b0929dccec2598509d3c6601b5c

15 KB

Статус: проверено
Скачан: 0 раз
Размер: 1.45 GB
Оценка: 
(Голосов: 0)
Сказали спасибо: 0  Спасибо
Похожие темы
[Профиль]    [ЛС]
Показать сообщения:    
Ответить на тему

Текущее время: Сегодня 09:57

Часовой пояс: GMT + 7



Вы не можете начинать темы
Вы не можете отвечать на сообщения
Вы не можете редактировать свои сообщения
Вы не можете удалять свои сообщения
Вы не можете голосовать в опросах
Вы не можете прикреплять файлы к сообщениям
Вы можете скачивать файлы


Josephine Hutchinson | Paul Anderson | Virginia Mayo