(Vocal Jazz, Cabaret, Pop, Americana) [CD] Rachelle Garniez & The Fortunate Few - Luckyday - 2004, FLAC (tracks+.cue), lossless

Ответить на тему
Статистика раздачи [Обновить пиров]
Размер:  248 MB   |    Зарегистрирован:  1 месяц 5 дней   |    Скачан:  0 раз

Полного источника не было: Никогда

 
   
 
 
 
Автор Сообщение

islamvillage.com

Создавать темы 12-Дек-2018 18:38

[Цитировать]

Rachelle Garniez & The Fortunate Few / Luckyday
[img=right]http://cps-static.rovicorp.com/3/JPG_500/MI0000/40...409293.jpg[/img]
Жанр: Vocal Jazz, Cabaret, Pop, Americana
Носитель: CD
Страна-производитель диска (релиза): USA
Год издания: 2004
Издатель (лейбл): Real Cool Records / Old Cow Music
Номер по каталогу: OCM1002
Страна исполнителя (группы): USA
Аудиокодек: FLAC (*.flac)
Тип рипа: tracks+.cue
Битрейт аудио: lossless
Продолжительность: 00:47:55
Источник (релизер): what.cd
Наличие сканов в содержимом раздачи: нет
Треклист:
1. Magic Time (04:50)
2. Red Roses (04:56)
3. Quality Star (05:53)
4. Luckyday (04:21)
5. Bad Boys (06:32)
6. Medicine Man (05:04)
7. January Wind (03:48)
8. Candy Store (04:10)
9. Pearls & Swine (03:18)
10. The Last Thing I Ever Wanted (04:59)

Лог создания рипа

X Lossless Decoder version 20130407 (143.0)
XLD extraction logfile from 2013-04-24 23:06:41 +0400
Rachelle Garniez & The Fortunate Few / Luckyday
Used drive : (null) (null) (revision (null))Media type :
Ripper mode : XLD Secure RipperDisable audio cache : OK for the drive with a cache less than 1375KiBMake use of C2 pointers : NORead offset correction : 6Max retry count : 20Gap status : Analyzed, Appended
TOC of the extracted CD Track | Start | Length | Start sector | End sector --------------------------------------------------------- 1 | 00:00:00 | 04:50:59 | 0 | 21808 2 | 04:50:59 | 04:56:39 | 21809 | 44047 3 | 09:47:23 | 05:53:26 | 44048 | 70548 4 | 15:40:49 | 04:21:16 | 70549 | 90139 5 | 20:01:65 | 06:32:61 | 90140 | 119600 6 | 26:34:51 | 05:04:24 | 119601 | 142424 7 | 31:39:00 | 03:48:15 | 142425 | 159539 8 | 35:27:15 | 04:10:57 | 159540 | 178346 9 | 39:37:72 | 03:18:04 | 178347 | 193200 10 | 42:56:01 | 04:59:36 | 193201 | 215661
AccurateRip Summary Disc not found in AccurateRip DB.
All Tracks Album gain : -6.93 dB Peak : 0.981049 Statistics Read error : 0 Jitter error (maybe fixed) : 0 Retry sector count : 0 Damaged sector count : 0
Track 01 Filename : /Users/anch/Music/FLAC/Rachelle Garniez & The Fortunate Few - 2004 - Luckyday [FLAC]/01 - Magic TIme.flac /Users/anch/Music/FLAC/Rachelle Garniez & The Fortunate Few - 2004 - Luckyday [MP3 320]/01 - Magic TIme.mp3 /Users/anch/Music/FLAC/Rachelle Garniez & The Fortunate Few - 2004 - Luckyday [MP3 V0]/01 - Magic TIme.mp3 Pre-gap length : 00:02:00
Track gain : -7.50 dB Peak : 0.977295 CRC32 hash (test run) : 1909D2D6 CRC32 hash : 1909D2D6 CRC32 hash (skip zero) : E09F0239 AccurateRip v1 signature : 3E5D3FE8 AccurateRip v2 signature : 2D2DDBC1 ->Track not present in AccurateRip database. Statistics Read error : 0 Jitter error (maybe fixed) : 0 Retry sector count : 0 Damaged sector count : 0
Track 02 Filename : /Users/anch/Music/FLAC/Rachelle Garniez & The Fortunate Few - 2004 - Luckyday [FLAC]/02 - Red Roses.flac /Users/anch/Music/FLAC/Rachelle Garniez & The Fortunate Few - 2004 - Luckyday [MP3 320]/02 - Red Roses.mp3 /Users/anch/Music/FLAC/Rachelle Garniez & The Fortunate Few - 2004 - Luckyday [MP3 V0]/02 - Red Roses.mp3
Track gain : -5.84 dB Peak : 0.977295 CRC32 hash (test run) : 3504DD92 CRC32 hash : 3504DD92 CRC32 hash (skip zero) : 1DBC6E40 AccurateRip v1 signature : 2272990B AccurateRip v2 signature : 74D78140 ->Track not present in AccurateRip database. Statistics Read error : 0 Jitter error (maybe fixed) : 0 Retry sector count : 0 Damaged sector count : 0
Track 03 Filename : /Users/anch/Music/FLAC/Rachelle Garniez & The Fortunate Few - 2004 - Luckyday [FLAC]/03 - Quality Star.flac /Users/anch/Music/FLAC/Rachelle Garniez & The Fortunate Few - 2004 - Luckyday [MP3 320]/03 - Quality Star.mp3 /Users/anch/Music/FLAC/Rachelle Garniez & The Fortunate Few - 2004 - Luckyday [MP3 V0]/03 - Quality Star.mp3 Pre-gap length : 00:00:50
Track gain : -7.98 dB Peak : 0.977478 CRC32 hash (test run) : D5F3A802 CRC32 hash : D5F3A802 CRC32 hash (skip zero) : 971250D1 AccurateRip v1 signature : 8F0AB5E8 AccurateRip v2 signature : 2E9C7798 ->Track not present in AccurateRip database. Statistics Read error : 0 Jitter error (maybe fixed) : 0 Retry sector count : 0 Damaged sector count : 0
Track 04 Filename : /Users/anch/Music/FLAC/Rachelle Garniez & The Fortunate Few - 2004 - Luckyday [FLAC]/04 - Luckyday.flac /Users/anch/Music/FLAC/Rachelle Garniez & The Fortunate Few - 2004 - Luckyday [MP3 320]/04 - Luckyday.mp3 /Users/anch/Music/FLAC/Rachelle Garniez & The Fortunate Few - 2004 - Luckyday [MP3 V0]/04 - Luckyday.mp3 Pre-gap length : 00:00:30
Track gain : -5.05 dB Peak : 0.977325 CRC32 hash (test run) : 61E0DB3C CRC32 hash : 61E0DB3C CRC32 hash (skip zero) : 77044B99 AccurateRip v1 signature : 3405579B AccurateRip v2 signature : B976A2FA ->Track not present in AccurateRip database. Statistics Read error : 0 Jitter error (maybe fixed) : 0 Retry sector count : 0 Damaged sector count : 0
Track 05 Filename : /Users/anch/Music/FLAC/Rachelle Garniez & The Fortunate Few - 2004 - Luckyday [FLAC]/05 - Bad Boys.flac /Users/anch/Music/FLAC/Rachelle Garniez & The Fortunate Few - 2004 - Luckyday [MP3 320]/05 - Bad Boys.mp3 /Users/anch/Music/FLAC/Rachelle Garniez & The Fortunate Few - 2004 - Luckyday [MP3 V0]/05 - Bad Boys.mp3
Track gain : -6.09 dB Peak : 0.977356 CRC32 hash (test run) : C2DF7B14 CRC32 hash : C2DF7B14 CRC32 hash (skip zero) : 0D6A5EA8 AccurateRip v1 signature : 7015597A AccurateRip v2 signature : ABC4ED71 ->Track not present in AccurateRip database. Statistics Read error : 0 Jitter error (maybe fixed) : 0 Retry sector count : 0 Damaged sector count : 0
Track 06 Filename : /Users/anch/Music/FLAC/Rachelle Garniez & The Fortunate Few - 2004 - Luckyday [FLAC]/06 - Medicine Man.flac /Users/anch/Music/FLAC/Rachelle Garniez & The Fortunate Few - 2004 - Luckyday [MP3 320]/06 - Medicine Man.mp3 /Users/anch/Music/FLAC/Rachelle Garniez & The Fortunate Few - 2004 - Luckyday [MP3 V0]/06 - Medicine Man.mp3 Pre-gap length : 00:00:58
Track gain : -7.25 dB Peak : 0.977356 CRC32 hash (test run) : 6F0977E7 CRC32 hash : 6F0977E7 CRC32 hash (skip zero) : 447995C3 AccurateRip v1 signature : 842A8AAB AccurateRip v2 signature : 0E3FE86B ->Track not present in AccurateRip database. Statistics Read error : 0 Jitter error (maybe fixed) : 0 Retry sector count : 0 Damaged sector count : 0
Track 07 Filename : /Users/anch/Music/FLAC/Rachelle Garniez & The Fortunate Few - 2004 - Luckyday [FLAC]/07 - January Wind.flac /Users/anch/Music/FLAC/Rachelle Garniez & The Fortunate Few - 2004 - Luckyday [MP3 320]/07 - January Wind.mp3 /Users/anch/Music/FLAC/Rachelle Garniez & The Fortunate Few - 2004 - Luckyday [MP3 V0]/07 - January Wind.mp3
Track gain : -5.87 dB Peak : 0.977264 CRC32 hash (test run) : F3104C5C CRC32 hash : F3104C5C CRC32 hash (skip zero) : F1002726 AccurateRip v1 signature : D5811EAD AccurateRip v2 signature : BFEE9F6F ->Track not present in AccurateRip database. Statistics Read error : 0 Jitter error (maybe fixed) : 0 Retry sector count : 0 Damaged sector count : 0
Track 08 Filename : /Users/anch/Music/FLAC/Rachelle Garniez & The Fortunate Few - 2004 - Luckyday [FLAC]/08 - Candy Store.flac /Users/anch/Music/FLAC/Rachelle Garniez & The Fortunate Few - 2004 - Luckyday [MP3 320]/08 - Candy Store.mp3 /Users/anch/Music/FLAC/Rachelle Garniez & The Fortunate Few - 2004 - Luckyday [MP3 V0]/08 - Candy Store.mp3 Pre-gap length : 00:00:14
Track gain : -3.27 dB Peak : 0.977356 CRC32 hash (test run) : 5C370460 CRC32 hash : 5C370460 CRC32 hash (skip zero) : BD6342F5 AccurateRip v1 signature : 24D52B92 AccurateRip v2 signature : 195CB35A ->Track not present in AccurateRip database. Statistics Read error : 0 Jitter error (maybe fixed) : 0 Retry sector count : 0 Damaged sector count : 0
Track 09 Filename : /Users/anch/Music/FLAC/Rachelle Garniez & The Fortunate Few - 2004 - Luckyday [FLAC]/09 - Pearls & Swine.flac /Users/anch/Music/FLAC/Rachelle Garniez & The Fortunate Few - 2004 - Luckyday [MP3 320]/09 - Pearls & Swine.mp3 /Users/anch/Music/FLAC/Rachelle Garniez & The Fortunate Few - 2004 - Luckyday [MP3 V0]/09 - Pearls & Swine.mp3
Track gain : -6.60 dB Peak : 0.977325 CRC32 hash (test run) : C771FCD6 CRC32 hash : C771FCD6 CRC32 hash (skip zero) : 4F5959B2 AccurateRip v1 signature : E983A99F AccurateRip v2 signature : 73385981 ->Track not present in AccurateRip database. Statistics Read error : 0 Jitter error (maybe fixed) : 0 Retry sector count : 0 Damaged sector count : 0
Track 10 Filename : /Users/anch/Music/FLAC/Rachelle Garniez & The Fortunate Few - 2004 - Luckyday [FLAC]/10 - The Last Thing I Ever Wanted.flac /Users/anch/Music/FLAC/Rachelle Garniez & The Fortunate Few - 2004 - Luckyday [MP3 320]/10 - The Last Thing I Ever Wanted.mp3 /Users/anch/Music/FLAC/Rachelle Garniez & The Fortunate Few - 2004 - Luckyday [MP3 V0]/10 - The Last Thing I Ever Wanted.mp3
Track gain : -7.12 dB Peak : 0.981049 CRC32 hash (test run) : E012C986 CRC32 hash : E012C986 CRC32 hash (skip zero) : 5C975264 AccurateRip v1 signature : C8474493 AccurateRip v2 signature : B5174446 ->Track not present in AccurateRip database. Statistics Read error : 0 Jitter error (maybe fixed) : 0 Retry sector count : 0 Damaged sector count : 0
No errors occurred
End of status report

Содержание индексной карты (.CUE)

TITLE "Luckyday"PERFORMER "Rachelle Garniez & The Fortunate Few"REM GENRE "Alternative Pop"REM DATE "2004"REM DISCID 9300000AREM REPLAYGAIN_ALBUM_GAIN -6.93 dBREM REPLAYGAIN_ALBUM_PEAK 0.981049FILE "01 - Magic TIme.flac" WAVE TRACK 01 AUDIO TITLE "Magic TIme" PERFORMER "Rachelle Garniez & The Fortunate Few" REM REPLAYGAIN_TRACK_GAIN -7.50 dB REM REPLAYGAIN_TRACK_PEAK 0.977295 INDEX 01 00:00:00FILE "02 - Red Roses.flac" WAVE TRACK 02 AUDIO TITLE "Red Roses" PERFORMER "Rachelle Garniez & The Fortunate Few" REM REPLAYGAIN_TRACK_GAIN -5.84 dB REM REPLAYGAIN_TRACK_PEAK 0.977295 INDEX 01 00:00:00 TRACK 03 AUDIO TITLE "Quality Star" PERFORMER "Rachelle Garniez & The Fortunate Few" REM REPLAYGAIN_TRACK_GAIN -7.98 dB REM REPLAYGAIN_TRACK_PEAK 0.977478 INDEX 00 04:55:64FILE "03 - Quality Star.flac" WAVE INDEX 01 00:00:00 TRACK 04 AUDIO TITLE "Luckyday" PERFORMER "Rachelle Garniez & The Fortunate Few" REM REPLAYGAIN_TRACK_GAIN -5.05 dB REM REPLAYGAIN_TRACK_PEAK 0.977325 INDEX 00 05:52:71FILE "04 - Luckyday.flac" WAVE INDEX 01 00:00:00FILE "05 - Bad Boys.flac" WAVE TRACK 05 AUDIO TITLE "Bad Boys" PERFORMER "Rachelle Garniez & The Fortunate Few" REM REPLAYGAIN_TRACK_GAIN -6.09 dB REM REPLAYGAIN_TRACK_PEAK 0.977356 INDEX 01 00:00:00 TRACK 06 AUDIO TITLE "Medicine Man" PERFORMER "Rachelle Garniez & The Fortunate Few" REM REPLAYGAIN_TRACK_GAIN -7.25 dB REM REPLAYGAIN_TRACK_PEAK 0.977356 INDEX 00 06:32:03FILE "06 - Medicine Man.flac" WAVE INDEX 01 00:00:00FILE "07 - January Wind.flac" WAVE TRACK 07 AUDIO TITLE "January Wind" PERFORMER "Rachelle Garniez & The Fortunate Few" REM REPLAYGAIN_TRACK_GAIN -5.87 dB REM REPLAYGAIN_TRACK_PEAK 0.977264 INDEX 01 00:00:00 TRACK 08 AUDIO TITLE "Candy Store" PERFORMER "Rachelle Garniez & The Fortunate Few" REM REPLAYGAIN_TRACK_GAIN -3.27 dB REM REPLAYGAIN_TRACK_PEAK 0.977356 INDEX 00 03:48:01FILE "08 - Candy Store.flac" WAVE INDEX 01 00:00:00FILE "09 - Pearls & Swine.flac" WAVE TRACK 09 AUDIO TITLE "Pearls & Swine" PERFORMER "Rachelle Garniez & The Fortunate Few" REM REPLAYGAIN_TRACK_GAIN -6.60 dB REM REPLAYGAIN_TRACK_PEAK 0.977325 INDEX 01 00:00:00FILE "10 - The Last Thing I Ever Wanted.flac" WAVE TRACK 10 AUDIO TITLE "The Last Thing I Ever Wanted" PERFORMER "Rachelle Garniez & The Fortunate Few" REM REPLAYGAIN_TRACK_GAIN -7.12 dB REM REPLAYGAIN_TRACK_PEAK 0.981049 INDEX 01 00:00:00
Доп. информация:Recording Location: Peter Karl's Studio, Brooklyn, NY

Об исполнителе (группе)

http://rachellegarniezcom.virb.com/bio
Multi-instrumentalist, singer/songwriter/composer, she was not formally educated in music, but was raised in a musical household by her mother, a classical pianist and music teacher who encouraged her to play by ear and also to experiment with all kinds of instruments and sounds. Her father, a professor of French literature from Belgium, introduced her to the joy of words and the advantages of learning to speak in a bilingual environment. At seventeen, she traveled around Europe with a guitar for a year, busking in Venice and making music with Gypsies in the south of Spain.
Upon returning to New York, Rachelle was hijacked by an accordion and spent several years playing on subway platforms and street corners of New York City, a training that served to develop immediate and direct connect with audiences of all ages and origins.
Performances are authentic, theatrical, spontaneous and fresh; stream-of-consciousness improvisations provide scope for the songs to evolve and develop continually as the spirit moves.
Her original lyrical and melodic story-songs have been described as "romantic, rhapsodic and casually hilarious" (The New York Times). Over the years she has played music in many bands of many kinds, including Rock, Blues, Tango, Country, Latin, Klezmer, Jazz and Tin Pan Alley classics. Her unique sense of song draws from all of these influences and "...wanders through genres, leaving behind nothing but sweet wreckage" (The New Yorker). bar-band roots to club-kid art-funk; samba fierce-showgirl revue to klezmer and old-time jazz, each of which have contributed significantly to her writing style.
She has released five CDs on her own label, Real Cool Records, and in 2009 recorded a vinyl single, My House of Peace, produced by Jack White and released on Third Man Records. A compilation album of songs, Greetings from Dreamsville, was released in Europe by JARO Records in 2012,
Other recording projects include KinderAngst, a collection of original punk rock children's songs, co-conceived, co-written and co-produced by Underground Garage Palmyra Delran, featuring Debby Harry.
Rachelle has performed/recorded with artists and bands including Hazmat Modine, the TED House Band led by Thomas Dolby, sonic wizard Sxip Shirey, neo-cabaret trouple The Citizens Band, violinst Jenny Scheinman, the Marvin Sewell Group, Rufus Wainwright, Richard Barone and many others.
Her songs have been recorded and performed by singers including acclaimed Jazz vocalist Catherine Russell, cabaret star Sven Ratzke, and pop singer Karen Elson.
In 2009 Rachelle composed the music for Taylor Mac's visionary Obie-Award-winning epic five-hour theater piece The Lily's Revenge, which was most recently presented in September 2012 by the American Repertory Theater at Harvard University in Cambridge, U.S.
Her new album, Who's Counting, will be released by Jaro in Europe on September 24th 2015, and by StorySound Records in the U.S. on the 13th of November.

Об альбоме (сборнике)

This is the most vividly realized collection of poignant and funny pop songs which N.Y. singer, accordionist, and songwriter Rachelle Garniez has created so far. Fans of Tom Waits, Rickie Lee Jones, and even Bjork, will take to Rachelle's loose and rootsy, accordion-driven band. You'll hear strains of country, jazz-noir, Euro-cafe and jazzy improvisation (on accordion, piano, bass, electric guitar and drums) intermingling with Rachelle's bitter-sweet lyrics. Her compelling voice - think Tom Waite's growl meets Maria Callas' stratospheric range - serves as the emotional anchor for her instrumental prowess and lyrical imagination, and will ensure that the audience for her brand of post-Norah Jones "Alternative Americana" continues to grow.
http://www.allmusic.com/album/luckyday-mw0000697829
AllMusic Review by Stewart Mason
If Janet Klein brandished an accordion instead of a ukulele and moved her fascination with pre-rock singing styles to the '40s from the '20s, she and Rachelle Garniez would have much in common. A singer/songwriter with an ironic but never campy sensibility, Garniez has shown remarkable growth over the course of her career. Her third album, Luckyday, continues that trend. Opening with the sparse "Magic Time," on which her funereal accordion seems to mimic the mournful phrasing of a New Orleans second-line band, and continuing through an impressively varied collection of ten original songs, Luckyday has a somewhat downcast quality even on the more upbeat tracks. The album isn't entirely faultless; although it has a terrific, uncharacteristically rock-influenced chorus, the closing "The Last Thing I Ever Wanted" loses points for Garniez's overmannered singing: in the first verse, she sounds like Lene Lovich imitating Louis Armstrong. However, enough of the album, including the countrified torch song "Red Roses" (which is crying out for a Norah Jones cover, if only for its positive effect on Garniez's bank account) and the moody, blues-tinged title track, is on the plus side of the ledger to make Luckyday an album that any fan of Rickie Lee Jones, John Southworth, k.d. lang, or the Lullaby Baxter Trio will be smitten with.

Состав

Rachelle Garniez: Vocals, Accordion, Claviola, Guitar (Acoustic), Piano, Xylophone
Pamela Fleming: Trumpet
Wade Schuman: Harmonica
Joe Ruddick: Piano, Sax (Alto), Sax (Baritone), Wurlitzer
Dave Hofstra: Bass, Tuba
Matt Munisteri: Banjo, Guitar, Guitar (Electric)
Allison Young: Ukulele, Vocal Harmony
Barbara Merjan: Castanets, Drums, Lap Steel Guitar, Percussion


[islamvillage.com]_t_5658093.torrent
Торрент: Зарегистрирован ·  [ 2018-12-12 18:38 ] ·  2e137b711a2c16d117b6c0509457d55554a03a79

21 KB

Статус: проверено
Скачан: 0 раз
Размер: 248 MB
Оценка: 
(Голосов: 0)
Сказали спасибо: 0  Спасибо
Похожие темы
[Профиль]    [ЛС]
Показать сообщения:    
Ответить на тему

Текущее время: Сегодня 10:32

Часовой пояс: GMT + 7



Вы не можете начинать темы
Вы не можете отвечать на сообщения
Вы не можете редактировать свои сообщения
Вы не можете удалять свои сообщения
Вы не можете голосовать в опросах
Вы не можете прикреплять файлы к сообщениям
Вы можете скачивать файлы


Howard Lovecraft And The Kingdom Of Madness | [ Zobacz cały opis... ] | MUSE - Concerto Milano - 12/07/2019 - 2 BIGLIETTI SETTORE secondo anello rosso