(JMetal, Power Metal) [CD] Aldious - Defended desire (single) - 2010, FLAC (tracks+.cue), lossless

Ответить на тему
Статистика раздачи [Обновить пиров]
Размер:  131 MB   |    Зарегистрирован:  1 месяц 4 дня   |    Скачан:  0 раз

Полного источника не было: Никогда

 
   
 
 
 
Автор Сообщение

islamvillage.com

Создавать темы 13-Дек-2018 01:15

[Цитировать]

Aldious - Defended desire Жанр: JMetal, Power Metal
Носитель: CD
Год издания: 2010
Страна-производитель диска: Japan
Издатель (лейбл): Bright Star Records
Номер по каталогу: BSRS-001
Страна исполнителя (группы): Japan
Аудиокодек: FLAC (*.flac)
Тип рипа: tracks+.cue
Битрейт аудио: lossless
Продолжительность: 17:43
Источник (релизер): red
Наличие сканов: нет
Треклист:
01. Defended Desire [04:11]
02. Hai no Yuki [灰の雪] [04:31]
03. Ultimate Melodious [04:48]
04. Defended Desire (Instrumental) [04:13]

Лог

Exact Audio Copy V1.3 from 2. September 2016
EAC extraction logfile from 26. April 2018, 23:11
Aldious / Defended Desire
Used drive : ASUS BW-16D1HT Adapter: 1 ID: 0
Read mode : SecureUtilize accurate stream : YesDefeat audio cache : YesMake use of C2 pointers : No
Read offset correction : 6Overread into Lead-In and Lead-Out : NoFill up missing offset samples with silence : YesDelete leading and trailing silent blocks : NoNull samples used in CRC calculations : YesUsed interface : Native Win32 interface for Win NT & 2000Gap handling : Appended to previous track
Used output format : User Defined EncoderSelected bitrate : 1024 kBit/sQuality : HighAdd ID3 tag : NoCommand line compressor : C:\Program Files (x86)\Exact Audio Copy\Flac\flac.exeAdditional command line options : -8 -V -T "ARTIST=%artist%" -T "TITLE=%title%" -T "ALBUM=%albumtitle%" -T "DATE=%year%" -T "TRACKNUMBER=%tracknr%" -T "GENRE=%genre%" -T "PERFORMER=%albuminterpret%" -T "COMPOSER=%composer%" %haslyrics%--tag-from-file=LYRICS="%lyricsfile%"%haslyrics% -T "ALBUMARTIST=%albumartist%" -T "DISCNUMBER=%cdnumber%" -T "TOTALDISCS=%totalcds%" -T "TOTALTRACKS=%numtracks%" -T "COMMENT=%comment%" %source% -o %dest%
TOC of the extracted CD
Track | Start | Length | Start sector | End sector --------------------------------------------------------- 1 | 0:00.00 | 4:13.33 | 0 | 19007 2 | 4:13.33 | 4:29.28 | 19008 | 39210 3 | 8:42.61 | 4:49.61 | 39211 | 60946 4 | 13:32.47 | 4:10.42 | 60947 | 79738
Track 1
Filename E:\Music\Aldious\FLAC\[2010.07.07] Defended Desire [FLAC]\01 - Defended Desire.wav
Pre-gap length 0:00:02.00
Peak level 99.7 % Extraction speed 1.0 X Track quality 100.0 % Test CRC 1987919C Copy CRC 1987919C Accurately ripped (confidence 3) [E1139E7E] (AR v2) Copy OK
Track 2
Filename E:\Music\Aldious\FLAC\[2010.07.07] Defended Desire [FLAC]\02 - Hai no Yuki.wav
Pre-gap length 0:00:02.21
Peak level 99.7 % Extraction speed 1.2 X Track quality 100.0 % Test CRC 8DCDB0F2 Copy CRC 8DCDB0F2 Accurately ripped (confidence 3) [5C390BE8] (AR v2) Copy OK
Track 3
Filename E:\Music\Aldious\FLAC\[2010.07.07] Defended Desire [FLAC]\03 - Ultimate Melodious.wav
Pre-gap length 0:00:00.54
Peak level 99.7 % Extraction speed 1.3 X Track quality 99.9 % Test CRC 463939F4 Copy CRC 463939F4 Accurately ripped (confidence 3) [9A522887] (AR v2) Copy OK
Track 4
Filename E:\Music\Aldious\FLAC\[2010.07.07] Defended Desire [FLAC]\04 - Defended Desire (Instrumental).wav
Pre-gap length 0:00:02.25
Peak level 99.7 % Extraction speed 1.4 X Track quality 100.0 % Test CRC 164D85A1 Copy CRC 164D85A1 Accurately ripped (confidence 3) [09720A8F] (AR v2) Copy OK
All tracks accurately ripped
No errors occurred
End of status report
---- CUETools DB Plugin V2.1.6
[CTDB TOCID: LLGz90MyRZb7ZEowPPDQRPTawvg-] foundSubmit result: LLGz90MyRZb7ZEowPPDQRPTawvg- has been confirmedTrack | CTDB Status 1 | (5/5) Accurately ripped 2 | (5/5) Accurately ripped 3 | (5/5) Accurately ripped 4 | (5/5) Accurately ripped
==== Log checksum B550BC187FB098391EB16A61BC1C62F7C1BF870C7343DE858ED8A3D83CC4696C ====

Содержание индексной карты

REM GENRE MetalREM DATE 2010REM DISCID 26042704REM COMMENT "ExactAudioCopy v1.3"CATALOG 4560124806231PERFORMER "Aldious"TITLE "Defended Desire"REM COMPOSER ""FILE "01 - Defended Desire.wav" WAVE TRACK 01 AUDIO TITLE "Defended Desire" PERFORMER "Aldious" REM COMPOSER "" ISRC JPZ921006754 INDEX 01 00:00:00 TRACK 02 AUDIO TITLE "Hai no Yuki" PERFORMER "Aldious" REM COMPOSER "" ISRC JPZ921006755 INDEX 00 04:11:17FILE "02 - Hai no Yuki.wav" WAVE INDEX 01 00:00:00 TRACK 03 AUDIO TITLE "Ultimate Melodious" PERFORMER "Aldious" REM COMPOSER "" ISRC JPZ921006756 INDEX 00 04:28:62FILE "03 - Ultimate Melodious.wav" WAVE INDEX 01 00:00:00 TRACK 04 AUDIO TITLE "Defended Desire (Instrumental)" PERFORMER "Aldious" REM COMPOSER "" ISRC JPZ921006757 INDEX 00 04:47:42FILE "04 - Defended Desire (Instrumental).wav" WAVE INDEX 01 00:00:00
Не уходите с раздачи, я не смогу её поддерживать!


[islamvillage.com]_t_5657802.torrent
Торрент: Зарегистрирован ·  [ 2018-12-13 01:15 ] ·  578f4fe553f887dbfaf25795e5c4aa574953e625

11 KB

Статус: проверено
Скачан: 0 раз
Размер: 131 MB
Оценка: 
(Голосов: 0)
Сказали спасибо: 0  Спасибо
Похожие темы
[Профиль]    [ЛС]
Показать сообщения:    
Ответить на тему

Текущее время: Сегодня 03:56

Часовой пояс: GMT + 7



Вы не можете начинать темы
Вы не можете отвечать на сообщения
Вы не можете редактировать свои сообщения
Вы не можете удалять свои сообщения
Вы не можете голосовать в опросах
Вы не можете прикреплять файлы к сообщениям
Вы можете скачивать файлы


Gothamprosieben.de | IMDb: 8 S5E9 The Flash - Season 5 | Sings For Only The Lonely (Deluxe Edition)