(JMetal, Power Metal) [CD] Aldious - Unlimited Diffusion - 2017, FLAC (tracks+.cue), lossless

Ответить на тему
Статистика раздачи [Обновить пиров]
Размер:  411 MB   |    Зарегистрирован:  1 месяц 4 дня   |    Скачан:  0 раз

Полного источника не было: Никогда

 
   
 
 
 
Автор Сообщение

islamvillage.com

Создавать темы 13-Дек-2018 01:25

[Цитировать]

Aldious - Unlimited Diffusion Жанр: JMetal, Power Metal
Носитель: CD
Год издания: 2017
Страна-производитель диска: Japan
Издатель (лейбл): Radiant A
Номер по каталогу: ALDI-013
Страна исполнителя (группы): Japan
Аудиокодек: FLAC (*.flac)
Тип рипа: tracks+.cue
Битрейт аудио: lossless
Продолжительность: 53:04
Источник (релизер): red
Наличие сканов: нет
Треклист:
01. Utopia [04:40]
02. Lose Control [04:07]
03. Without You [04:33]
04. Dilemma [ジレンマ] [03:45]
05. Baika [梅華] [04:01]
06. Alright [04:49]
07. Merry-Go-Round [マリーゴールド] [04:43]
08. Nostalgic (NEW MIX) [ノスタルジック (NEW MIX)] [03:59]
09. Reincarnation [05:10]
10. Go away [04:19]
11. In This World [03:37]
12. Fragile [05:06]
13. [Secret Track]

Лог

Exact Audio Copy V1.3 from 2. September 2016
EAC extraction logfile from 5. January 2018, 22:34
Aldious / Unlimited Diffusion
Used drive : ASUS BW-16D1HT Adapter: 1 ID: 0
Read mode : SecureUtilize accurate stream : YesDefeat audio cache : YesMake use of C2 pointers : No
Read offset correction : 6Overread into Lead-In and Lead-Out : NoFill up missing offset samples with silence : YesDelete leading and trailing silent blocks : NoNull samples used in CRC calculations : YesUsed interface : Native Win32 interface for Win NT & 2000Gap handling : Appended to previous track
Used output format : User Defined EncoderSelected bitrate : 1024 kBit/sQuality : HighAdd ID3 tag : NoCommand line compressor : C:\Program Files (x86)\Exact Audio Copy\Flac\flac.exeAdditional command line options : -8 -V -T "ARTIST=%artist%" -T "TITLE=%title%" -T "ALBUM=%albumtitle%" -T "DATE=%year%" -T "TRACKNUMBER=%tracknr%" -T "GENRE=%genre%" -T "PERFORMER=%albuminterpret%" -T "COMPOSER=%composer%" %haslyrics%--tag-from-file=LYRICS="%lyricsfile%"%haslyrics% -T "ALBUMARTIST=%albumartist%" -T "DISCNUMBER=%cdnumber%" -T "TOTALDISCS=%totalcds%" -T "TOTALTRACKS=%numtracks%" -T "COMMENT=%comment%" %source% -o %dest%
TOC of the extracted CD
Track | Start | Length | Start sector | End sector --------------------------------------------------------- 1 | 0:00.00 | 4:39.72 | 0 | 20996 2 | 4:39.72 | 4:07.04 | 20997 | 39525 3 | 8:47.01 | 4:33.11 | 39526 | 60011 4 | 13:20.12 | 3:45.25 | 60012 | 76911 5 | 17:05.37 | 4:01.32 | 76912 | 95018 6 | 21:06.69 | 4:48.64 | 95019 | 116682 7 | 25:55.58 | 4:42.43 | 116683 | 137875 8 | 30:38.26 | 3:58.63 | 137876 | 155788 9 | 34:37.14 | 5:10.28 | 155789 | 179066 10 | 39:47.42 | 4:18.40 | 179067 | 198456 11 | 44:06.07 | 3:37.22 | 198457 | 214753 12 | 47:43.29 | 5:06.17 | 214754 | 237720 13 | 52:49.46 | 0:13.64 | 237721 | 238759
Track 1
Filename E:\Music\EAC Rips\Aldious\[2017] Unlimited Diffusion [FLAC]\01 - Utopia.wav
Pre-gap length 0:00:02.00
Peak level 98.1 % Extraction speed 3.3 X Track quality 100.0 % Test CRC 39AECBAA Copy CRC 39AECBAA Accurately ripped (confidence 7) [CC4BEDAB] (AR v2) Copy OK
Track 2
Filename E:\Music\EAC Rips\Aldious\[2017] Unlimited Diffusion [FLAC]\02 - Lose Control.wav
Peak level 98.1 % Extraction speed 1.2 X Track quality 100.0 % Test CRC 7CAF56A4 Copy CRC 7CAF56A4 Accurately ripped (confidence 7) [1F33466C] (AR v2) Copy OK
Track 3
Filename E:\Music\EAC Rips\Aldious\[2017] Unlimited Diffusion [FLAC]\03 - Without You.wav
Peak level 98.1 % Extraction speed 1.3 X Track quality 100.0 % Test CRC BDAB4142 Copy CRC BDAB4142 Accurately ripped (confidence 7) [EE26DB0F] (AR v2) Copy OK
Track 4
Filename E:\Music\EAC Rips\Aldious\[2017] Unlimited Diffusion [FLAC]\04 - Dilemma.wav
Peak level 99.2 % Extraction speed 1.4 X Track quality 100.0 % Test CRC 8F38FF8E Copy CRC 8F38FF8E Accurately ripped (confidence 7) [E0D10D26] (AR v2) Copy OK
Track 5
Filename E:\Music\EAC Rips\Aldious\[2017] Unlimited Diffusion [FLAC]\05 - Plum trees.wav
Peak level 99.2 % Extraction speed 1.5 X Track quality 100.0 % Test CRC 3A2CBD33 Copy CRC 3A2CBD33 Accurately ripped (confidence 7) [1ABD92BD] (AR v2) Copy OK
Track 6
Filename E:\Music\EAC Rips\Aldious\[2017] Unlimited Diffusion [FLAC]\06 - Alright.wav
Peak level 98.1 % Extraction speed 1.5 X Track quality 99.9 % Test CRC FFDC17F5 Copy CRC FFDC17F5 Accurately ripped (confidence 7) [FC189A3B] (AR v2) Copy OK
Track 7
Filename E:\Music\EAC Rips\Aldious\[2017] Unlimited Diffusion [FLAC]\07 - Marigold.wav
Peak level 98.1 % Extraction speed 1.7 X Track quality 100.0 % Test CRC 9A724D55 Copy CRC 9A724D55 Accurately ripped (confidence 7) [85E30477] (AR v2) Copy OK
Track 8
Filename E:\Music\EAC Rips\Aldious\[2017] Unlimited Diffusion [FLAC]\08 - Nostalgic (NEW MIX).wav
Peak level 98.1 % Extraction speed 1.8 X Track quality 100.0 % Test CRC 602EE903 Copy CRC 602EE903 Accurately ripped (confidence 7) [244DEE11] (AR v2) Copy OK
Track 9
Filename E:\Music\EAC Rips\Aldious\[2017] Unlimited Diffusion [FLAC]\09 - Reincarnation.wav
Pre-gap length 0:00:02.06
Peak level 98.1 % Extraction speed 1.9 X Track quality 100.0 % Test CRC 143E4BF4 Copy CRC 143E4BF4 Accurately ripped (confidence 7) [42269C35] (AR v2) Copy OK
Track 10
Filename E:\Music\EAC Rips\Aldious\[2017] Unlimited Diffusion [FLAC]\10 - Go away.wav
Peak level 99.2 % Extraction speed 2.0 X Track quality 100.0 % Test CRC B8B0507F Copy CRC B8B0507F Accurately ripped (confidence 7) [4BFE3885] (AR v2) Copy OK
Track 11
Filename E:\Music\EAC Rips\Aldious\[2017] Unlimited Diffusion [FLAC]\11 - IN THIS WORLD.wav
Peak level 98.1 % Extraction speed 2.0 X Track quality 100.0 % Test CRC 5285E5C2 Copy CRC 5285E5C2 Accurately ripped (confidence 7) [E9E713F8] (AR v2) Copy OK
Track 12
Filename E:\Music\EAC Rips\Aldious\[2017] Unlimited Diffusion [FLAC]\12 - fragile (ALBUM MIX).wav
Peak level 98.1 % Extraction speed 2.1 X Track quality 100.0 % Test CRC 9AF11C83 Copy CRC 9AF11C83 Accurately ripped (confidence 7) [59869018] (AR v2) Copy OK
Track 13
Filename E:\Music\EAC Rips\Aldious\[2017] Unlimited Diffusion [FLAC]\13 - [Secret Track].wav
Peak level 36.0 % Extraction speed 0.6 X Track quality 100.0 % Test CRC 49AE6615 Copy CRC 49AE6615 Accurately ripped (confidence 3) [C8A17865] (AR v2) Copy OK
All tracks accurately ripped
No errors occurred
End of status report
---- CUETools DB Plugin V2.1.6
[CTDB TOCID: _h4iBsloUTYuFp9x9jkRJyQjuCA-] foundSubmit result: already submittedTrack | CTDB Status 1 | (45/46) Accurately ripped 2 | (45/46) Accurately ripped 3 | (45/46) Accurately ripped 4 | (45/46) Accurately ripped 5 | (45/46) Accurately ripped 6 | (45/46) Accurately ripped 7 | (45/46) Accurately ripped 8 | (45/46) Accurately ripped 9 | (45/46) Accurately ripped 10 | (45/46) Accurately ripped 11 | (45/46) Accurately ripped 12 | (45/46) Accurately ripped 13 | (45/46) Accurately ripped
==== Log checksum 954E4E36B455B8840EC6417C93DB39F2E11B50C62EF70F7915D54BFD8030D2BF ====

Содержание индексной карты

REM GENRE RockREM DATE 2017REM DISCID BE0C6F0DREM COMMENT "ExactAudioCopy v1.3"CATALOG 4580413075339PERFORMER "Aldious"TITLE "Unlimited Diffusion"REM COMPOSER ""FILE "01 - Utopia.wav" WAVE TRACK 01 AUDIO TITLE "Utopia" PERFORMER "Aldious" REM COMPOSER "" ISRC JPH371700132 INDEX 01 00:00:00FILE "02 - Lose Control.wav" WAVE TRACK 02 AUDIO TITLE "Lose Control" PERFORMER "Aldious" REM COMPOSER "" ISRC JPH371700133 INDEX 01 00:00:00FILE "03 - Without You.wav" WAVE TRACK 03 AUDIO TITLE "Without You" PERFORMER "Aldious" REM COMPOSER "" ISRC JPH371700134 INDEX 01 00:00:00FILE "04 - Dilemma.wav" WAVE TRACK 04 AUDIO TITLE "Dilemma" PERFORMER "Aldious" REM COMPOSER "" ISRC JPH371700135 INDEX 01 00:00:00FILE "05 - Plum trees.wav" WAVE TRACK 05 AUDIO TITLE "Plum trees" PERFORMER "Aldious" REM COMPOSER "" ISRC JPH371700136 INDEX 01 00:00:00FILE "06 - Alright.wav" WAVE TRACK 06 AUDIO TITLE "Alright" PERFORMER "Aldious" REM COMPOSER "" ISRC JPH371700137 INDEX 01 00:00:00FILE "07 - Marigold.wav" WAVE TRACK 07 AUDIO TITLE "Marigold" PERFORMER "Aldious" REM COMPOSER "" ISRC JPH371700138 INDEX 01 00:00:00FILE "08 - Nostalgic (NEW MIX).wav" WAVE TRACK 08 AUDIO TITLE "Nostalgic (NEW MIX)" PERFORMER "Aldious" REM COMPOSER "" ISRC JPH371700139 INDEX 01 00:00:00 TRACK 09 AUDIO TITLE "Reincarnation" PERFORMER "Aldious" REM COMPOSER "" ISRC JPH371700140 INDEX 00 03:56:58FILE "09 - Reincarnation.wav" WAVE INDEX 01 00:00:00FILE "10 - Go away.wav" WAVE TRACK 10 AUDIO TITLE "Go away" PERFORMER "Aldious" REM COMPOSER "" ISRC JPH371700141 INDEX 01 00:00:00FILE "11 - IN THIS WORLD.wav" WAVE TRACK 11 AUDIO TITLE "IN THIS WORLD" PERFORMER "Aldious" REM COMPOSER "" ISRC JPH371700141 INDEX 01 00:00:00FILE "12 - fragile (ALBUM MIX).wav" WAVE TRACK 12 AUDIO TITLE "fragile (ALBUM MIX)" PERFORMER "Aldious" REM COMPOSER "" ISRC JPH371700143 INDEX 01 00:00:00FILE "13 - [Secret Track].wav" WAVE TRACK 13 AUDIO TITLE "[Secret Track]" PERFORMER "Aldious" REM COMPOSER "" INDEX 01 00:00:00
Не уходите с раздачи, я не смогу её поддерживать!


[islamvillage.com]_t_5657790.torrent
Торрент: Зарегистрирован ·  [ 2018-12-13 01:25 ] ·  1cb58c1e424743aeb1cb6a7bbdf303b2874106ba

17 KB

Статус: проверено
Скачан: 0 раз
Размер: 411 MB
Оценка: 
(Голосов: 0)
Сказали спасибо: 0  Спасибо
Похожие темы
[Профиль]    [ЛС]
Показать сообщения:    
Ответить на тему

Текущее время: Сегодня 03:16

Часовой пояс: GMT + 7



Вы не можете начинать темы
Вы не можете отвечать на сообщения
Вы не можете редактировать свои сообщения
Вы не можете удалять свои сообщения
Вы не можете голосовать в опросах
Вы не можете прикреплять файлы к сообщениям
Вы можете скачивать файлы


01.01 Mars.2016.S02E01.720p.WEBRip.2CH.x265.HEVC-PSA | Your New Year's Resolutions Never Change | Tabitha St. Germain