(Vocal Jazz) [CD] Rosemary Clooney - 16 Most Requested Songs - 1989, FLAC (tracks+.cue), lossless

Ответить на тему
Статистика раздачи [Обновить пиров]
Размер:  190 MB   |    Зарегистрирован:  1 месяц 2 дня   |    Скачан:  0 раз

Полного источника не было: Никогда

 
   
 
 
 
Автор Сообщение

islamvillage.com

Создавать темы 13-Дек-2018 16:37

[Цитировать]

Rosemary Clooney - 16 Most Requested Songs
[img=right]http://i107.fastpic.ru/big/2018/1210/5d/c5d15f78a3...d4c55d.jpg[/img]
Жанр: Vocal Jazz
Носитель: CD
Страна-производитель диска (релиза): США
Год издания: 1989
Издатель (лейбл): Columbia
Номер по каталогу: CK 44403
Аудиокодек: FLAC (*.flac)
Тип рипа: tracks+.cue
Битрейт аудио: lossless
Продолжительность: 45:57
Источник (релизер): L9
Наличие сканов в содержимом раздачи: сетевые
Треклист:
01. Come On-A My House (2:03)
02. Botch-A-Me (Ba-Ba-Baciani Piccina) (2:19)
03. Hey There (3:02)
04. Be My Life's Companion (2:23)
05. Tenderly (3:31)
06. Mixed Emotions (3:13)
07. Mambo Italiano (2:33)
08. You'll Never Know (3:11)
09. When You Wish Upon a Star (3:09)
10. Half as Much (2:49)
11. This Ole House (2:25)
12. I Could Have Danced All Night (2:27)
13. It Might as Well Be Spring (3:16)
14. In the Cool, Cool, Cool of the Evening (3:04)
15. Blues in the Night (3:38)
16. Too Young (2:54)

Лог создания рипа

Exact Audio Copy V1.3 from 2. September 2016
EAC extraction logfile from 8. December 2018, 12:17
Rosemary Clooney / 16 Most Requested Songs
Used drive : ASUS DRW-24B1ST j Adapter: 1 ID: 0
Read mode : SecureUtilize accurate stream : YesDefeat audio cache : YesMake use of C2 pointers : No
Read offset correction : 6Overread into Lead-In and Lead-Out : NoFill up missing offset samples with silence : YesDelete leading and trailing silent blocks : NoNull samples used in CRC calculations : YesUsed interface : Native Win32 interface for Win NT & 2000Gap handling : Appended to previous track
Used output format : User Defined EncoderSelected bitrate : 1024 kBit/sQuality : HighAdd ID3 tag : NoCommand line compressor : C:\Program Files\Exact Audio Copy\Flac\flac.exeAdditional command line options : -8 -V -T "artist=%artist%" -T "title=%title%" -T "album=%albumtitle%" -T "date=%year%" -T "tracknumber=%tracknr%" -T "genre=%genre%" %source%
TOC of the extracted CD
Track | Start | Length | Start sector | End sector --------------------------------------------------------- 1 | 0:00.00 | 2:02.45 | 0 | 9194 2 | 2:02.45 | 2:19.15 | 9195 | 19634 3 | 4:21.60 | 3:02.05 | 19635 | 33289 4 | 7:23.65 | 2:23.27 | 33290 | 44041 5 | 9:47.17 | 3:31.30 | 44042 | 59896 6 | 13:18.47 | 3:12.38 | 59897 | 74334 7 | 16:31.10 | 2:33.35 | 74335 | 85844 8 | 19:04.45 | 3:11.17 | 85845 | 100186 9 | 22:15.62 | 3:09.03 | 100187 | 114364 10 | 25:24.65 | 2:49.10 | 114365 | 127049 11 | 28:14.00 | 2:24.55 | 127050 | 137904 12 | 30:38.55 | 2:27.37 | 137905 | 148966 13 | 33:06.17 | 3:16.05 | 148967 | 163671 14 | 36:22.22 | 3:03.53 | 163672 | 177449 15 | 39:26.00 | 3:38.27 | 177450 | 193826 16 | 43:04.27 | 2:53.48 | 193827 | 206849
Track 1
Filename C:\EAC rips\Rosemary Clooney - 16 Most Requested Songs (1989) [FLAC]\ 01 - Come On-A My House.wav
Pre-gap length 0:00:02.00
Peak level 82.3 % Extraction speed 4.3 X Track quality 100.0 % Test CRC ED0AFF8C Copy CRC ED0AFF8C Accurately ripped (confidence 3) [B9D2C3AD] (AR v2) Copy OK
Track 2
Filename C:\EAC rips\Rosemary Clooney - 16 Most Requested Songs (1989) [FLAC]\ 02 - Botch-A-Me (Ba-Ba-Baciani Piccina).wav
Pre-gap length 0:00:02.25
Peak level 64.3 % Extraction speed 4.8 X Track quality 100.0 % Test CRC 213902E3 Copy CRC 213902E3 Accurately ripped (confidence 3) [087A7B1F] (AR v2) Copy OK
Track 3
Filename C:\EAC rips\Rosemary Clooney - 16 Most Requested Songs (1989) [FLAC]\ 03 - Hey There.wav
Pre-gap length 0:00:02.18
Peak level 54.9 % Extraction speed 5.4 X Track quality 100.0 % Test CRC 1FBBFC96 Copy CRC 1FBBFC96 Accurately ripped (confidence 3) [C5C485DF] (AR v2) Copy OK
Track 4
Filename C:\EAC rips\Rosemary Clooney - 16 Most Requested Songs (1989) [FLAC]\ 04 - Be My Life's Companion.wav
Pre-gap length 0:00:01.68
Peak level 60.8 % Extraction speed 5.4 X Track quality 100.0 % Test CRC 14CC3133 Copy CRC 14CC3133 Accurately ripped (confidence 3) [3E07671A] (AR v2) Copy OK
Track 5
Filename C:\EAC rips\Rosemary Clooney - 16 Most Requested Songs (1989) [FLAC]\ 05 - Tenderly.wav
Pre-gap length 0:00:01.72
Peak level 35.9 % Extraction speed 6.2 X Track quality 100.0 % Test CRC 5C83A4AA Copy CRC 5C83A4AA Accurately ripped (confidence 3) [0BAD1936] (AR v2) Copy OK
Track 6
Filename C:\EAC rips\Rosemary Clooney - 16 Most Requested Songs (1989) [FLAC]\ 06 - Mixed Emotions.wav
Pre-gap length 0:00:03.15
Peak level 55.8 % Extraction speed 6.5 X Track quality 100.0 % Test CRC AEACC689 Copy CRC AEACC689 Accurately ripped (confidence 3) [251F4E9D] (AR v2) Copy OK
Track 7
Filename C:\EAC rips\Rosemary Clooney - 16 Most Requested Songs (1989) [FLAC]\ 07 - Mambo Italiano.wav
Pre-gap length 0:00:02.13
Peak level 93.3 % Extraction speed 6.5 X Track quality 100.0 % Test CRC 00B256E2 Copy CRC 00B256E2 Accurately ripped (confidence 3) [7549A689] (AR v2) Copy OK
Track 8
Filename C:\EAC rips\Rosemary Clooney - 16 Most Requested Songs (1989) [FLAC]\ 08 - You'll Never Know.wav
Pre-gap length 0:00:02.00
Peak level 62.9 % Extraction speed 5.7 X Track quality 99.9 % Test CRC 912D850C Copy CRC 912D850C Accurately ripped (confidence 3) [11074C2A] (AR v2) Copy OK
Track 9
Filename C:\EAC rips\Rosemary Clooney - 16 Most Requested Songs (1989) [FLAC]\ 09 - When You Wish Upon a Star.wav
Pre-gap length 0:00:02.02
Peak level 58.0 % Extraction speed 7.3 X Track quality 100.0 % Test CRC F431F99B Copy CRC F431F99B Accurately ripped (confidence 3) [882D5EE1] (AR v2) Copy OK
Track 10
Filename C:\EAC rips\Rosemary Clooney - 16 Most Requested Songs (1989) [FLAC]\ 10 - Half As Much.wav
Pre-gap length 0:00:02.13
Peak level 58.7 % Extraction speed 7.4 X Track quality 100.0 % Test CRC E463245B Copy CRC E463245B Accurately ripped (confidence 3) [F972F52B] (AR v2) Copy OK
Track 11
Filename C:\EAC rips\Rosemary Clooney - 16 Most Requested Songs (1989) [FLAC]\ 11 - This Ole House.wav
Pre-gap length 0:00:02.08
Peak level 68.9 % Extraction speed 5.7 X Track quality 99.9 % Test CRC 690935A8 Copy CRC 690935A8 Accurately ripped (confidence 3) [34FA7FAA] (AR v2) Copy OK
Track 12
Filename C:\EAC rips\Rosemary Clooney - 16 Most Requested Songs (1989) [FLAC]\ 12 - I Could Have Danced All Night.wav
Pre-gap length 0:00:01.73
Peak level 61.7 % Extraction speed 7.6 X Track quality 100.0 % Test CRC 5CE21353 Copy CRC 5CE21353 Accurately ripped (confidence 3) [3CCD6CE0] (AR v2) Copy OK
Track 13
Filename C:\EAC rips\Rosemary Clooney - 16 Most Requested Songs (1989) [FLAC]\ 13 - It Might As Well Be Spring.wav
Pre-gap length 0:00:02.17
Peak level 53.9 % Extraction speed 8.2 X Track quality 100.0 % Test CRC B944E378 Copy CRC B944E378 Accurately ripped (confidence 3) [6B29126A] (AR v2) Copy OK
Track 14
Filename C:\EAC rips\Rosemary Clooney - 16 Most Requested Songs (1989) [FLAC]\ 14 - In the Cool, Cool, Cool of the Evening.wav
Pre-gap length 0:00:02.20
Peak level 66.7 % Extraction speed 8.4 X Track quality 100.0 % Test CRC DDAE3ECD Copy CRC DDAE3ECD Accurately ripped (confidence 3) [5DA7AA2A] (AR v2) Copy OK
Track 15
Filename C:\EAC rips\Rosemary Clooney - 16 Most Requested Songs (1989) [FLAC]\ 15 - Blues in the Night.wav
Pre-gap length 0:00:02.20
Peak level 53.8 % Extraction speed 8.9 X Track quality 100.0 % Test CRC 52B3A09F Copy CRC 52B3A09F Accurately ripped (confidence 3) [530AE19F] (AR v2) Copy OK
Track 16
Filename C:\EAC rips\Rosemary Clooney - 16 Most Requested Songs (1989) [FLAC]\ 16 - Too Young.wav
Pre-gap length 0:00:02.15
Peak level 58.6 % Extraction speed 6.8 X Track quality 99.9 % Test CRC 207EB906 Copy CRC 207EB906 Accurately ripped (confidence 3) [2778DCAE] (AR v2) Copy OK
All tracks accurately ripped
No errors occurred
End of status report
---- CUETools DB Plugin V2.1.6
[CTDB TOCID: qL4M1eiToZ.FYxRs58FKCUzhG4Q-] foundSubmit result: qL4M1eiToZ.FYxRs58FKCUzhG4Q- has been confirmedTrack | CTDB Status 1 | (13/16) Accurately ripped 2 | (13/16) Accurately ripped 3 | (13/16) Accurately ripped 4 | (13/16) Accurately ripped 5 | (13/16) Accurately ripped 6 | (13/16) Accurately ripped 7 | (13/16) Accurately ripped 8 | (13/16) Accurately ripped 9 | (13/16) Accurately ripped 10 | (13/16) Accurately ripped 11 | (13/16) Accurately ripped 12 | (13/16) Accurately ripped 13 | (13/16) Accurately ripped 14 | (13/16) Accurately ripped 15 | (13/16) Accurately ripped 16 | (13/16) Accurately ripped
==== Log checksum 9872E23D5FD85986AC4B72DE47A8D53287C22E77427C2CB271E66E478281F615 ====

Содержание индексной карты (.CUE)

REM GENRE JazzREM DATE 1989REM DISCID F00AC610REM COMMENT "ExactAudioCopy v1.3"PERFORMER "Rosemary Clooney"TITLE "16 Most Requested Songs"FILE "01 - Come On-A My House.wav" WAVE TRACK 01 AUDIO TITLE "Come On-A My House" PERFORMER "Rosemary Clooney" INDEX 01 00:00:00 TRACK 02 AUDIO TITLE "Botch-A-Me (Ba-Ba-Baciani Piccina)" PERFORMER "Rosemary Clooney" INDEX 00 02:00:20FILE "02 - Botch-A-Me (Ba-Ba-Baciani Piccina).wav" WAVE INDEX 01 00:00:00 TRACK 03 AUDIO TITLE "Hey There" PERFORMER "Rosemary Clooney" INDEX 00 02:16:72FILE "03 - Hey There.wav" WAVE INDEX 01 00:00:00 TRACK 04 AUDIO TITLE "Be My Life's Companion" PERFORMER "Rosemary Clooney" INDEX 00 03:00:12FILE "04 - Be My Life's Companion.wav" WAVE INDEX 01 00:00:00 TRACK 05 AUDIO TITLE "Tenderly" PERFORMER "Rosemary Clooney" INDEX 00 02:21:30FILE "05 - Tenderly.wav" WAVE INDEX 01 00:00:00 TRACK 06 AUDIO TITLE "Mixed Emotions" PERFORMER "Rosemary Clooney" INDEX 00 03:28:15FILE "06 - Mixed Emotions.wav" WAVE INDEX 01 00:00:00 TRACK 07 AUDIO TITLE "Mambo Italiano" PERFORMER "Rosemary Clooney" INDEX 00 03:10:25FILE "07 - Mambo Italiano.wav" WAVE INDEX 01 00:00:00 TRACK 08 AUDIO TITLE "You'll Never Know" PERFORMER "Rosemary Clooney" INDEX 00 02:31:35FILE "08 - You'll Never Know.wav" WAVE INDEX 01 00:00:00 TRACK 09 AUDIO TITLE "When You Wish Upon a Star" PERFORMER "Rosemary Clooney" INDEX 00 03:09:15FILE "09 - When You Wish Upon a Star.wav" WAVE INDEX 01 00:00:00 TRACK 10 AUDIO TITLE "Half as Much" PERFORMER "Rosemary Clooney" INDEX 00 03:06:65FILE "10 - Half as Much.wav" WAVE INDEX 01 00:00:00 TRACK 11 AUDIO TITLE "This Ole House" PERFORMER "Rosemary Clooney" INDEX 00 02:47:02FILE "11 - This Ole House.wav" WAVE INDEX 01 00:00:00 TRACK 12 AUDIO TITLE "I Could Have Danced All Night" PERFORMER "Rosemary Clooney" INDEX 00 02:22:57FILE "12 - I Could Have Danced All Night.wav" WAVE INDEX 01 00:00:00 TRACK 13 AUDIO TITLE "It Might as Well Be Spring" PERFORMER "Rosemary Clooney" INDEX 00 02:25:20FILE "13 - It Might as Well Be Spring.wav" WAVE INDEX 01 00:00:00 TRACK 14 AUDIO TITLE "In the Cool, Cool, Cool of the Evening" PERFORMER "Rosemary Clooney" INDEX 00 03:13:60FILE "14 - In the Cool, Cool, Cool of the Evening.wav" WAVE INDEX 01 00:00:00 TRACK 15 AUDIO TITLE "Blues in the Night" PERFORMER "Rosemary Clooney" INDEX 00 03:01:33FILE "15 - Blues in the Night.wav" WAVE INDEX 01 00:00:00 TRACK 16 AUDIO TITLE "Too Young" PERFORMER "Rosemary Clooney" INDEX 00 03:36:12FILE "16 - Too Young.wav" WAVE INDEX 01 00:00:00

Отчет CUETools

[CUETools log; Date: 10.12.2018 23:48:04; Version: 2.1.6][CTDB TOCID: qL4M1eiToZ.FYxRs58FKCUzhG4Q-] found.Track | CTDB Status 1 | (14/17) Accurately ripped 2 | (14/17) Accurately ripped 3 | (14/17) Accurately ripped 4 | (14/17) Accurately ripped 5 | (14/17) Accurately ripped 6 | (14/17) Accurately ripped 7 | (14/17) Accurately ripped 8 | (14/17) Accurately ripped 9 | (14/17) Accurately ripped 10 | (14/17) Accurately ripped 11 | (14/17) Accurately ripped 12 | (14/17) Accurately ripped 13 | (14/17) Accurately ripped 14 | (14/17) Accurately ripped 15 | (14/17) Accurately ripped 16 | (14/17) Accurately ripped[AccurateRip ID: 0019e300-013a5dc3-f00ac610] found.Track [ CRC | V2 ] Status 01 [0968005b|b9d2c3ad] (03+03/22) Accurately ripped 02 [c3fb3b7e|087a7b1f] (03+03/22) Accurately ripped 03 [38b8a90d|c5c485df] (03+03/22) Accurately ripped 04 [f617fef8|3e07671a] (03+03/22) Accurately ripped 05 [e054dcb4|0bad1936] (03+03/22) Accurately ripped 06 [74da1d42|251f4e9d] (03+03/22) Accurately ripped 07 [7cfda2cc|7549a689] (03+03/22) Accurately ripped 08 [c5b8efbc|11074c2a] (03+03/22) Accurately ripped 09 [c340a0b6|882d5ee1] (03+03/22) Accurately ripped 10 [25062054|f972f52b] (03+03/22) Accurately ripped 11 [f5c88554|34fa7faa] (03+03/22) Accurately ripped 12 [9bc4819a|3ccd6ce0] (03+03/22) Accurately ripped 13 [5b6a6790|6b29126a] (03+03/22) Accurately ripped 14 [6e669e74|5da7aa2a] (03+03/22) Accurately ripped 15 [e80a2075|530ae19f] (03+03/22) Accurately ripped 16 [f39f0080|2778dcae] (03+03/22) Accurately rippedOffsetted by 587: 01 [760bc4a7] (03/22) Accurately ripped 02 [f4c2ce0d] (03/22) Accurately ripped 03 [a47f1c4f] (03/22) Accurately ripped 04 [a2d36a0a] (03/22) Accurately ripped 05 [b4068de6] (03/22) Accurately ripped 06 [e238dd2d] (03/22) Accurately ripped 07 [0d2df289] (03/22) Accurately ripped 08 [bc380ef8] (03/22) Accurately ripped 09 [91d77aaf] (03/22) Accurately ripped 10 [342351ed] (03/22) Accurately ripped 11 [92dcaf07] (03/22) Accurately ripped 12 [e81a4711] (03/22) Accurately ripped 13 [6d66b37a] (03/22) Accurately ripped 14 [daf4fe26] (03/22) Accurately ripped 15 [88c5c73b] (03/22) Accurately ripped 16 [ce9a06a2] (03/22) Accurately rippedOffsetted by 974: 01 [879792d3] (02/22) Accurately ripped 02 [20427474] (02/22) Accurately ripped 03 [1a3726e1] (02/22) Accurately ripped 04 [df102cec] (02/22) Accurately ripped 05 [4f4adbe8] (02/22) Accurately ripped 06 [850a4d50] (02/22) Accurately ripped 07 [448de84e] (02/22) Accurately ripped 08 [dbe54594] (02/22) Accurately ripped 09 [58684a10] (02/22) Accurately ripped 10 [608e39ee] (02/22) Accurately ripped 11 [702c4432] (02/22) Accurately ripped 12 [add618a0] (02/22) Accurately ripped 13 [9d74d4f4] (02/22) Accurately ripped 14 [3cb17ea8] (02/22) Accurately ripped 15 [a7babbf1] (02/22) Accurately ripped 16 [453dc714] (02/22) Accurately rippedOffsetted by 423: 01 [cf307097] (00/22) No match (V2 was not tested) 02 [944544b9] (00/22) No match (V2 was not tested) 03 [a787c677] (00/22) No match (V2 was not tested) 04 [0e429872] (00/22) No match (V2 was not tested) 05 [8ffec6ce] (00/22) No match (V2 was not tested) 06 [2cc4fd09] (00/22) No match (V2 was not tested) 07 [06e97fcd] (00/22) No match (V2 was not tested) 08 [0c110da8] (00/22) No match (V2 was not tested) 09 [9061e2a3] (00/22) No match (V2 was not tested) 10 [5b86e261] (00/22) No match (V2 was not tested) 11 [94551683] (00/22) No match (V2 was not tested) 12 [9d91cbdd] (00/22) No match (V2 was not tested) 13 [24c73ec2] (00/22) No match (V2 was not tested) 14 [387c190e] (00/22) No match (V2 was not tested) 15 [09e049b3] (00/22) No match (V2 was not tested) 16 [39c31a4a] (00/22) No match (V2 was not tested)
Track Peak [ CRC32 ] [W/O NULL] [ LOG ] -- 93,3 [68A13100] [C517BDC1] 01 82,3 [ED0AFF8C] [8E691AF1] CRC32 02 64,3 [213902E3] [9216FD01] CRC32 03 54,9 [1FBBFC96] [816B107D] CRC32 04 60,8 [14CC3133] [EE11D0B1] CRC32 05 35,9 [5C83A4AA] [A7B035E3] CRC32 06 55,8 [AEACC689] [18E16C99] CRC32 07 93,3 [00B256E2] [6AACFF9D] CRC32 08 62,9 [912D850C] [16D51984] CRC32 09 58,0 [F431F99B] [907F3FB5] CRC32 10 58,7 [E463245B] [51774DA2] CRC32 11 68,9 [690935A8] [197F9759] CRC32 12 61,7 [5CE21353] [C4049DB1] CRC32 13 53,9 [B944E378] [563645D4] CRC32 14 66,7 [DDAE3ECD] [2DDB27FE] CRC32 15 53,8 [52B3A09F] [84E68C5F] CRC32 16 58,6 [207EB906] [C19A96FF] CRC32

AllMusic Review by Stephen Thomas Erlewine

16 Most Requested Songs doesn't necessarily contain Rosemary Clooney's biggest hits -- "Hey There," "This Ole House," and "Mambo Italiano" are here, but "Memories of You," "Mangos," and several others are missing. However, it has enough of her best material to make it worthwhile for curious budget-minded fans.


[islamvillage.com]_t_5657819.torrent
Торрент: Зарегистрирован ·  [ 2018-12-13 16:36 ] ·  1f8eeafc539202c209927ef2d147af873930cf1f

17 KB

Статус: проверено
Скачан: 0 раз
Размер: 190 MB
Оценка: 
(Голосов: 0)
Сказали спасибо: 0  Спасибо
Похожие темы
[Профиль]    [ЛС]
Показать сообщения:    
Ответить на тему

Текущее время: Сегодня 15:31

Часовой пояс: GMT + 7



Вы не можете начинать темы
Вы не можете отвечать на сообщения
Вы не можете редактировать свои сообщения
Вы не можете удалять свои сообщения
Вы не можете голосовать в опросах
Вы не можете прикреплять файлы к сообщениям
Вы можете скачивать файлы


Visual Styles Related | Marvels Runaways S02E05 720p WEB H264-METCON[eztv] | 3,335,857 04:17 Jikalau Kau Cinta Judika