(Vocal Jazz) [CD] Peggy Lee - Best 22 Songs - 1986 (Japan Edition), FLAC (tracks+.cue), lossless

Ответить на тему
Статистика раздачи [Обновить пиров]
Размер:  280 MB   |    Зарегистрирован:  1 месяц 2 дня   |    Скачан:  0 раз

Полного источника не было: Никогда

 
   
 
 
 
Автор Сообщение

islamvillage.com

Создавать темы 13-Дек-2018 16:37

[Цитировать]

Peggy Lee - Best 22 Songs
[img=right]http://i106.fastpic.ru/big/2018/1210/ad/feaeb6c162...d803ad.jpg[/img]
Жанр: Vocal Jazz
Носитель: CD
Страна-производитель диска (релиза): Япония
Год издания: 1986
Издатель (лейбл): MCA Records, Inc./Warner-Pioneer Corporation
Номер по каталогу: 35XD-510
Страна исполнителя (группы): США
Аудиокодек: FLAC (*.flac)
Тип рипа: tracks+.cue
Битрейт аудио: lossless
Продолжительность: 66:19
Источник (релизер): choli
Наличие сканов в содержимом раздачи: да
Треклист:
01. Mr. Wonderful (3:21)
02. Black Coffee (3:09)
03. There's a Small Hotel (2:52)
04. You Go to My Head (3:16)
05. I've Got You Under My Skin (2:32)
06. You're My Thrill (3:27)
07. It's All Right with Me (2:24)
08. Bye Bye Blackbird (3:42)
09. Just One of Those Things (3:01)
10. Somebody Loves Me (3:30)
11. Apples, Peaches & Cherries (3:27)
12. The Siamese Cat Songs (2:29)
13. Sans Souci (3:22)
14. Let Me Go, Lover! (2:40)
15. Johnny Guitar (3:01)
16. Love Me or Leave Me (2:09)
17. Love Letters (2:49)
18. Lover (3:24)
19. Easy Living (2:47)
20. Swing Low Sweet Chariot (2:33)
21. My Heart Belongs to Daddy (2:09)
22. La La Lu (4:15)

Лог создания рипа

Exact Audio Copy V1.3 from 2. September 2016
EAC extraction logfile from 1. December 2018, 19:54
Peggy Lee / Best 22 Songs
Used drive : ASUS DRW-24D5MT Adapter: 1 ID: 0
Read mode : SecureUtilize accurate stream : YesDefeat audio cache : YesMake use of C2 pointers : No
Read offset correction : 6Overread into Lead-In and Lead-Out : NoFill up missing offset samples with silence : YesDelete leading and trailing silent blocks : NoNull samples used in CRC calculations : YesUsed interface : Native Win32 interface for Win NT & 2000Gap handling : Appended to previous track
Used output format : User Defined EncoderSelected bitrate : 1024 kBit/sQuality : HighAdd ID3 tag : NoCommand line compressor : C:\Program Files (x86)\Exact Audio Copy\Flac\flac.exeAdditional command line options : -8 -e -p -V -T "ARTIST=%artist%" -T "TITLE=%title%" -T "ALBUM=%albumtitle%" -T "DATE=%year%" -T "TRACKNUMBER=%tracknr%" -T "TOTALTRACKS=%numtracks%" -T "GENRE=%genre%" -T "ALBUMARTIST=%albumartist%" -T "ALBUM ARTIST=%albumartist%" -T "PERFORMER=%albuminterpret%" -T "COMPOSER=%composer%" -T "DISCNUMBER=%cdnumber%" -T "TOTALDISCS=%totalcds%" -T "COMMENT=EAC Secure Mode, Test & Copy, AccurateRip, FLAC -8" %source%
TOC of the extracted CD
Track | Start | Length | Start sector | End sector --------------------------------------------------------- 1 | 0:00.00 | 3:21.15 | 0 | 15089 2 | 3:21.15 | 3:09.37 | 15090 | 29301 3 | 6:30.52 | 2:51.68 | 29302 | 42194 4 | 9:22.45 | 3:16.37 | 42195 | 56931 5 | 12:39.07 | 2:32.03 | 56932 | 68334 6 | 15:11.10 | 3:26.40 | 68335 | 83824 7 | 18:37.50 | 2:24.00 | 83825 | 94624 8 | 21:01.50 | 3:41.45 | 94625 | 111244 9 | 24:43.20 | 3:00.47 | 111245 | 124791 10 | 27:43.67 | 3:29.50 | 124792 | 140516 11 | 31:13.42 | 3:26.65 | 140517 | 156031 12 | 34:40.32 | 2:28.53 | 156032 | 167184 13 | 37:09.10 | 3:22.32 | 167185 | 182366 14 | 40:31.42 | 2:40.25 | 182367 | 194391 15 | 43:11.67 | 3:00.53 | 194392 | 207944 16 | 46:12.45 | 2:08.50 | 207945 | 217594 17 | 48:21.20 | 2:48.42 | 217595 | 230236 18 | 51:09.62 | 3:23.48 | 230237 | 245509 19 | 54:33.35 | 2:46.50 | 245510 | 258009 20 | 57:20.10 | 2:33.07 | 258010 | 269491 21 | 59:53.17 | 2:09.13 | 269492 | 279179 22 | 62:02.30 | 4:14.70 | 279180 | 298299
Track 1
Filename E:\EAC Rips\Peggy Lee - Best 22 Songs (1986) [FLAC-CD] {JP,MCA Records,35XD-510}\01 - Mr. Wonderful.wav
Pre-gap length 0:00:02.00
Peak level 86.3 % Extraction speed 1.0 X Track quality 99.9 % Test CRC 3B0973F9 Copy CRC 3B0973F9 Cannot be verified as accurate (confidence 3) [25853895], AccurateRip returned [91AC08F1] (AR v2) Copy OK
Track 2
Filename E:\EAC Rips\Peggy Lee - Best 22 Songs (1986) [FLAC-CD] {JP,MCA Records,35XD-510}\02 - Black Coffee.wav
Pre-gap length 0:00:02.00
Peak level 67.0 % Extraction speed 1.2 X Track quality 100.0 % Test CRC F88BD4B4 Copy CRC F88BD4B4 Cannot be verified as accurate (confidence 3) [0519A950], AccurateRip returned [23AA1A97] (AR v2) Copy OK
Track 3
Filename E:\EAC Rips\Peggy Lee - Best 22 Songs (1986) [FLAC-CD] {JP,MCA Records,35XD-510}\03 - There's a Small Hotel.wav
Pre-gap length 0:00:02.12
Peak level 72.3 % Extraction speed 1.3 X Track quality 100.0 % Test CRC 14BAF969 Copy CRC 14BAF969 Cannot be verified as accurate (confidence 3) [1CD23ED3], AccurateRip returned [87B91F77] (AR v2) Copy OK
Track 4
Filename E:\EAC Rips\Peggy Lee - Best 22 Songs (1986) [FLAC-CD] {JP,MCA Records,35XD-510}\04 - You Go to My Head.wav
Pre-gap length 0:00:01.58
Peak level 79.0 % Extraction speed 1.4 X Track quality 100.0 % Test CRC 96DEC120 Copy CRC 96DEC120 Cannot be verified as accurate (confidence 3) [97FF916B], AccurateRip returned [E30B91F8] (AR v2) Copy OK
Track 5
Filename E:\EAC Rips\Peggy Lee - Best 22 Songs (1986) [FLAC-CD] {JP,MCA Records,35XD-510}\05 - I've Got You Under My Skin.wav
Pre-gap length 0:00:01.45
Peak level 74.7 % Extraction speed 1.2 X Track quality 99.9 % Test CRC 42BF6130 Copy CRC 42BF6130 Cannot be verified as accurate (confidence 3) [710D7AFA], AccurateRip returned [BC28512F] (AR v2) Copy OK
Track 6
Filename E:\EAC Rips\Peggy Lee - Best 22 Songs (1986) [FLAC-CD] {JP,MCA Records,35XD-510}\06 - You're My Thrill.wav
Pre-gap length 0:00:01.65
Peak level 51.9 % Extraction speed 1.5 X Track quality 100.0 % Test CRC 06B0219D Copy CRC 06B0219D Cannot be verified as accurate (confidence 3) [4AFFCF76], AccurateRip returned [923C1A9C] (AR v2) Copy OK
Track 7
Filename E:\EAC Rips\Peggy Lee - Best 22 Songs (1986) [FLAC-CD] {JP,MCA Records,35XD-510}\07 - It's All Right With Me.wav
Pre-gap length 0:00:02.18
Peak level 77.6 % Extraction speed 1.5 X Track quality 100.0 % Test CRC 1DF41EC4 Copy CRC 1DF41EC4 Cannot be verified as accurate (confidence 3) [CD847A3E], AccurateRip returned [65D5B2AD] (AR v2) Copy OK
Track 8
Filename E:\EAC Rips\Peggy Lee - Best 22 Songs (1986) [FLAC-CD] {JP,MCA Records,35XD-510}\08 - Bye Bye Blackbird.wav
Pre-gap length 0:00:02.08
Peak level 54.9 % Extraction speed 1.7 X Track quality 100.0 % Test CRC 664A6B35 Copy CRC 664A6B35 Cannot be verified as accurate (confidence 3) [3FF9D452], AccurateRip returned [568F2B5F] (AR v2) Copy OK
Track 9
Filename E:\EAC Rips\Peggy Lee - Best 22 Songs (1986) [FLAC-CD] {JP,MCA Records,35XD-510}\09 - Just One of Those Things.wav
Pre-gap length 0:00:02.18
Peak level 66.5 % Extraction speed 1.7 X Track quality 100.0 % Test CRC A42CC39A Copy CRC A42CC39A Cannot be verified as accurate (confidence 3) [0FC98C1B], AccurateRip returned [9018EB09] (AR v2) Copy OK
Track 10
Filename E:\EAC Rips\Peggy Lee - Best 22 Songs (1986) [FLAC-CD] {JP,MCA Records,35XD-510}\10 - Somebody Loves Me.wav
Pre-gap length 0:00:02.25
Peak level 60.7 % Extraction speed 1.8 X Track quality 100.0 % Test CRC 49EC1D4A Copy CRC 49EC1D4A Cannot be verified as accurate (confidence 3) [392A5A47], AccurateRip returned [793B22AD] (AR v2) Copy OK
Track 11
Filename E:\EAC Rips\Peggy Lee - Best 22 Songs (1986) [FLAC-CD] {JP,MCA Records,35XD-510}\11 - Apples, Peaches & Cherries.wav
Pre-gap length 0:00:02.12
Peak level 93.3 % Extraction speed 1.8 X Track quality 100.0 % Test CRC E4E09F08 Copy CRC E4E09F08 Cannot be verified as accurate (confidence 3) [A363642E], AccurateRip returned [ACA2A179] (AR v2) Copy OK
Track 12
Filename E:\EAC Rips\Peggy Lee - Best 22 Songs (1986) [FLAC-CD] {JP,MCA Records,35XD-510}\12 - The Siamese Cat Songs.wav
Pre-gap length 0:00:02.00
Peak level 63.5 % Extraction speed 1.5 X Track quality 99.9 % Test CRC 98430A92 Copy CRC 98430A92 Cannot be verified as accurate (confidence 3) [B57158BB], AccurateRip returned [3C340387] (AR v2) Copy OK
Track 13
Filename E:\EAC Rips\Peggy Lee - Best 22 Songs (1986) [FLAC-CD] {JP,MCA Records,35XD-510}\13 - Sans Souci.wav
Pre-gap length 0:00:02.18
Peak level 70.7 % Extraction speed 1.9 X Track quality 100.0 % Test CRC 27D84197 Copy CRC 27D84197 Cannot be verified as accurate (confidence 3) [6E65EA81], AccurateRip returned [76756E7B] (AR v2) Copy OK
Track 14
Filename E:\EAC Rips\Peggy Lee - Best 22 Songs (1986) [FLAC-CD] {JP,MCA Records,35XD-510}\14 - Let Me Go, Lover!.wav
Pre-gap length 0:00:02.25
Peak level 62.0 % Extraction speed 1.6 X Track quality 99.9 % Test CRC 56864732 Copy CRC 56864732 Cannot be verified as accurate (confidence 3) [2F959E9E], AccurateRip returned [6F0D417C] (AR v2) Copy OK
Track 15
Filename E:\EAC Rips\Peggy Lee - Best 22 Songs (1986) [FLAC-CD] {JP,MCA Records,35XD-510}\15 - Johnny Guitar.wav
Pre-gap length 0:00:02.02
Peak level 66.9 % Extraction speed 2.0 X Track quality 100.0 % Test CRC 4FAD4FFF Copy CRC 4FAD4FFF Cannot be verified as accurate (confidence 3) [DD8343B6], AccurateRip returned [D647A0D2] (AR v2) Copy OK
Track 16
Filename E:\EAC Rips\Peggy Lee - Best 22 Songs (1986) [FLAC-CD] {JP,MCA Records,35XD-510}\16 - Love Me or Leave Me.wav
Pre-gap length 0:00:01.70
Peak level 63.8 % Extraction speed 1.9 X Track quality 100.0 % Test CRC 61DAC80A Copy CRC 61DAC80A Cannot be verified as accurate (confidence 3) [0C29F64C], AccurateRip returned [F98A9613] (AR v2) Copy OK
Track 17
Filename E:\EAC Rips\Peggy Lee - Best 22 Songs (1986) [FLAC-CD] {JP,MCA Records,35XD-510}\17 - Love Letters.wav
Pre-gap length 0:00:02.05
Peak level 56.6 % Extraction speed 2.1 X Track quality 100.0 % Test CRC 285C734B Copy CRC 285C734B Cannot be verified as accurate (confidence 3) [7A2196C3], AccurateRip returned [E3851BAE] (AR v2) Copy OK
Track 18
Filename E:\EAC Rips\Peggy Lee - Best 22 Songs (1986) [FLAC-CD] {JP,MCA Records,35XD-510}\18 - Lover.wav
Pre-gap length 0:00:02.17
Peak level 72.7 % Extraction speed 2.2 X Track quality 100.0 % Test CRC D4CBEE23 Copy CRC D4CBEE23 Cannot be verified as accurate (confidence 3) [F8BD0C83], AccurateRip returned [9FA655F9] (AR v2) Copy OK
Track 19
Filename E:\EAC Rips\Peggy Lee - Best 22 Songs (1986) [FLAC-CD] {JP,MCA Records,35XD-510}\19 - Easy Living.wav
Pre-gap length 0:00:02.25
Peak level 58.5 % Extraction speed 1.8 X Track quality 99.9 % Test CRC 9EE89126 Copy CRC 9EE89126 Cannot be verified as accurate (confidence 3) [CEEABBCB], AccurateRip returned [2A9DFD50] (AR v2) Copy OK
Track 20
Filename E:\EAC Rips\Peggy Lee - Best 22 Songs (1986) [FLAC-CD] {JP,MCA Records,35XD-510}\20 - Swing Low Sweet Chariot.wav
Pre-gap length 0:00:02.10
Peak level 77.6 % Extraction speed 2.1 X Track quality 100.0 % Test CRC ADE33314 Copy CRC ADE33314 Cannot be verified as accurate (confidence 3) [BB889D14], AccurateRip returned [6D418EBE] (AR v2) Copy OK
Track 21
Filename E:\EAC Rips\Peggy Lee - Best 22 Songs (1986) [FLAC-CD] {JP,MCA Records,35XD-510}\21 - My Heart Belongs to Daddy.wav
Pre-gap length 0:00:01.70
Peak level 71.8 % Extraction speed 2.1 X Track quality 100.0 % Test CRC 098AB6F7 Copy CRC 098AB6F7 Cannot be verified as accurate (confidence 3) [D4DD73A1], AccurateRip returned [79957035] (AR v2) Copy OK
Track 22
Filename E:\EAC Rips\Peggy Lee - Best 22 Songs (1986) [FLAC-CD] {JP,MCA Records,35XD-510}\22 - La La Lu.wav
Pre-gap length 0:00:02.00
Peak level 52.2 % Extraction speed 2.4 X Track quality 100.0 % Test CRC 4532EB9E Copy CRC 4532EB9E Cannot be verified as accurate (confidence 3) [34E30BD3], AccurateRip returned [AC4D6285] (AR v2) Copy OK
No tracks could be verified as accurateYou may have a different pressing from the one(s) in the database
No errors occurred
End of status report
---- CUETools DB Plugin V2.1.6
[CTDB TOCID: .9G0vSvnOWvmU5Su7UX9TTaAR5U-] foundSubmit result: .9G0vSvnOWvmU5Su7UX9TTaAR5U- has been confirmedTrack | CTDB Status 1 | (2/2) Accurately ripped 2 | (2/2) Accurately ripped 3 | (2/2) Accurately ripped 4 | (2/2) Accurately ripped 5 | (2/2) Accurately ripped 6 | (2/2) Accurately ripped 7 | (2/2) Accurately ripped 8 | (2/2) Accurately ripped 9 | (2/2) Accurately ripped 10 | (2/2) Accurately ripped 11 | (2/2) Accurately ripped 12 | (2/2) Accurately ripped 13 | (2/2) Accurately ripped 14 | (2/2) Accurately ripped 15 | (2/2) Accurately ripped 16 | (2/2) Accurately ripped 17 | (2/2) Accurately ripped 18 | (2/2) Accurately ripped 19 | (2/2) Accurately ripped 20 | (2/2) Accurately ripped 21 | (2/2) Accurately ripped 22 | (2/2) Accurately ripped
==== Log checksum B4C20AD4B3915E9A4C792E4069B2730FE29618174B2169081C8F877CD1E800A1 ====

Содержание индексной карты (.CUE)

REM GENRE JazzREM DATE 1986REM DISCID 350F8916REM COMMENT "ExactAudioCopy v1.3"PERFORMER "Peggy Lee"TITLE "Best 22 Songs"FILE "01 - Mr. Wonderful.wav" WAVE TRACK 01 AUDIO TITLE "Mr. Wonderful" PERFORMER "Peggy Lee" INDEX 01 00:00:00 TRACK 02 AUDIO TITLE "Black Coffee" PERFORMER "Peggy Lee" INDEX 00 03:19:15FILE "02 - Black Coffee.wav" WAVE INDEX 01 00:00:00 TRACK 03 AUDIO TITLE "There's a Small Hotel" PERFORMER "Peggy Lee" INDEX 00 03:07:25FILE "03 - There's a Small Hotel.wav" WAVE INDEX 01 00:00:00 TRACK 04 AUDIO TITLE "You Go to My Head" PERFORMER "Peggy Lee" INDEX 00 02:50:10FILE "04 - You Go to My Head.wav" WAVE INDEX 01 00:00:00 TRACK 05 AUDIO TITLE "I've Got You Under My Skin" PERFORMER "Peggy Lee" INDEX 00 03:14:67FILE "05 - I've Got You Under My Skin.wav" WAVE INDEX 01 00:00:00 TRACK 06 AUDIO TITLE "You're My Thrill" PERFORMER "Peggy Lee" INDEX 00 02:30:13FILE "06 - You're My Thrill.wav" WAVE INDEX 01 00:00:00 TRACK 07 AUDIO TITLE "It's All Right with Me" PERFORMER "Peggy Lee" INDEX 00 03:24:22FILE "07 - It's All Right with Me.wav" WAVE INDEX 01 00:00:00 TRACK 08 AUDIO TITLE "Bye Bye Blackbird" PERFORMER "Peggy Lee" INDEX 00 02:21:67FILE "08 - Bye Bye Blackbird.wav" WAVE INDEX 01 00:00:00 TRACK 09 AUDIO TITLE "Just One of Those Things" PERFORMER "Peggy Lee" INDEX 00 03:39:27FILE "09 - Just One of Those Things.wav" WAVE INDEX 01 00:00:00 TRACK 10 AUDIO TITLE "Somebody Loves Me" PERFORMER "Peggy Lee" INDEX 00 02:58:22FILE "10 - Somebody Loves Me.wav" WAVE INDEX 01 00:00:00 TRACK 11 AUDIO TITLE "Apples, Peaches & Cherries" PERFORMER "Peggy Lee" INDEX 00 03:27:38FILE "11 - Apples, Peaches & Cherries.wav" WAVE INDEX 01 00:00:00 TRACK 12 AUDIO TITLE "The Siamese Cat Songs" PERFORMER "Peggy Lee" INDEX 00 03:24:65FILE "12 - The Siamese Cat Songs.wav" WAVE INDEX 01 00:00:00 TRACK 13 AUDIO TITLE "Sans Souci" PERFORMER "Peggy Lee" INDEX 00 02:26:35FILE "13 - Sans Souci.wav" WAVE INDEX 01 00:00:00 TRACK 14 AUDIO TITLE "Let Me Go, Lover!" PERFORMER "Peggy Lee" INDEX 00 03:20:07FILE "14 - Let Me Go, Lover!.wav" WAVE INDEX 01 00:00:00 TRACK 15 AUDIO TITLE "Johnny Guitar" PERFORMER "Peggy Lee" INDEX 00 02:38:23FILE "15 - Johnny Guitar.wav" WAVE INDEX 01 00:00:00 TRACK 16 AUDIO TITLE "Love Me or Leave Me" PERFORMER "Peggy Lee" INDEX 00 02:58:58FILE "16 - Love Me or Leave Me.wav" WAVE INDEX 01 00:00:00 TRACK 17 AUDIO TITLE "Love Letters" PERFORMER "Peggy Lee" INDEX 00 02:06:45FILE "17 - Love Letters.wav" WAVE INDEX 01 00:00:00 TRACK 18 AUDIO TITLE "Lover" PERFORMER "Peggy Lee" INDEX 00 02:46:25FILE "18 - Lover.wav" WAVE INDEX 01 00:00:00 TRACK 19 AUDIO TITLE "Easy Living" PERFORMER "Peggy Lee" INDEX 00 03:21:23FILE "19 - Easy Living.wav" WAVE INDEX 01 00:00:00 TRACK 20 AUDIO TITLE "Swing Low Sweet Chariot" PERFORMER "Peggy Lee" INDEX 00 02:44:40FILE "20 - Swing Low Sweet Chariot.wav" WAVE INDEX 01 00:00:00 TRACK 21 AUDIO TITLE "My Heart Belongs to Daddy" PERFORMER "Peggy Lee" INDEX 00 02:31:12FILE "21 - My Heart Belongs to Daddy.wav" WAVE INDEX 01 00:00:00 TRACK 22 AUDIO TITLE "La La Lu" PERFORMER "Peggy Lee" INDEX 00 02:07:13FILE "22 - La La Lu.wav" WAVE INDEX 01 00:00:00

Отчет CUETools

[CUETools log; Date: 10.12.2018 3:37:59; Version: 2.1.6][CTDB TOCID: .9G0vSvnOWvmU5Su7UX9TTaAR5U-] found.Track | CTDB Status 1 | (3/3) Accurately ripped 2 | (3/3) Accurately ripped 3 | (3/3) Accurately ripped 4 | (3/3) Accurately ripped 5 | (3/3) Accurately ripped 6 | (3/3) Accurately ripped 7 | (3/3) Accurately ripped 8 | (3/3) Accurately ripped 9 | (3/3) Accurately ripped 10 | (3/3) Accurately ripped 11 | (3/3) Accurately ripped 12 | (3/3) Accurately ripped 13 | (3/3) Accurately ripped 14 | (3/3) Accurately ripped 15 | (3/3) Accurately ripped 16 | (3/3) Accurately ripped 17 | (3/3) Accurately ripped 18 | (3/3) Accurately ripped 19 | (3/3) Accurately ripped 20 | (3/3) Accurately ripped 21 | (3/3) Accurately ripped 22 | (3/3) Accurately ripped[AccurateRip ID: 0034fecf-034bb262-350f8916] found.Track [ CRC | V2 ] Status 01 [f93e965d|25853895] (0+0/3) No match 02 [55069fe1|0519a950] (0+0/3) No match 03 [f0bb4249|1cd23ed3] (0+0/3) No match 04 [d9c3acd9|97ff916b] (0+0/3) No match 05 [58fdf5f7|710d7afa] (0+0/3) No match 06 [fcdf8906|4affcf76] (0+0/3) No match 07 [d1453da6|cd847a3e] (0+0/3) No match 08 [66cd1672|3ff9d452] (0+0/3) No match 09 [2771c478|0fc98c1b] (0+0/3) No match 10 [33d21fbc|392a5a47] (0+0/3) No match 11 [ad26afaf|a363642e] (0+0/3) No match 12 [1ef33c04|b57158bb] (0+0/3) No match 13 [27e37523|6e65ea81] (0+0/3) No match 14 [9b85cc62|2f959e9e] (0+0/3) No match 15 [e0f40779|dd8343b6] (0+0/3) No match 16 [cec06fbe|0c29f64c] (0+0/3) No match 17 [823de020|7a2196c3] (0+0/3) No match 18 [b945e3ff|f8bd0c83] (0+0/3) No match 19 [e3b99f92|ceeabbcb] (0+0/3) No match 20 [28916146|bb889d14] (0+0/3) No match 21 [d051d6f5|d4dd73a1] (0+0/3) No match 22 [50a71e37|34e30bd3] (0+0/3) No matchOffsetted by -205: 01 [2bcebe00] (0/3) No match (V2 was not tested) 02 [3e524e37] (0/3) No match (V2 was not tested) 03 [2ac02503] (0/3) No match (V2 was not tested) 04 [ea1b3b6e] (0/3) No match (V2 was not tested) 05 [793568a4] (0/3) No match (V2 was not tested) 06 [06d12e6b] (0/3) No match (V2 was not tested) 07 [40b9269f] (0/3) No match (V2 was not tested) 08 [3e349131] (0/3) No match (V2 was not tested) 09 [76d74f39] (0/3) No match (V2 was not tested) 10 [35ddba3c] (0/3) No match (V2 was not tested) 11 [7a42f98b] (0/3) No match (V2 was not tested) 12 [7a885823] (0/3) No match (V2 was not tested) 13 [f5fe24b0] (0/3) No match (V2 was not tested) 14 [ad0ca4c1] (0/3) No match (V2 was not tested) 15 [a6408bb7] (0/3) No match (V2 was not tested) 16 [987cab03] (0/3) No match (V2 was not tested) 17 [bb1f47cf] (0/3) No match (V2 was not tested) 18 [27a21764] (0/3) No match (V2 was not tested) 19 [0fe49f49] (0/3) No match (V2 was not tested) 20 [acbd4480] (0/3) No match (V2 was not tested) 21 [514d9655] (0/3) No match (V2 was not tested) 22 [7c8fc271] (0/3) No match (V2 was not tested)
Track Peak [ CRC32 ] [W/O NULL] [ LOG ] -- 93,3 [137E4AD4] [660375EC] 01 86,3 [3B0973F9] [2F76FC83] CRC32 02 67,0 [F88BD4B4] [ECEBF186] CRC32 03 72,3 [14BAF969] [AB6615D5] CRC32 04 79,0 [96DEC120] [834D8F6D] CRC32 05 74,7 [42BF6130] [DB30DB4E] CRC32 06 51,9 [06B0219D] [AF263BA1] CRC32 07 77,6 [1DF41EC4] [57310A48] CRC32 08 54,9 [664A6B35] [F958E54F] CRC32 09 66,5 [A42CC39A] [D3B76335] CRC32 10 60,7 [49EC1D4A] [6EA2EEE3] CRC32 11 93,3 [E4E09F08] [271DB270] CRC32 12 63,5 [98430A92] [5D17C3FE] CRC32 13 70,7 [27D84197] [64D6A1DF] CRC32 14 62,0 [56864732] [3209271F] CRC32 15 66,9 [4FAD4FFF] [FC89F390] CRC32 16 63,8 [61DAC80A] [06DFD289] CRC32 17 56,6 [285C734B] [7330DC5C] CRC32 18 72,7 [D4CBEE23] [DE3BD819] CRC32 19 58,5 [9EE89126] [A1DE7902] CRC32 20 77,6 [ADE33314] [4EDF26CE] CRC32 21 71,8 [098AB6F7] [AA55C31A] CRC32 22 52,2 [4532EB9E] [76FDED6F] CRC32


[islamvillage.com]_t_5657377.torrent
Торрент: Зарегистрирован ·  [ 2018-12-13 16:36 ] ·  8d07fff9e367c08c245960eb8aaa11c7b42fb794

14 KB

Статус: проверено
Скачан: 0 раз
Размер: 280 MB
Оценка: 
(Голосов: 0)
Сказали спасибо: 0  Спасибо
Похожие темы
[Профиль]    [ЛС]
Показать сообщения:    
Ответить на тему

Текущее время: Сегодня 15:03

Часовой пояс: GMT + 7



Вы не можете начинать темы
Вы не можете отвечать на сообщения
Вы не можете редактировать свои сообщения
Вы не можете удалять свои сообщения
Вы не можете голосовать в опросах
Вы не можете прикреплять файлы к сообщениям
Вы можете скачивать файлы


Akcji / Strzelaniny | ZAYN - Let Me | Грей Дэймон