(Vocal Jazz) [CD] Helen Carr - The Complete Bethlehem Collection (1955) - 1993, FLAC (tracks+.cue), lossless

Ответить на тему
Статистика раздачи [Обновить пиров]
Размер:  236 MB   |    Зарегистрирован:  1 месяц 4 дня   |    Скачан:  0 раз

Полного источника не было: Никогда

 
   
 
 
 
Автор Сообщение

islamvillage.com

Создавать темы 13-Дек-2018 16:37

[Цитировать]

Helen Carr - The Complete Bethlehem Collection
[img=right]http://i108.fastpic.ru/big/2018/1210/fa/652d484109...b5e7fa.jpg[/img]
Жанр: Vocal Jazz
Носитель: CD
Страна-производитель диска (релиза): США
Год издания: 1993
Издатель (лейбл): Bethlehem Music Company Inc.
Номер по каталогу: 20-4002-2
Аудиокодек: FLAC (*.flac)
Тип рипа: tracks+.cue
Битрейт аудио: lossless
Продолжительность: 57:29
Источник (релизер): redacted
Наличие сканов в содержимом раздачи: да
Треклист:
01. Not Mine (Mercer-Schertzinger) - 3:02
02. I Don't Want to Cry Anymore (Schertzinger) - 5:16
03. Tulip or Turnip (George-Ellington) - 2:25
04. Memory of the Rain (Carr-Trenner) - 2:49
05. Down in the Depths of the 90th Floor (Porter) - 3:12
06. You're Driving Me Crazy (Donaldson) - 2:57
07. I'm Glad There Is You (Madeira-Dorsey) - 3:03
08. Moments Like This (Loesser-Lane) - 2:26
09. Then You've Never Been Blue (Lewis-Young-Fiorito) - 2:23
10. Summer Night (Dubin-Warren) - 2:03
11. Got a Date with an Angel (Tunbridge-Waller-Grey-Miller) - 3:44
12. Why Do I Love You (Kern-Hammerstein) - 2:41
13. Do I Worry (Cowan-Worth) - 2:30
14. I've Got a Feelin' You're Foolin' (Freed-Brown) - 2:05
15. Be Careful, It's My Heart (Berlin) - 1:58
16. My Kind of Trouble Is You (Carter) - 3:59
17. Lonely Street (Villepegue-Carr) - 2:23
18. Symphony (Alstone-Lawrence) - 2:26
19. You're Getting to Be a Habit with Me (Dubin-Warren) - 3:38
20. Bye Bye Baby (Robin-Styne) - 2:29

Лог создания рипа

Exact Audio Copy V1.3 from 2. September 2016
EAC extraction logfile from 6. September 2018, 15:21
Helen Carr / The Complete Bethlehem Collection
Used drive : ATAPI iHAS122 F Adapter: 1 ID: 2
Read mode : SecureUtilize accurate stream : YesDefeat audio cache : YesMake use of C2 pointers : No
Read offset correction : 6Overread into Lead-In and Lead-Out : NoFill up missing offset samples with silence : YesDelete leading and trailing silent blocks : NoNull samples used in CRC calculations : YesUsed interface : Native Win32 interface for Win NT & 2000Gap handling : Appended to previous track
Used output format : User Defined EncoderSelected bitrate : 1024 kBit/sQuality : HighAdd ID3 tag : NoCommand line compressor : C:\Program Files (x86)\Exact Audio Copy_v1.3\Flac\flac.exeAdditional command line options : -8 -V -T "ARTIST=%artist%" -T "TITLE=%title%" -T "ALBUM=%albumtitle%" -T "DATE=%year%" -T "TRACKNUMBER=%tracknr%" -T "TOTALTRACKS=%numtracks%" -T "GENRE=%genre%" -T "ALBUMARTIST=%albumartist%" -T "ALBUM ARTIST=%albumartist%" -T "COMMENT=EAC Secure Mode, Test & Copy, AccurateRip, FLAC -8" %source%
TOC of the extracted CD
Track | Start | Length | Start sector | End sector --------------------------------------------------------- 1 | 0:00.00 | 3:02.00 | 0 | 13649 2 | 3:02.00 | 5:16.25 | 13650 | 37374 3 | 8:18.25 | 2:24.52 | 37375 | 48226 4 | 10:43.02 | 2:48.50 | 48227 | 60876 5 | 13:31.52 | 3:11.68 | 60877 | 75269 6 | 16:43.45 | 2:57.30 | 75270 | 88574 7 | 19:41.00 | 3:02.65 | 88575 | 102289 8 | 22:43.65 | 2:25.47 | 102290 | 113211 9 | 25:09.37 | 2:23.25 | 113212 | 123961 10 | 27:32.62 | 2:02.70 | 123962 | 133181 11 | 29:35.57 | 3:44.30 | 133182 | 150011 12 | 33:20.12 | 2:40.65 | 150012 | 162076 13 | 36:01.02 | 2:30.03 | 162077 | 173329 14 | 38:31.05 | 2:04.42 | 173330 | 182671 15 | 40:35.47 | 1:58.13 | 182672 | 191534 16 | 42:33.60 | 3:58.45 | 191535 | 209429 17 | 46:32.30 | 2:23.32 | 209430 | 220186 18 | 48:55.62 | 2:25.73 | 220187 | 231134 19 | 51:21.60 | 3:38.12 | 231135 | 247496 20 | 54:59.72 | 2:28.63 | 247497 | 258659
Track 1
Filename D:\_EAC\Helen Carr - The Complete Bethlehem Collection (1993) [FLAC]\01 - Not Mine.wav
Pre-gap length 0:00:02.00
Peak level 94.6 % Extraction speed 4.3 X Track quality 100.0 % Test CRC 56C21022 Copy CRC 56C21022 Accurately ripped (confidence 1) [D5A8D5D0] (AR v1) Copy OK
Track 2
Filename D:\_EAC\Helen Carr - The Complete Bethlehem Collection (1993) [FLAC]\02 - I Don't Want To Cry Anymore.wav
Peak level 94.6 % Extraction speed 5.3 X Track quality 100.0 % Test CRC 8E8C619A Copy CRC 8E8C619A Accurately ripped (confidence 1) [2495733E] (AR v1) Copy OK
Track 3
Filename D:\_EAC\Helen Carr - The Complete Bethlehem Collection (1993) [FLAC]\03 - Tulip Or Turnip.wav
Peak level 94.6 % Extraction speed 5.1 X Track quality 100.0 % Test CRC 0111B089 Copy CRC 0111B089 Accurately ripped (confidence 1) [B2B8D61C] (AR v1) Copy OK
Track 4
Filename D:\_EAC\Helen Carr - The Complete Bethlehem Collection (1993) [FLAC]\04 - Memory Of The Rain.wav
Peak level 78.9 % Extraction speed 4.3 X Track quality 99.9 % Test CRC B8B2BE9B Copy CRC B8B2BE9B Accurately ripped (confidence 1) [02F8912E] (AR v1) Copy OK
Track 5
Filename D:\_EAC\Helen Carr - The Complete Bethlehem Collection (1993) [FLAC]\05 - Down In The Depths Of The 90th Floor.wav
Peak level 94.6 % Extraction speed 4.8 X Track quality 99.9 % Test CRC BEAC441E Copy CRC BEAC441E Accurately ripped (confidence 1) [71B87457] (AR v1) Copy OK
Track 6
Filename D:\_EAC\Helen Carr - The Complete Bethlehem Collection (1993) [FLAC]\06 - You're Driving Me Crazy.wav
Peak level 94.5 % Extraction speed 6.0 X Track quality 100.0 % Test CRC 35D4B479 Copy CRC 35D4B479 Accurately ripped (confidence 1) [B009997E] (AR v1) Copy OK
Track 7
Filename D:\_EAC\Helen Carr - The Complete Bethlehem Collection (1993) [FLAC]\07 - I'm Glad There Is You.wav
Pre-gap length 0:00:00.01
Peak level 83.7 % Extraction speed 6.2 X Track quality 100.0 % Test CRC 94FDDA0B Copy CRC 94FDDA0B Accurately ripped (confidence 1) [5D7DB66B] (AR v1) Copy OK
Track 8
Filename D:\_EAC\Helen Carr - The Complete Bethlehem Collection (1993) [FLAC]\08 - Moments Like This.wav
Peak level 91.4 % Extraction speed 6.2 X Track quality 100.0 % Test CRC 859A5BF9 Copy CRC 859A5BF9 Accurately ripped (confidence 1) [8319F16D] (AR v1) Copy OK
Track 9
Filename D:\_EAC\Helen Carr - The Complete Bethlehem Collection (1993) [FLAC]\09 - Then You've Never Been Blue.wav
Peak level 78.6 % Extraction speed 6.3 X Track quality 100.0 % Test CRC 6A2675F4 Copy CRC 6A2675F4 Accurately ripped (confidence 1) [1AF70C6B] (AR v1) Copy OK
Track 10
Filename D:\_EAC\Helen Carr - The Complete Bethlehem Collection (1993) [FLAC]\10 - Summer Night.wav
Peak level 84.7 % Extraction speed 6.3 X Track quality 100.0 % Test CRC E2787A6B Copy CRC E2787A6B Accurately ripped (confidence 1) [4DBBF84A] (AR v1) Copy OK
Track 11
Filename D:\_EAC\Helen Carr - The Complete Bethlehem Collection (1993) [FLAC]\11 - Got A Date With An Angel.wav
Peak level 94.6 % Extraction speed 6.0 X Track quality 99.9 % Test CRC B76B1BB7 Copy CRC B76B1BB7 Accurately ripped (confidence 1) [590FC0CE] (AR v1) Copy OK
Track 12
Filename D:\_EAC\Helen Carr - The Complete Bethlehem Collection (1993) [FLAC]\12 - Why Do I Love You.wav
Peak level 94.6 % Extraction speed 7.0 X Track quality 100.0 % Test CRC F9EE86CF Copy CRC F9EE86CF Accurately ripped (confidence 1) [E7E50F9F] (AR v1) Copy OK
Track 13
Filename D:\_EAC\Helen Carr - The Complete Bethlehem Collection (1993) [FLAC]\13 - Do I Worry.wav
Peak level 83.3 % Extraction speed 5.5 X Track quality 99.9 % Test CRC 58CD568E Copy CRC 58CD568E Accurately ripped (confidence 1) [BBDBFF67] (AR v1) Copy OK
Track 14
Filename D:\_EAC\Helen Carr - The Complete Bethlehem Collection (1993) [FLAC]\14 - I've Got A Feelin' You're Foolin'.wav
Peak level 94.6 % Extraction speed 7.0 X Track quality 100.0 % Test CRC 1BCA7965 Copy CRC 1BCA7965 Accurately ripped (confidence 1) [9912D141] (AR v1) Copy OK
Track 15
Filename D:\_EAC\Helen Carr - The Complete Bethlehem Collection (1993) [FLAC]\15 - Be Careful, It's My Heart.wav
Peak level 94.6 % Extraction speed 5.2 X Track quality 99.9 % Test CRC C202BEB3 Copy CRC C202BEB3 Accurately ripped (confidence 1) [F908DA1C] (AR v1) Copy OK
Track 16
Filename D:\_EAC\Helen Carr - The Complete Bethlehem Collection (1993) [FLAC]\16 - My Kind Of Trouble Is You.wav
Peak level 94.6 % Extraction speed 8.2 X Track quality 100.0 % Test CRC FD6F4286 Copy CRC FD6F4286 Accurately ripped (confidence 1) [B0911DA5] (AR v1) Copy OK
Track 17
Filename D:\_EAC\Helen Carr - The Complete Bethlehem Collection (1993) [FLAC]\17 - Lonely Street.wav
Peak level 77.4 % Extraction speed 5.8 X Track quality 99.9 % Test CRC 62EC52AF Copy CRC 62EC52AF Accurately ripped (confidence 1) [1884133A] (AR v1) Copy OK
Track 18
Filename D:\_EAC\Helen Carr - The Complete Bethlehem Collection (1993) [FLAC]\18 - Symphony.wav
Peak level 94.5 % Extraction speed 7.8 X Track quality 100.0 % Test CRC 2FA404B9 Copy CRC 2FA404B9 Accurately ripped (confidence 1) [8BA058B9] (AR v1) Copy OK
Track 19
Filename D:\_EAC\Helen Carr - The Complete Bethlehem Collection (1993) [FLAC]\19 - You're Getting To Be A Habit With Me.wav
Peak level 94.6 % Extraction speed 8.5 X Track quality 100.0 % Test CRC FADE3CE0 Copy CRC FADE3CE0 Accurately ripped (confidence 1) [D5DD5F28] (AR v1) Copy OK
Track 20
Filename D:\_EAC\Helen Carr - The Complete Bethlehem Collection (1993) [FLAC]\20 - Bye Bye Baby.wav
Peak level 94.6 % Extraction speed 8.1 X Track quality 100.0 % Test CRC 44D49EC6 Copy CRC 44D49EC6 Accurately ripped (confidence 1) [24789152] (AR v1) Copy OK
All tracks accurately ripped
No errors occurred
End of status report
---- CUETools DB Plugin V2.1.6
[CTDB TOCID: Tbei8FuI3uq5OHRA1yQ9qWsXUso-] foundSubmit result: Tbei8FuI3uq5OHRA1yQ9qWsXUso- has been confirmedTrack | CTDB Status 1 | (4/4) Accurately ripped 2 | (4/4) Accurately ripped 3 | (4/4) Accurately ripped 4 | (4/4) Accurately ripped 5 | (4/4) Accurately ripped 6 | (4/4) Accurately ripped 7 | (4/4) Accurately ripped 8 | (4/4) Accurately ripped 9 | (4/4) Accurately ripped 10 | (4/4) Accurately ripped 11 | (4/4) Accurately ripped 12 | (4/4) Accurately ripped 13 | (4/4) Accurately ripped 14 | (4/4) Accurately ripped 15 | (4/4) Accurately ripped 16 | (4/4) Accurately ripped 17 | (4/4) Accurately ripped 18 | (4/4) Accurately ripped 19 | (4/4) Accurately ripped 20 | (4/4) Accurately ripped
==== Log checksum 74B212116D4FE5D99E5673FFA634FCDEFAD4CC6794A9443A01FF1EBDB2117CE3 ====

Содержание индексной карты (.CUE)

REM GENRE JazzREM DATE 1993REM DISCID F90D7814REM COMMENT "ExactAudioCopy v1.3"PERFORMER "Helen Carr"TITLE "The Complete Bethlehem Collection"FILE "01 - Not Mine.wav" WAVE TRACK 01 AUDIO TITLE "Not Mine" PERFORMER "Helen Carr" INDEX 01 00:00:00FILE "02 - I Don't Want to Cry Anymore.wav" WAVE TRACK 02 AUDIO TITLE "I Don't Want to Cry Anymore" PERFORMER "Helen Carr" INDEX 01 00:00:00FILE "03 - Tulip or Turnip.wav" WAVE TRACK 03 AUDIO TITLE "Tulip or Turnip" PERFORMER "Helen Carr" INDEX 01 00:00:00FILE "04 - Memory of the Rain.wav" WAVE TRACK 04 AUDIO TITLE "Memory of the Rain" PERFORMER "Helen Carr" INDEX 01 00:00:00FILE "05 - Down in the Depths of the 90th Floor.wav" WAVE TRACK 05 AUDIO TITLE "Down in the Depths of the 90th Floor" PERFORMER "Helen Carr" INDEX 01 00:00:00FILE "06 - You're Driving Me Crazy.wav" WAVE TRACK 06 AUDIO TITLE "You're Driving Me Crazy" PERFORMER "Helen Carr" INDEX 01 00:00:00 TRACK 07 AUDIO TITLE "I'm Glad There Is You" PERFORMER "Helen Carr" INDEX 00 02:57:29FILE "07 - I'm Glad There Is You.wav" WAVE INDEX 01 00:00:00FILE "08 - Moments Like This.wav" WAVE TRACK 08 AUDIO TITLE "Moments Like This" PERFORMER "Helen Carr" INDEX 01 00:00:00FILE "09 - Then You've Never Been Blue.wav" WAVE TRACK 09 AUDIO TITLE "Then You've Never Been Blue" PERFORMER "Helen Carr" INDEX 01 00:00:00FILE "10 - Summer Night.wav" WAVE TRACK 10 AUDIO TITLE "Summer Night" PERFORMER "Helen Carr" INDEX 01 00:00:00FILE "11 - Got a Date with an Angel.wav" WAVE TRACK 11 AUDIO TITLE "Got a Date with an Angel" PERFORMER "Helen Carr" INDEX 01 00:00:00FILE "12 - Why Do I Love You.wav" WAVE TRACK 12 AUDIO TITLE "Why Do I Love You" PERFORMER "Helen Carr" INDEX 01 00:00:00FILE "13 - Do I Worry.wav" WAVE TRACK 13 AUDIO TITLE "Do I Worry" PERFORMER "Helen Carr" INDEX 01 00:00:00FILE "14 - I've Got a Feelin' You're Foolin'.wav" WAVE TRACK 14 AUDIO TITLE "I've Got a Feelin' You're Foolin'" PERFORMER "Helen Carr" INDEX 01 00:00:00FILE "15 - Be Careful, It's My Heart.wav" WAVE TRACK 15 AUDIO TITLE "Be Careful, It's My Heart" PERFORMER "Helen Carr" INDEX 01 00:00:00FILE "16 - My Kind of Trouble Is You.wav" WAVE TRACK 16 AUDIO TITLE "My Kind of Trouble Is You" PERFORMER "Helen Carr" INDEX 01 00:00:00FILE "17 - Lonely Street.wav" WAVE TRACK 17 AUDIO TITLE "Lonely Street" PERFORMER "Helen Carr" INDEX 01 00:00:00FILE "18 - Symphony.wav" WAVE TRACK 18 AUDIO TITLE "Symphony" PERFORMER "Helen Carr" INDEX 01 00:00:00FILE "19 - You're Getting to Be a Habit with Me.wav" WAVE TRACK 19 AUDIO TITLE "You're Getting to Be a Habit with Me" PERFORMER "Helen Carr" INDEX 01 00:00:00FILE "20 - Bye Bye Baby.wav" WAVE TRACK 20 AUDIO TITLE "Bye Bye Baby" PERFORMER "Helen Carr" INDEX 01 00:00:00

Отчет CUETools

[CUETools log; Date: 10.12.2018 3:15:58; Version: 2.1.6][CTDB TOCID: Tbei8FuI3uq5OHRA1yQ9qWsXUso-] found.Track | CTDB Status 1 | (5/5) Accurately ripped 2 | (5/5) Accurately ripped 3 | (5/5) Accurately ripped 4 | (5/5) Accurately ripped 5 | (5/5) Accurately ripped 6 | (5/5) Accurately ripped 7 | (5/5) Accurately ripped 8 | (5/5) Accurately ripped 9 | (5/5) Accurately ripped 10 | (5/5) Accurately ripped 11 | (5/5) Accurately ripped 12 | (5/5) Accurately ripped 13 | (5/5) Accurately ripped 14 | (5/5) Accurately ripped 15 | (5/5) Accurately ripped 16 | (5/5) Accurately ripped 17 | (5/5) Accurately ripped 18 | (5/5) Accurately ripped 19 | (5/5) Accurately ripped 20 | (5/5) Accurately ripped[AccurateRip ID: 002b13f3-026cd05c-f90d7814] found.Track [ CRC | V2 ] Status 01 [d5a8d5d0|f3e110cf] (1+1/3) Accurately ripped 02 [2495733e|4cfbd740] (1+1/3) Accurately ripped 03 [b2b8d61c|19d9af8f] (1+1/3) Accurately ripped 04 [02f8912e|d25d8224] (1+1/3) Accurately ripped 05 [71b87457|68afec54] (1+1/3) Accurately ripped 06 [b009997e|52ebfbf6] (1+1/3) Accurately ripped 07 [5d7db66b|b71ceb7a] (1+1/3) Accurately ripped 08 [8319f16d|83897978] (1+1/3) Accurately ripped 09 [1af70c6b|fc9e108d] (1+1/3) Accurately ripped 10 [4dbbf84a|8a107a02] (1+1/3) Accurately ripped 11 [590fc0ce|280015f6] (1+1/3) Accurately ripped 12 [e7e50f9f|bfc762f6] (1+1/3) Accurately ripped 13 [bbdbff67|be19f80f] (1+1/3) Accurately ripped 14 [9912d141|c8cc3a15] (1+1/3) Accurately ripped 15 [f908da1c|edea3f93] (1+1/3) Accurately ripped 16 [b0911da5|5eabbe2b] (1+1/3) Accurately ripped 17 [1884133a|cc6beb62] (1+1/3) Accurately ripped 18 [8ba058b9|d72ce252] (1+1/3) Accurately ripped 19 [d5dd5f28|9091e999] (1+1/3) Accurately ripped 20 [24789152|e394fb5d] (1+1/3) Accurately ripped
Track Peak [ CRC32 ] [W/O NULL] [ LOG ] -- 94,6 [494195DE] [5F45C5D3] 01 94,6 [56C21022] [F96A42F9] CRC32 02 94,6 [8E8C619A] [6AE0A414] CRC32 03 94,6 [0111B089] [1FAC8D0C] CRC32 04 78,9 [B8B2BE9B] [2A2D8A00] CRC32 05 94,6 [BEAC441E] [D673A040] CRC32 06 94,5 [35D4B479] [A9CDFC0A] CRC32 07 83,7 [94FDDA0B] [7300F62C] CRC32 08 91,4 [859A5BF9] [447F962F] CRC32 09 78,6 [6A2675F4] [66644A41] CRC32 10 84,7 [E2787A6B] [9318008F] CRC32 11 94,6 [B76B1BB7] [749BF9C0] CRC32 12 94,6 [F9EE86CF] [B08C2175] CRC32 13 83,3 [58CD568E] [5427F81A] CRC32 14 94,6 [1BCA7965] [BADA9637] CRC32 15 94,6 [C202BEB3] [BCE754A0] CRC32 16 94,6 [FD6F4286] [1B25EF9A] CRC32 17 77,4 [62EC52AF] [4F534364] CRC32 18 94,5 [2FA404B9] [A5C7403F] CRC32 19 94,6 [FADE3CE0] [AEA438EB] CRC32 20 94,6 [44D49EC6] [506A5C9C] CRC32

AllMusic Review by Scott Yanow

With the exception of one song cut with Charles Mingus in 1946 and two with King Curtis later in the 1950s, this single CD (which consists of Helen Carr's two Bethlehem albums) has the complete output of the talented but short-lived singer who died in 1960 at age 36. Carr's interpretations fall between jazz and middle-of-the-road pop, yet her treatments of the standards consistently swing and uplift the material. On one occasion she is joined by a quintet with husband/pianist Donn Trenner, trumpeter Don Fagerquist and altoist Charlie Mariano, while the other session finds Carr interacting quite winningly with a trio consisting of guitarist Howard Roberts, bassist Red Mitchell and the muted (but fiery) trumpet of Cappy Lewis. Recommended.

Состав

#1-8: Down in the Depths on the 90th Floor (Bethlehem BCP 1027)
Helen Carr - vocals
Don Fagerquist - trumpet
Charlie Mariano - alto saxophone
Donn Trenner - piano
Max Bennett - bass
Stan Levey - drums
Recorded in Los Angeles, CA on January 5, 1955.
#9-20: Why Do I Love You? (Bethlehem BCP 45)
Helen Carr - vocals
"Cappy" Lewis - trumpet
Howard Roberts - guitar
Red Mitchell - bass
Recorded in Los Angeles, CA on November 11, 1955.


[islamvillage.com]_t_5657375.torrent
Торрент: Зарегистрирован ·  [ 2018-12-13 16:36 ] ·  ff726b3c601cc44cff9efc96887723a7c5ecc5ec

21 KB

Статус: проверено
Скачан: 0 раз
Размер: 236 MB
Оценка: 
(Голосов: 0)
Сказали спасибо: 0  Спасибо
Похожие темы
[Профиль]    [ЛС]
Показать сообщения:    
Ответить на тему

Текущее время: Сегодня 10:00

Часовой пояс: GMT + 7



Вы не можете начинать темы
Вы не можете отвечать на сообщения
Вы не можете редактировать свои сообщения
Вы не можете удалять свои сообщения
Вы не можете голосовать в опросах
Вы не можете прикреплять файлы к сообщениям
Вы можете скачивать файлы


Bracelet Infinity Infiny Mode Strass Femme Zirconium Idée Cadeau Bijoux Amitié | Dr Phil S17E69 Episode 69 | Watch now!