(rock) [CD] Телевизор - Дискография - 1984-2016 (18 CD), ALAC (tracks+.cue), lossless

Ответить на тему
Статистика раздачи [Обновить пиров]
Размер:  6.12 GB   |    Зарегистрирован:  14 дней   |    Скачан:  0 раз

Полного источника не было: Никогда

 
   
 
 
 
Автор Сообщение

islamvillage.com

Создавать темы 02-Янв-2019 14:53

[Цитировать]

Телевизор / Дискография
Жанр: rock
Носитель: CD
Год издания: 1985-2016
Издатель (лейбл): Геометрия
Страна исполнителя (группы): Россия
Аудио кодек: ALAC (*.m4a)
Тип рипа: tracks .cue
Программа-конвертер: CueTools
Битрейт аудио: lossless
Наличие сканов в содержимом раздачи: да
Тексты: вшиты
источник 1: http://Torrentc/forum/viewtopic.php?t=4313247
источник 2: http://Torrentc/forum/viewtopic.php?t=187690
источник 3: http://Torrentc/forum/viewtopic.php?t=5270433

1985. Шествие рыб

Продолжительность: 00:35:08
Треклист:
1. Люди в ожидании
2. Муха на стекле
3. Город
4. Я не виноват
5. Вчера
6. Цветные сны
7. Человек из ваты
8. Дальний Восток
9. Шествие рыб
10. Обо мне
11. Мания величия
12. Товарищ Сухов
13. С вами говорит телевизор

Лог создания рипа

Exact Audio Copy V1.1 from 23. June 2015
EAC extraction logfile from 1. October 2016, 11:32
Телевизор / Шествие Рыб
Used drive : ASUS SDRW-08D1S-U Adapter: 1 ID: 1
Read mode : SecureUtilize accurate stream : YesDefeat audio cache : YesMake use of C2 pointers : No
Read offset correction : 103Overread into Lead-In and Lead-Out : NoFill up missing offset samples with silence : YesDelete leading and trailing silent blocks : NoNull samples used in CRC calculations : YesUsed interface : Native Win32 interface for Win NT & 2000Gap handling : Appended to previous track
Used output format : User Defined EncoderSelected bitrate : 1024 kBit/sQuality : HighAdd ID3 tag : NoCommand line compressor : J:\Program Files (x86)\Exact Audio Copy\Flac\flac.exeAdditional command line options : -V -8 -T "COMMENT=ripped by Krevetka1972 special for СПАМ -T "ARTIST=%artist%" -T "TITLE=%title%" -T "ALBUM=%albumtitle%" -T "DATE=%year%" -T "TRACKNUMBER=%tracknr%" -T "GENRE=%genre%" -T "ALBUMARTIST=%albuminterpret%" %source% -o Юst%
TOC of the extracted CD
Track | Start | Length | Start sector | End sector --------------------------------------------------------- 1 | 0:00.00 | 2:48.01 | 0 | 12600 2 | 2:48.01 | 2:09.61 | 12601 | 22336 3 | 4:57.62 | 3:03.29 | 22337 | 36090 4 | 8:01.16 | 2:16.28 | 36091 | 46318 5 | 10:17.44 | 2:06.00 | 46319 | 55768 6 | 12:23.44 | 3:27.13 | 55769 | 71306 7 | 15:50.57 | 2:19.25 | 71307 | 81756 8 | 18:10.07 | 2:21.51 | 81757 | 92382 9 | 20:31.58 | 3:59.60 | 92383 | 110367 10 | 24:31.43 | 2:13.49 | 110368 | 120391 11 | 26:45.17 | 1:42.70 | 120392 | 128111 12 | 28:28.12 | 3:24.71 | 128112 | 143482 13 | 31:53.08 | 3:15.60 | 143483 | 158167
Track 1
Filename G:\Телевизор\1985 - Шествие Рыб (Геометрия # GEO 029 CD)\CD 1 - Шествие Рыб\01. Телевизор - Люди В Ожидании.wav
Pre-gap length 0:00:02.00
Peak level 98.8 % Extraction speed 1.1 X Track quality 100.0 % Test CRC A24CE8DD Copy CRC A24CE8DD Accurately ripped (confidence 2) [1FFC5704] (AR v2) Copy OK
Track 2
Filename G:\Телевизор\1985 - Шествие Рыб (Геометрия # GEO 029 CD)\CD 1 - Шествие Рыб\02. Телевизор - Муха На Стекле.wav
Pre-gap length 0:00:03.00
Peak level 98.8 % Extraction speed 0.9 X Track quality 99.9 % Test CRC CD97FB57 Copy CRC CD97FB57 Accurately ripped (confidence 2) [05A75772] (AR v2) Copy OK
Track 3
Filename G:\Телевизор\1985 - Шествие Рыб (Геометрия # GEO 029 CD)\CD 1 - Шествие Рыб\03. Телевизор - Город.wav
Pre-gap length 0:00:02.00
Peak level 98.8 % Extraction speed 1.3 X Track quality 100.0 % Test CRC 552BA616 Copy CRC 552BA616 Accurately ripped (confidence 2) [2AF7D347] (AR v2) Copy OK
Track 4
Filename G:\Телевизор\1985 - Шествие Рыб (Геометрия # GEO 029 CD)\CD 1 - Шествие Рыб\04. Телевизор - Я Не Виноват.wav
Pre-gap length 0:00:03.00
Peak level 98.8 % Extraction speed 1.3 X Track quality 100.0 % Test CRC 3BB91901 Copy CRC 3BB91901 Accurately ripped (confidence 2) [E6F0E71E] (AR v2) Copy OK
Track 5
Filename G:\Телевизор\1985 - Шествие Рыб (Геометрия # GEO 029 CD)\CD 1 - Шествие Рыб\05. Телевизор - Вчера.wav
Pre-gap length 0:00:03.00
Peak level 98.8 % Extraction speed 1.4 X Track quality 100.0 % Test CRC 0054CE5E Copy CRC 0054CE5E Accurately ripped (confidence 2) [835E02E5] (AR v2) Copy OK
Track 6
Filename G:\Телевизор\1985 - Шествие Рыб (Геометрия # GEO 029 CD)\CD 1 - Шествие Рыб\06. Телевизор - Цветные Сны.wav
Pre-gap length 0:00:03.00
Peak level 97.6 % Extraction speed 1.4 X Track quality 99.9 % Test CRC 78C006AC Copy CRC 78C006AC Accurately ripped (confidence 2) [E7EAC617] (AR v2) Copy OK
Track 7
Filename G:\Телевизор\1985 - Шествие Рыб (Геометрия # GEO 029 CD)\CD 1 - Шествие Рыб\07. Телевизор - Человек Из Ваты.wav
Pre-gap length 0:00:04.00
Peak level 98.8 % Extraction speed 1.6 X Track quality 100.0 % Test CRC 2E60E221 Copy CRC 2E60E221 Accurately ripped (confidence 2) [51C6065A] (AR v2) Copy OK
Track 8
Filename G:\Телевизор\1985 - Шествие Рыб (Геометрия # GEO 029 CD)\CD 1 - Шествие Рыб\08. Телевизор - Дальний Восток.wav
Pre-gap length 0:00:04.00
Peak level 98.8 % Extraction speed 1.6 X Track quality 100.0 % Test CRC 5DA1CF00 Copy CRC 5DA1CF00 Accurately ripped (confidence 2) [A14B364A] (AR v2) Copy OK
Track 9
Filename G:\Телевизор\1985 - Шествие Рыб (Геометрия # GEO 029 CD)\CD 1 - Шествие Рыб\09. Телевизор - Шествие Рыб.wav
Pre-gap length 0:00:03.00
Peak level 98.8 % Extraction speed 1.9 X Track quality 100.0 % Test CRC 0C59CB6B Copy CRC 0C59CB6B Accurately ripped (confidence 2) [4DA44DD9] (AR v2) Copy OK
Track 10
Filename G:\Телевизор\1985 - Шествие Рыб (Геометрия # GEO 029 CD)\CD 1 - Шествие Рыб\10. Телевизор - Обо Мне.wav
Pre-gap length 0:00:03.00
Peak level 98.8 % Extraction speed 1.7 X Track quality 100.0 % Test CRC D63089C4 Copy CRC D63089C4 Accurately ripped (confidence 2) [FCFEBD16] (AR v2) Copy OK
Track 11
Filename G:\Телевизор\1985 - Шествие Рыб (Геометрия # GEO 029 CD)\CD 1 - Шествие Рыб\11. Телевизор - Мания Величия.wav
Pre-gap length 0:00:03.00
Peak level 98.8 % Extraction speed 1.3 X Track quality 99.8 % Test CRC 35117D2C Copy CRC 35117D2C Accurately ripped (confidence 2) [A46FA937] (AR v2) Copy OK
Track 12
Filename G:\Телевизор\1985 - Шествие Рыб (Геометрия # GEO 029 CD)\CD 1 - Шествие Рыб\12. Телевизор - Товарищ Сухов.wav
Pre-gap length 0:00:03.00
Peak level 98.8 % Extraction speed 2.0 X Track quality 100.0 % Test CRC 9D571C75 Copy CRC 9D571C75 Accurately ripped (confidence 2) [AAFBC00D] (AR v2) Copy OK
Track 13
Filename G:\Телевизор\1985 - Шествие Рыб (Геометрия # GEO 029 CD)\CD 1 - Шествие Рыб\13. Телевизор - С Вами Говорит Телевизор.wav
Pre-gap length 0:00:03.00
Peak level 98.1 % Extraction speed 2.0 X Track quality 100.0 % Test CRC 24E6F758 Copy CRC 24E6F758 Accurately ripped (confidence 2) [E05739FF] (AR v2) Copy OK
All tracks accurately ripped
No errors occurred
End of status report
---- CUETools DB Plugin V2.1.6
[CTDB TOCID: 39hB2N6ZAshE0ckYrXbBBVTlJLY-] foundSubmit result: 39hB2N6ZAshE0ckYrXbBBVTlJLY- has been confirmedTrack | CTDB Status 1 | (1/1) Accurately ripped 2 | (1/1) Accurately ripped 3 | (1/1) Accurately ripped 4 | (1/1) Accurately ripped 5 | (1/1) Accurately ripped 6 | (1/1) Accurately ripped 7 | (1/1) Accurately ripped 8 | (1/1) Accurately ripped 9 | (1/1) Accurately ripped 10 | (1/1) Accurately ripped 11 | (1/1) Accurately ripped 12 | (1/1) Accurately ripped 13 | (1/1) Accurately ripped
==== Log checksum 9CAB797C9323F255EB1DBD452A02DE047E0966734041C3944433FAD2BDE74004 ====

Содержание индексной карты (.CUE)

PERFORMER "Телевизор"TITLE "Шествие рыб"REM DATE 1985REM DISCNUMBER 1REM TOTALDISCS 1REM GENRE "Рок"FILE "01. Людии в ожидании.m4a" WAVE TRACK 01 AUDIO PERFORMER "Телевизор" TITLE "Людии в ожидании" INDEX 01 00:00:00 TRACK 02 AUDIO PERFORMER "Телевизор" TITLE "Муха на стекле" INDEX 00 02:45:01FILE "02. Муха на стекле.m4a" WAVE INDEX 01 00:00:00 TRACK 03 AUDIO PERFORMER "Телевизор" TITLE "Город" INDEX 00 02:07:61FILE "03. Город.m4a" WAVE INDEX 01 00:00:00 TRACK 04 AUDIO PERFORMER "Телевизор" TITLE "Я не виноват" INDEX 00 03:00:29FILE "04. Я не виноват.m4a" WAVE INDEX 01 00:00:00 TRACK 05 AUDIO PERFORMER "Телевизор" TITLE "Вчера" INDEX 00 02:13:28FILE "05. Вчера.m4a" WAVE INDEX 01 00:00:00 TRACK 06 AUDIO PERFORMER "Телевизор" TITLE "Цветные сны" INDEX 00 02:03:00FILE "06. Цветные сны.m4a" WAVE INDEX 01 00:00:00 TRACK 07 AUDIO PERFORMER "Телевизор" TITLE "Человек из ваты" INDEX 00 03:23:13FILE "07. Человек из ваты.m4a" WAVE INDEX 01 00:00:00 TRACK 08 AUDIO PERFORMER "Телевизор" TITLE "Дальний Восток" INDEX 00 02:15:25FILE "08. Дальний Восток.m4a" WAVE INDEX 01 00:00:00 TRACK 09 AUDIO PERFORMER "Телевизор" TITLE "Шествие рыб" INDEX 00 02:18:51FILE "09. Шествие рыб.m4a" WAVE INDEX 01 00:00:00 TRACK 10 AUDIO PERFORMER "Телевизор" TITLE "Обо мне" INDEX 00 03:56:60FILE "10. Обо мне.m4a" WAVE INDEX 01 00:00:00 TRACK 11 AUDIO PERFORMER "Телевизор" TITLE "Мания величия" INDEX 00 02:10:49FILE "11. Мания величия.m4a" WAVE INDEX 01 00:00:00 TRACK 12 AUDIO PERFORMER "Телевизор" TITLE "Товарищ Сухов" INDEX 00 01:39:70FILE "12. Товарищ Сухов.m4a" WAVE INDEX 01 00:00:00 TRACK 13 AUDIO PERFORMER "Телевизор" TITLE "С вами говорит телевизор" INDEX 00 03:21:71FILE "13. С вами говорит телевизор.m4a" WAVE INDEX 01 00:00:00

Лог проверки качества

[CUETools log; Date: 10.02.2018 11:57:25; Version: 2.1.6][CTDB TOCID: 39hB2N6ZAshE0ckYrXbBBVTlJLY-] found.Track | CTDB Status 1 | (3/3) Accurately ripped 2 | (3/3) Accurately ripped 3 | (3/3) Accurately ripped 4 | (3/3) Accurately ripped 5 | (3/3) Accurately ripped 6 | (3/3) Accurately ripped 7 | (3/3) Accurately ripped 8 | (3/3) Accurately ripped 9 | (3/3) Accurately ripped 10 | (3/3) Accurately ripped 11 | (3/3) Accurately ripped 12 | (3/3) Accurately ripped 13 | (3/3) Accurately ripped[AccurateRip ID: 0010772f-00a54a16-a8083c0d] found.Track [ CRC | V2 ] Status 01 [28fe3d7d|1ffc5704] (0 2/2) Accurately ripped 02 [2e8e1bff|05a75772] (0 2/2) Accurately ripped 03 [16158dc0|2af7d347] (0 2/2) Accurately ripped 04 [2cb6ccd3|e6f0e71e] (0 2/2) Accurately ripped 05 [46c857aa|835e02e5] (0 2/2) Accurately ripped 06 [b3dfe0aa|e7eac617] (0 2/2) Accurately ripped 07 [61388b42|51c6065a] (0 2/2) Accurately ripped 08 [f13be7fe|a14b364a] (0 2/2) Accurately ripped 09 [ee21c13c|4da44dd9] (0 2/2) Accurately ripped 10 [f5fead17|fcfebd16] (0 2/2) Accurately ripped 11 [0342e95b|a46fa937] (0 2/2) Accurately ripped 12 [d132f2d2|aafbc00d] (0 2/2) Accurately ripped 13 [0abd6e5d|e05739ff] (0 2/2) Accurately ripped
Track Peak [ CRC32 ] [W/O NULL] [ LOG ] -- 98,8 [A02F29E3] [42274308] 01 98,8 [A24CE8DD] [A2872581] CRC32 02 98,8 [CD97FB57] [1A68EE75] CRC32 03 98,8 [552BA616] [0F7513F5] CRC32 04 98,8 [3BB91901] [7CE12FBC] CRC32 05 98,8 [0054CE5E] [A7AF1154] CRC32 06 97,6 [78C006AC] [36855B54] CRC32 07 98,8 [2E60E221] [F525140F] CRC32 08 98,8 [5DA1CF00] [9F8AAEB3] CRC32 09 98,8 [0C59CB6B] [E555C028] CRC32 10 98,8 [D63089C4] [7AF2D21B] CRC32 11 98,8 [35117D2C] [47D58B72] CRC32 12 98,8 [9D571C75] [5D817123] CRC32 13 98,1 [24E6F758] [F03459B7] CRC32

1987. Отечество иллюзий

Продолжительность: 00:43:12
Треклист:
1. Кто ты?
2. Внутри
3. Отечество иллюзий
4. Полуфабрикаты
5. Рыба гниёт с головы
6. Три-четыре гада
7. Твой папа - фашист
8. Мы идём
9. Выйти из-под контроля
10. Дети уходят
11. Сыт по горло

Лог создания рипа

Exact Audio Copy V1.0 beta 3 from 29. August 2011
Отчёт EAC об извлечении, выполненном 10. января 2013, 23:23
Телевизор / Отечество иллюзий
Дисковод: TS8XDVDRTranscend Adapter: 2 ID: 0
Режим чтения : ДостоверностьИспользование точного потока : ДаОтключение кэша аудио : ДаИспользование указателей C2 : Нет
Коррекция смещения при чтении : 6Способность читать области Lead-in и Lead-out : НетЗаполнение пропущенных сэмплов тишиной : ДаУдаление блоков с тишиной в начале и конце : НетПри вычислениях CRC использовались нулевые сэмплы : ДаИнтерфейс : Встроенный Win32-интерфейс для Win NT/2000
Выходной формат : Пользовательский кодировщикВыбранный битрейт : 128 kBit/sКачество : ВысокийДобавление ID3-тега : НетУтилита сжатия : C:\Program Files\Exact Audio Copy\FLAC\FLAC.EXEДополнительные параметры : -V -8 -T "Date=%year%" -T "Genre=%genre%" %source%
TOC извлечённого CD
Трек | Старт | Длительность | Начальный сектор | Конечный сектор --------------------------------------------------------------------- 1 | 0:00.00 | 4:49.03 | 0 | 21677 2 | 4:49.03 | 3:15.72 | 21678 | 36374 3 | 8:05.00 | 4:25.29 | 36375 | 56278 4 | 12:30.29 | 3:05.11 | 56279 | 70164 5 | 15:35.40 | 3:25.18 | 70165 | 85557 6 | 19:00.58 | 3:29.30 | 85558 | 101262 7 | 22:30.13 | 4:52.71 | 101263 | 123233 8 | 27:23.09 | 3:29.31 | 123234 | 138939 9 | 30:52.40 | 2:47.04 | 138940 | 151468 10 | 33:39.44 | 6:44.03 | 151469 | 181771 11 | 40:23.47 | 2:48.56 | 181772 | 194427
Характеристики диапазона извлечения и сообщения об ошибках
Выбранный диапазон
Имя файла C:\Documents and Settings\Пользователь\Мои документы\Раздачи на torrentc\Телевизор - Отечество иллюзий.wav
Пиковый уровень 94.4 % Скорость извлечения 1.5 X Качество диапазона 100.0 % CRC теста 39599FC8 CRC копии 39599FC8 Копирование... OK
Ошибок не произошло
AccurateRip: сводка
Трек 1 отсутствует в базе данныхТрек 2 отсутствует в базе данныхТрек 3 отсутствует в базе данныхТрек 4 отсутствует в базе данныхТрек 5 отсутствует в базе данныхТрек 6 отсутствует в базе данныхТрек 7 отсутствует в базе данныхТрек 8 отсутствует в базе данныхТрек 9 отсутствует в базе данныхТрек 10 отсутствует в базе данныхТрек 11 отсутствует в базе данных
Ни одного трека нет в базе AccurateRip
Конец отчёта
==== Контрольная сумма отчёта 766F6F5E79D9E3DE5A866D7CA2AEACBC05407CBA651A28207E88948CD2AFEAD1 ====

Содержание индексной карты (.CUE)

REM DATE 1987REM DISCID 890A200BPERFORMER "Телевизор"TITLE "Отечество иллюзий"REM DISCNUMBER 1REM TOTALDISCS 1FILE "01. Кто ты_.m4a" WAVE TRACK 01 AUDIO TITLE "Кто ты?" PERFORMER "Телевизор" INDEX 01 00:00:00 TRACK 02 AUDIO TITLE "Внутри" PERFORMER "Телевизор" INDEX 00 04:46:03FILE "02. Внутри.m4a" WAVE INDEX 01 00:00:00 TRACK 03 AUDIO TITLE "Отечество иллюзий" PERFORMER "Телевизор" INDEX 00 03:13:72FILE "03. Отечество иллюзий.m4a" WAVE INDEX 01 00:00:00 TRACK 04 AUDIO TITLE "Полуфабрикаты" PERFORMER "Телевизор" INDEX 00 04:22:29FILE "04. Полуфабрикаты.m4a" WAVE INDEX 01 00:00:00 TRACK 05 AUDIO TITLE "Рыба гниёт с головы" PERFORMER "Телевизор" INDEX 00 03:02:11FILE "05. Рыба гниёт с головы.m4a" WAVE INDEX 01 00:00:00 TRACK 06 AUDIO TITLE "Три-четыре гада" PERFORMER "Телевизор" INDEX 00 03:24:18FILE "06. Три-четыре гада.m4a" WAVE INDEX 01 00:00:00 TRACK 07 AUDIO TITLE "Твой папа — фашист" PERFORMER "Телевизор" INDEX 00 03:26:30FILE "07. Твой папа — фашист.m4a" WAVE INDEX 01 00:00:00 TRACK 08 AUDIO TITLE "Мы идём" PERFORMER "Телевизор" INDEX 00 04:49:71FILE "08. Мы идём.m4a" WAVE INDEX 01 00:00:00 TRACK 09 AUDIO TITLE "Выйти из-под контроля" PERFORMER "Телевизор" INDEX 00 03:26:31FILE "09. Выйти из-под контроля.m4a" WAVE INDEX 01 00:00:00 TRACK 10 AUDIO TITLE "Дети уходят" PERFORMER "Телевизор" INDEX 00 02:44:04FILE "10. Дети уходят.m4a" WAVE INDEX 01 00:00:00 TRACK 11 AUDIO TITLE "Сыт по горло" PERFORMER "Телевизор" INDEX 00 06:40:03FILE "11. Сыт по горло.m4a" WAVE INDEX 01 00:00:00

Лог проверки качества

[CUETools log; Date: 07.04.2018 14:06:45; Version: 2.1.6][CTDB TOCID: l4q7NVawss5nDt_.RJca4IJtkP0-] found.Track | CTDB Status 1 | (4/4) Accurately ripped 2 | (4/4) Accurately ripped 3 | (4/4) Accurately ripped 4 | (4/4) Accurately ripped 5 | (4/4) Accurately ripped 6 | (4/4) Accurately ripped 7 | (4/4) Accurately ripped 8 | (4/4) Accurately ripped 9 | (4/4) Accurately ripped 10 | (4/4) Accurately ripped 11 | (4/4) Accurately ripped[AccurateRip ID: 0011b7c9-00991c56-890a200b] found.Track [ CRC | V2 ] Status 01 [dd4b15fa|8bc0f888] (0 4/4) Accurately ripped 02 [26d475f4|8949edae] (0 4/4) Accurately ripped 03 [9c8e4948|5de7d022] (0 4/4) Accurately ripped 04 [a3448575|ea6bff8c] (0 4/4) Accurately ripped 05 [7b7356a6|1a791661] (0 4/4) Accurately ripped 06 [bdaad4de|5ec72650] (0 4/4) Accurately ripped 07 [e12438a2|9ae0d7ff] (0 4/4) Accurately ripped 08 [c54ae9b2|98a05200] (0 4/4) Accurately ripped 09 [70e00e3c|e30d7f4e] (0 4/4) Accurately ripped 10 [41d35ed4|95890d93] (0 4/4) Accurately ripped 11 [95c6f60e|bb9a4913] (0 4/4) Accurately ripped
Track Peak [ CRC32 ] [W/O NULL] [ LOG ] -- 94,4 [39599FC8] [9E722668] CRC32 01 93,9 [91BA91D6] [1AABD31E] 02 83,8 [714F5306] [A5EDE15F] 03 93,4 [AA7F454E] [FF1D2226] 04 92,7 [3317BEFA] [5FCF9F9B] 05 81,5 [3C3C2D1A] [5D45AD8E] 06 93,9 [5A71D02C] [A8CBB804] 07 82,8 [741B7C29] [0FF17998] 08 77,5 [EC90A0DB] [A32EF892] 09 88,6 [282584D3] [DCADBFCC] 10 94,4 [0E082146] [293284D5] 11 88,9 [735E41A3] [26070340]

1989. Отчуждение

Продолжительность: 00:44:13
Треклист:
1. Музыка для мёртвых
2. Отечество иллюзий
3. Пластмасса
4. Холод
5. Дети уходят
6. Политпесня
7. Три-четыре гада
8. Потребитель
9. Не плачь
10. Вера
11. Отчуждение

Лог создания рипа

Exact Audio Copy V1.1 from 23. June 2015
EAC extraction logfile from 25. August 2016, 19:16
Телевизор / Отчуждение
Used drive : ASUS SDRW-08D1S-U Adapter: 1 ID: 1
Read mode : SecureUtilize accurate stream : YesDefeat audio cache : YesMake use of C2 pointers : No
Read offset correction : 103Overread into Lead-In and Lead-Out : NoFill up missing offset samples with silence : YesDelete leading and trailing silent blocks : NoNull samples used in CRC calculations : YesUsed interface : Native Win32 interface for Win NT & 2000Gap handling : Appended to previous track
Used output format : User Defined EncoderSelected bitrate : 1024 kBit/sQuality : HighAdd ID3 tag : NoCommand line compressor : J:\Program Files (x86)\Exact Audio Copy\Flac\flac.exeAdditional command line options : -V -8 -T "COMMENT=ripped by Krevetka1972 special for СПАМ -T "ARTIST=%artist%" -T "TITLE=%title%" -T "ALBUM=%albumtitle%" -T "DATE=%year%" -T "TRACKNUMBER=%tracknr%" -T "GENRE=%genre%" -T "ALBUMARTIST=%albuminterpret%" %source% -o Юst%
TOC of the extracted CD
Track | Start | Length | Start sector | End sector --------------------------------------------------------- 1 | 0:00.00 | 3:26.42 | 0 | 15491 2 | 3:26.42 | 3:02.53 | 15492 | 29194 3 | 6:29.20 | 4:06.58 | 29195 | 47702 4 | 10:36.03 | 5:08.03 | 47703 | 70805 5 | 15:44.06 | 5:14.41 | 70806 | 94396 6 | 20:58.47 | 4:16.34 | 94397 | 113630 7 | 25:15.06 | 2:23.63 | 113631 | 124418 8 | 27:38.69 | 3:13.58 | 124419 | 138951 9 | 30:52.52 | 4:01.59 | 138952 | 157085 10 | 34:54.36 | 4:24.22 | 157086 | 176907 11 | 39:18.58 | 4:55.09 | 176908 | 199041
Track 1
Filename G:\Телевизор\1989-2005 - Отчуждение (Геометрия # GEO 087 CD, GEO 088 CD)\CD - 1989\01. Телевизор - Музыка для мёртвых.wav
Pre-gap length 0:00:02.00
Peak level 97.7 % Extraction speed 1.2 X Track quality 100.0 % Test CRC 85CCDACF Copy CRC 85CCDACF Accurately ripped (confidence 1) [5CBAFA68] (AR v2) Copy OK
Track 2
Filename G:\Телевизор\1989-2005 - Отчуждение (Геометрия # GEO 087 CD, GEO 088 CD)\CD - 1989\02. Телевизор - Отечество иллюзий.wav
Peak level 97.7 % Extraction speed 1.3 X Track quality 100.0 % Test CRC 8E8E541F Copy CRC 8E8E541F Accurately ripped (confidence 1) [5B91C858] (AR v2) Copy OK
Track 3
Filename G:\Телевизор\1989-2005 - Отчуждение (Геометрия # GEO 087 CD, GEO 088 CD)\CD - 1989\03. Телевизор - Пластмасса.wav
Peak level 96.9 % Extraction speed 1.4 X Track quality 100.0 % Test CRC C39623A6 Copy CRC C39623A6 Accurately ripped (confidence 1) [C990D776] (AR v2) Copy OK
Track 4
Filename G:\Телевизор\1989-2005 - Отчуждение (Геометрия # GEO 087 CD, GEO 088 CD)\CD - 1989\04. Телевизор - Холод.wav
Peak level 97.0 % Extraction speed 1.6 X Track quality 100.0 % Test CRC BCC30DD2 Copy CRC BCC30DD2 Accurately ripped (confidence 1) [11CEA314] (AR v2) Copy OK
Track 5
Filename G:\Телевизор\1989-2005 - Отчуждение (Геометрия # GEO 087 CD, GEO 088 CD)\CD - 1989\05. Телевизор - Дети уходят.wav
Peak level 95.3 % Extraction speed 1.7 X Track quality 100.0 % Test CRC A6E997AA Copy CRC A6E997AA Accurately ripped (confidence 1) [5A8730C1] (AR v2) Copy OK
Track 6
Filename G:\Телевизор\1989-2005 - Отчуждение (Геометрия # GEO 087 CD, GEO 088 CD)\CD - 1989\06. Телевизор - Политпесня.wav
Peak level 93.2 % Extraction speed 1.8 X Track quality 100.0 % Test CRC 7B7ECAD7 Copy CRC 7B7ECAD7 Accurately ripped (confidence 1) [B80D0DA5] (AR v2) Copy OK
Track 7
Filename G:\Телевизор\1989-2005 - Отчуждение (Геометрия # GEO 087 CD, GEO 088 CD)\CD - 1989\07. Телевизор - Три-четыре гада.wav
Peak level 93.0 % Extraction speed 1.7 X Track quality 100.0 % Test CRC 2BB52F90 Copy CRC 2BB52F90 Accurately ripped (confidence 1) [5B7F0F1F] (AR v2) Copy OK
Track 8
Filename G:\Телевизор\1989-2005 - Отчуждение (Геометрия # GEO 087 CD, GEO 088 CD)\CD - 1989\08. Телевизор - Потребитель.wav
Peak level 93.8 % Extraction speed 1.9 X Track quality 100.0 % Test CRC 56E43D39 Copy CRC 56E43D39 Accurately ripped (confidence 1) [AEE86729] (AR v2) Copy OK
Track 9
Filename G:\Телевизор\1989-2005 - Отчуждение (Геометрия # GEO 087 CD, GEO 088 CD)\CD - 1989\09. Телевизор - Не плачь.wav
Peak level 93.6 % Extraction speed 2.0 X Track quality 100.0 % Test CRC 2FC407DE Copy CRC 2FC407DE Accurately ripped (confidence 1) [58424160] (AR v2) Copy OK
Track 10
Filename G:\Телевизор\1989-2005 - Отчуждение (Геометрия # GEO 087 CD, GEO 088 CD)\CD - 1989\10. Телевизор - Вера.wav
Peak level 93.4 % Extraction speed 1.9 X Track quality 99.9 % Test CRC 0EE695E1 Copy CRC 0EE695E1 Accurately ripped (confidence 1) [48691851] (AR v2) Copy OK
Track 11
Filename G:\Телевизор\1989-2005 - Отчуждение (Геометрия # GEO 087 CD, GEO 088 CD)\CD - 1989\11. Телевизор - Отчуждение.wav
Peak level 92.4 % Extraction speed 2.0 X Track quality 99.9 % Test CRC C06860D9 Copy CRC C06860D9 Accurately ripped (confidence 1) [CECCD253] (AR v2) Copy OK
All tracks accurately ripped
No errors occurred
End of status report
---- CUETools DB Plugin V2.1.6
[CTDB TOCID: _Mk1zjfoq.TCNS8nWLb7b4WA.lI-] foundSubmit result: _Mk1zjfoq.TCNS8nWLb7b4WA.lI- has been confirmedTrack | CTDB Status 1 | (6/6) Accurately ripped 2 | (6/6) Accurately ripped 3 | (6/6) Accurately ripped 4 | (6/6) Accurately ripped 5 | (6/6) Accurately ripped 6 | (6/6) Accurately ripped 7 | (6/6) Accurately ripped 8 | (6/6) Accurately ripped 9 | (6/6) Accurately ripped 10 | (6/6) Accurately ripped 11 | (6/6) Accurately ripped
==== Log checksum FA446EEFB71A76882A7D050DCC63DAE6E9389772355BD24EAB1F2F465E588222 ====

Содержание индексной карты (.CUE)

PERFORMER "Телевизор"TITLE "Отчуждение"REM DATE 1989REM DISCNUMBER 1REM TOTALDISCS 1REM GENRE "Rock"FILE "01. Музыка для мёртвых.m4a" WAVE TRACK 01 AUDIO PERFORMER "Телевизор" TITLE "Музыка для мёртвых" INDEX 01 00:00:00FILE "02. Отечество иллюзий.m4a" WAVE TRACK 02 AUDIO PERFORMER "Телевизор" TITLE "Отечество иллюзий" INDEX 01 00:00:00FILE "03. Пластмасса.m4a" WAVE TRACK 03 AUDIO PERFORMER "Телевизор" TITLE "Пластмасса" INDEX 01 00:00:00FILE "04. Холод.m4a" WAVE TRACK 04 AUDIO PERFORMER "Телевизор" TITLE "Холод" INDEX 01 00:00:00FILE "05. Дети уходят.m4a" WAVE TRACK 05 AUDIO PERFORMER "Телевизор" TITLE "Дети уходят" INDEX 01 00:00:00FILE "06. Политпесня.m4a" WAVE TRACK 06 AUDIO PERFORMER "Телевизор" TITLE "Политпесня" INDEX 01 00:00:00FILE "07. Три-четыре гада.m4a" WAVE TRACK 07 AUDIO PERFORMER "Телевизор" TITLE "Три-четыре гада" INDEX 01 00:00:00FILE "08. Потребитель.m4a" WAVE TRACK 08 AUDIO PERFORMER "Телевизор" TITLE "Потребитель" INDEX 01 00:00:00FILE "09. Не плачь.m4a" WAVE TRACK 09 AUDIO PERFORMER "Телевизор" TITLE "Не плачь" INDEX 01 00:00:00FILE "10. Вера.m4a" WAVE TRACK 10 AUDIO PERFORMER "Телевизор" TITLE "Вера" INDEX 01 00:00:00FILE "11. Отчуждение.m4a" WAVE TRACK 11 AUDIO PERFORMER "Телевизор" TITLE "Отчуждение" INDEX 01 00:00:00

Лог проверки качества

[CUETools log; Date: 10.02.2018 12:19:40; Version: 2.1.6][CTDB TOCID: _Mk1zjfoq.TCNS8nWLb7b4WA.lI-] found.Track | CTDB Status 1 | (7/7) Accurately ripped 2 | (7/7) Accurately ripped 3 | (7/7) Accurately ripped 4 | (7/7) Accurately ripped 5 | (7/7) Accurately ripped 6 | (7/7) Accurately ripped 7 | (7/7) Accurately ripped 8 | (7/7) Accurately ripped 9 | (7/7) Accurately ripped 10 | (7/7) Accurately ripped 11 | (7/7) Accurately ripped[AccurateRip ID: 0011d10f-009b47e3-8f0a5d0b] found.Track [ CRC | V2 ] Status 01 [19755d89|5cbafa68] (0 2/2) Accurately ripped 02 [c1205afd|5b91c858] (0 2/2) Accurately ripped 03 [bb56c769|c990d776] (0 2/2) Accurately ripped 04 [a037ef2d|11cea314] (0 2/2) Accurately ripped 05 [a3126a66|5a8730c1] (0 2/2) Accurately ripped 06 [554c9323|b80d0da5] (0 2/2) Accurately ripped 07 [6a607dbf|5b7f0f1f] (0 2/2) Accurately ripped 08 [b3d453fc|aee86729] (0 2/2) Accurately ripped 09 [f9ceea49|58424160] (0 2/2) Accurately ripped 10 [ccece8c3|48691851] (0 2/2) Accurately ripped 11 [b9e3962b|ceccd253] (0 2/2) Accurately ripped
Track Peak [ CRC32 ] [W/O NULL] [ LOG ] -- 97,7 [7235A028] [DD27AB5F] 01 97,7 [85CCDACF] [37DD8A14] CRC32 02 97,7 [8E8E541F] [60BCA507] CRC32 03 96,9 [C39623A6] [52505FAB] CRC32 04 97,0 [BCC30DD2] [36276E76] CRC32 05 95,3 [A6E997AA] [7CB933F1] CRC32 06 93,2 [7B7ECAD7] [5DCDCA2D] CRC32 07 93,0 [2BB52F90] [D373BE2E] CRC32 08 93,8 [56E43D39] [9CD21BC5] CRC32 09 93,6 [2FC407DE] [29F206BE] CRC32 10 93,4 [0EE695E1] [173725E1] CRC32 11 92,4 [C06860D9] [B4342EA1] CRC32

1991. Мечта самоубийцы

Продолжительность: 00:38:24
Треклист:
1. Интро
2. Завтра
3. Когда ты умрёшь
4. Унижение
5. День Михаила
6. Мечта самоубийцы
7. Твой папа - фашист
8. Без сахара
9. Случайно
10. Тревога

Лог создания рипа

Exact Audio Copy V1.0 beta 3 from 29. August 2011
Отчёт EAC об извлечении, выполненном 11. января 2013, 0:35
Телевизор / Мечта самоубийцы
Дисковод: TS8XDVDRTranscend Adapter: 2 ID: 0
Режим чтения : ДостоверностьИспользование точного потока : ДаОтключение кэша аудио : ДаИспользование указателей C2 : Нет
Коррекция смещения при чтении : 6Способность читать области Lead-in и Lead-out : НетЗаполнение пропущенных сэмплов тишиной : ДаУдаление блоков с тишиной в начале и конце : НетПри вычислениях CRC использовались нулевые сэмплы : ДаИнтерфейс : Встроенный Win32-интерфейс для Win NT/2000
Выходной формат : Пользовательский кодировщикВыбранный битрейт : 128 kBit/sКачество : ВысокийДобавление ID3-тега : НетУтилита сжатия : C:\Program Files\Exact Audio Copy\FLAC\FLAC.EXEДополнительные параметры : -V -8 -T "Date=%year%" -T "Genre=%genre%" %source%
TOC извлечённого CD
Трек | Старт | Длительность | Начальный сектор | Конечный сектор --------------------------------------------------------------------- 1 | 0:00.00 | 0:32.34 | 0 | 2433 2 | 0:32.34 | 4:09.53 | 2434 | 21161 3 | 4:42.12 | 4:20.28 | 21162 | 40689 4 | 9:02.40 | 3:35.53 | 40690 | 56867 5 | 12:38.18 | 5:09.43 | 56868 | 80085 6 | 17:47.61 | 4:29.26 | 80086 | 100286 7 | 22:17.12 | 4:07.66 | 100287 | 118877 8 | 26:25.03 | 3:40.61 | 118878 | 135438 9 | 30:05.64 | 4:56.65 | 135439 | 157703 10 | 35:02.54 | 3:21.59 | 157704 | 172837
Характеристики диапазона извлечения и сообщения об ошибках
Выбранный диапазон
Имя файла C:\Documents and Settings\Пользователь\Мои документы\Раздачи на torrentc\Телевизор - Мечта самоубийцы.wav
Пиковый уровень 99.3 % Скорость извлечения 1.4 X Качество диапазона 100.0 % CRC теста 384D3A61 CRC копии 384D3A61 Копирование... OK
Ошибок не произошло
AccurateRip: сводка
Трек 1 отсутствует в базе данныхТрек 2 отсутствует в базе данныхТрек 3 отсутствует в базе данныхТрек 4 отсутствует в базе данныхТрек 5 отсутствует в базе данныхТрек 6 отсутствует в базе данныхТрек 7 отсутствует в базе данныхТрек 8 отсутствует в базе данныхТрек 9 отсутствует в базе данныхТрек 10 отсутствует в базе данных
Ни одного трека нет в базе AccurateRip
Конец отчёта
==== Контрольная сумма отчёта 11BF35396CB471359CB15FE910E171B6D3205BEF7AAA7DCB18E0B11C3CA7D137 ====

Содержание индексной карты (.CUE)

REM GENRE "Rock"REM DATE 2012REM DISCID 7D09000APERFORMER "Телевизор"TITLE "Мечта самоубийцы"FILE "01. Интро.m4a" WAVE TRACK 01 AUDIO TITLE "Интро" PERFORMER "Телевизор" INDEX 01 00:00:00FILE "02. Завтра.m4a" WAVE TRACK 02 AUDIO TITLE "Завтра" PERFORMER "Телевизор" INDEX 01 00:00:00 TRACK 03 AUDIO TITLE "Когда ты умрёшь" PERFORMER "Телевизор" INDEX 00 04:06:53FILE "03. Когда ты умрёшь.m4a" WAVE INDEX 01 00:00:00 TRACK 04 AUDIO TITLE "Унижение" PERFORMER "Телевизор" INDEX 00 04:17:28FILE "04. Унижение.m4a" WAVE INDEX 01 00:00:00 TRACK 05 AUDIO TITLE "День Михаила" PERFORMER "Телевизор" INDEX 00 03:33:53FILE "05. День Михаила.m4a" WAVE INDEX 01 00:00:00 TRACK 06 AUDIO TITLE "Мечта самоубийцы" PERFORMER "Телевизор" INDEX 00 05:06:43FILE "06. Мечта самоубийцы.m4a" WAVE INDEX 01 00:00:00 TRACK 07 AUDIO TITLE "Твой папа - фашист" PERFORMER "Телевизор" INDEX 00 04:26:26FILE "07. Твой папа - фашист.m4a" WAVE INDEX 01 00:00:00 TRACK 08 AUDIO TITLE "Без сахара" PERFORMER "Телевизор" INDEX 00 04:04:66FILE "08. Без сахара.m4a" WAVE INDEX 01 00:00:00 TRACK 09 AUDIO TITLE "Случайно" PERFORMER "Телевизор" INDEX 00 03:38:61FILE "09. Случайно.m4a" WAVE INDEX 01 00:00:00 TRACK 10 AUDIO TITLE "Тревога" PERFORMER "Телевизор" INDEX 00 04:51:65FILE "10. Тревога.m4a" WAVE INDEX 01 00:00:00

Лог проверки качества

[CUETools log; Date: 07.04.2018 14:10:47; Version: 2.1.6][CTDB TOCID: LtVh7AGmd1uovaci16WzGxoPqD4-] found.Track | CTDB Status 1 | (4/4) Accurately ripped 2 | (4/4) Accurately ripped 3 | (4/4) Accurately ripped 4 | (4/4) Accurately ripped 5 | (4/4) Accurately ripped 6 | (4/4) Accurately ripped 7 | (4/4) Accurately ripped 8 | (4/4) Accurately ripped 9 | (4/4) Accurately ripped 10 | (4/4) Accurately ripped[AccurateRip ID: 000d8672-00701825-7d09000a] found.Track [ CRC | V2 ] Status 01 [89d6c5aa|3093f5b0] (0 3/3) Accurately ripped 02 [f2dc5924|3389bee7] (0 3/3) Accurately ripped 03 [0807c585|53eda1a2] (0 3/3) Accurately ripped 04 [abf178da|b4116906] (0 3/3) Accurately ripped 05 [ba784283|a30f87e7] (0 3/3) Accurately ripped 06 [25afb178|ac240734] (0 3/3) Accurately ripped 07 [3f0eea7c|e148ae7d] (0 3/3) Accurately ripped 08 [43d18d22|870d4127] (0 3/3) Accurately ripped 09 [2dff272e|9bc56e12] (0 3/3) Accurately ripped 10 [d028ae94|51ae99a9] (0 3/3) Accurately ripped
Track Peak [ CRC32 ] [W/O NULL] [ LOG ] -- 99,3 [384D3A61] [E2989C0C] CRC32 01 57,6 [C6453F52] [3EB1AAD8] 02 99,3 [2C1F2236] [51C1DE4C] 03 97,0 [46062C75] [CAA5C349] 04 97,2 [F87B493A] [3D539C48] 05 97,2 [7AEB06DB] [13E94FAF] 06 97,3 [F5FD0BFD] [8A651CA1] 07 98,0 [E8AEBDA8] [D9421355] 08 97,7 [A2B5B46D] [1F7B515C] 09 97,4 [B134B764] [133FD263] 10 86,9 [7E711F17] [55E0D15A]

1992. Дым-туман

Продолжительность: 00:52:12
Треклист:
1. Шанс
2. Гости
3. На Желябова, 13
4. Кожа апельсинья
5. Дым-туман
6. Конца света не будет
7. Уходи один
8. Я у вольных, у небес
9. Сыт по горло
10. I'm The Walrus
11. Run For Your Life
12. Вальс

Лог создания рипа

Exact Audio Copy V1.1 from 23. June 2015
EAC extraction logfile from 27. August 2016, 13:51
Телевизор / Дым-Туман
Used drive : ASUS SDRW-08D1S-U Adapter: 1 ID: 1
Read mode : SecureUtilize accurate stream : YesDefeat audio cache : YesMake use of C2 pointers : No
Read offset correction : 103Overread into Lead-In and Lead-Out : NoFill up missing offset samples with silence : YesDelete leading and trailing silent blocks : NoNull samples used in CRC calculations : YesUsed interface : Native Win32 interface for Win NT & 2000Gap handling : Appended to previous track
Used output format : User Defined EncoderSelected bitrate : 1024 kBit/sQuality : HighAdd ID3 tag : NoCommand line compressor : J:\Program Files (x86)\Exact Audio Copy\Flac\flac.exeAdditional command line options : -V -8 -T "COMMENT=ripped by Krevetka1972 special for СПАМ -T "ARTIST=%artist%" -T "TITLE=%title%" -T "ALBUM=%albumtitle%" -T "DATE=%year%" -T "TRACKNUMBER=%tracknr%" -T "GENRE=%genre%" -T "ALBUMARTIST=%albuminterpret%" %source% -o Юst%
TOC of the extracted CD
Track | Start | Length | Start sector | End sector --------------------------------------------------------- 1 | 0:00.00 | 4:22.34 | 0 | 19683 2 | 4:22.34 | 5:23.22 | 19684 | 43930 3 | 9:45.56 | 4:32.60 | 43931 | 64390 4 | 14:18.41 | 3:23.20 | 64391 | 79635 5 | 17:41.61 | 5:38.62 | 79636 | 105047 6 | 23:20.48 | 3:58.32 | 105048 | 122929 7 | 27:19.05 | 3:40.48 | 122930 | 139477 8 | 30:59.53 | 6:47.43 | 139478 | 170045 9 | 37:47.21 | 4:49.36 | 170046 | 191756 10 | 42:36.57 | 3:51.58 | 191757 | 209139 11 | 46:28.40 | 3:26.48 | 209140 | 224637 12 | 49:55.13 | 2:17.61 | 224638 | 234973
Track 1
Filename G:\Телевизор\1992 - Дым-Туман (Геометрия # GEO 074 CD)\01. Телевизор - Шанс.wav
Pre-gap length 0:00:02.00
Peak level 97.3 % Extraction speed 1.2 X Track quality 100.0 % Test CRC 2AEB6F42 Copy CRC 2AEB6F42 Accurately ripped (confidence 1) [8CDF4ACD] (AR v2) Copy OK
Track 2
Filename G:\Телевизор\1992 - Дым-Туман (Геометрия # GEO 074 CD)\02. Телевизор - Гости.wav
Pre-gap length 0:00:02.00
Peak level 98.4 % Extraction speed 1.5 X Track quality 100.0 % Test CRC B4AEAA01 Copy CRC B4AEAA01 Accurately ripped (confidence 1) [F4090CBD] (AR v2) Copy OK
Track 3
Filename G:\Телевизор\1992 - Дым-Туман (Геометрия # GEO 074 CD)\03. Телевизор - На Желябова, 13.wav
Pre-gap length 0:00:03.00
Peak level 92.9 % Extraction speed 1.6 X Track quality 100.0 % Test CRC E35C0D0C Copy CRC E35C0D0C Accurately ripped (confidence 1) [A380F385] (AR v2) Copy OK
Track 4
Filename G:\Телевизор\1992 - Дым-Туман (Геометрия # GEO 074 CD)\04. Телевизор - Кожа Апельсинья.wav
Pre-gap length 0:00:02.00
Peak level 97.4 % Extraction speed 1.6 X Track quality 100.0 % Test CRC 82841B92 Copy CRC 82841B92 Accurately ripped (confidence 1) [54C424AF] (AR v2) Copy OK
Track 5
Filename G:\Телевизор\1992 - Дым-Туман (Геометрия # GEO 074 CD)\05. Телевизор - Дым-Туман.wav
Pre-gap length 0:00:03.00
Peak level 94.8 % Extraction speed 1.9 X Track quality 100.0 % Test CRC 48EB4192 Copy CRC 48EB4192 Accurately ripped (confidence 1) [1CEB059F] (AR v2) Copy OK
Track 6
Filename G:\Телевизор\1992 - Дым-Туман (Геометрия # GEO 074 CD)\06. Телевизор - Конца Света Не Будет.wav
Pre-gap length 0:00:02.00
Peak level 94.0 % Extraction speed 1.9 X Track quality 100.0 % Test CRC F9937E4B Copy CRC F9937E4B Accurately ripped (confidence 1) [C39EA003] (AR v2) Copy OK
Track 7
Filename G:\Телевизор\1992 - Дым-Туман (Геометрия # GEO 074 CD)\07. Телевизор - Уходи Один.wav
Pre-gap length 0:00:02.00
Peak level 98.9 % Extraction speed 2.0 X Track quality 100.0 % Test CRC EB962B1D Copy CRC EB962B1D Accurately ripped (confidence 1) [E4E173CF] (AR v2) Copy OK
Track 8
Filename G:\Телевизор\1992 - Дым-Туман (Геометрия # GEO 074 CD)\08. Телевизор - Я У Вольных, У Небес.wav
Pre-gap length 0:00:02.00
Peak level 99.5 % Extraction speed 2.3 X Track quality 100.0 % Test CRC 8C28364F Copy CRC 8C28364F Accurately ripped (confidence 1) [B31808F6] (AR v2) Copy OK
Track 9
Filename G:\Телевизор\1992 - Дым-Туман (Геометрия # GEO 074 CD)\09. Телевизор - Сыт По Горло.wav
Pre-gap length 0:00:02.00
Peak level 97.5 % Extraction speed 2.1 X Track quality 99.9 % Test CRC 12E4EE3D Copy CRC 12E4EE3D Accurately ripped (confidence 1) [5F1AF179] (AR v2) Copy OK
Track 10
Filename G:\Телевизор\1992 - Дым-Туман (Геометрия # GEO 074 CD)\10. Телевизор - I'm The Walrus.wav
Pre-gap length 0:00:05.00
Peak level 88.1 % Extraction speed 2.3 X Track quality 100.0 % Test CRC 068C491E Copy CRC 068C491E Accurately ripped (confidence 1) [6D0B73E4] (AR v2) Copy OK
Track 11
Filename G:\Телевизор\1992 - Дым-Туман (Геометрия # GEO 074 CD)\11. Телевизор - Run For Your Life.wav
Pre-gap length 0:00:02.00
Peak level 95.6 % Extraction speed 2.3 X Track quality 100.0 % Test CRC 2F0A3FB5 Copy CRC 2F0A3FB5 Accurately ripped (confidence 1) [6CE4C52F] (AR v2) Copy OK
Track 12
Filename G:\Телевизор\1992 - Дым-Туман (Геометрия # GEO 074 CD)\12. Телевизор - Вальс.wav
Pre-gap length 0:00:05.00
Peak level 58.7 % Extraction speed 1.8 X Track quality 99.9 % Test CRC 745D754F Copy CRC 745D754F Accurately ripped (confidence 1) [6B5BC45B] (AR v2) Copy OK
All tracks accurately ripped
No errors occurred
End of status report
---- CUETools DB Plugin V2.1.6
[CTDB TOCID: 4WWDdbROPMTScnN_I.Ys.Sbw17A-] foundSubmit result: 4WWDdbROPMTScnN_I.Ys.Sbw17A- has been confirmedTrack | CTDB Status 1 | (4/4) Accurately ripped 2 | (4/4) Accurately ripped 3 | (4/4) Accurately ripped 4 | (4/4) Accurately ripped 5 | (4/4) Accurately ripped 6 | (4/4) Accurately ripped 7 | (4/4) Accurately ripped 8 | (4/4) Accurately ripped 9 | (4/4) Accurately ripped 10 | (4/4) Accurately ripped 11 | (4/4) Accurately ripped 12 | (4/4) Accurately ripped
==== Log checksum 5AD80BA12E3AD8FFF51DAD42AD3255D153004F9DC9D14D7BB64C1A12936AE1D6 ====

Содержание индексной карты (.CUE)

REM COMMENT "ripped by Krevetka1972 special for СПАМPERFORMER "Телевизор"TITLE "Дым-туман"REM DATE 1992REM DISCNUMBER 1REM TOTALDISCS 1REM GENRE "Rock"FILE "01. Шанс.m4a" WAVE TRACK 01 AUDIO PERFORMER "Телевизор" TITLE "Шанс" INDEX 01 00:00:00 TRACK 02 AUDIO PERFORMER "Телевизор" TITLE "Гости" INDEX 00 04:20:34FILE "02. Гости.m4a" WAVE INDEX 01 00:00:00 TRACK 03 AUDIO PERFORMER "Телевизор" TITLE "На Желябова, 13" INDEX 00 05:20:22FILE "03. На Желябова, 13.m4a" WAVE INDEX 01 00:00:00 TRACK 04 AUDIO PERFORMER "Телевизор" TITLE "Кожа апельсинья" INDEX 00 04:30:60FILE "04. Кожа апельсинья.m4a" WAVE INDEX 01 00:00:00 TRACK 05 AUDIO PERFORMER "Телевизор" TITLE "Дым-туман" INDEX 00 03:20:20FILE "05. Дым-туман.m4a" WAVE INDEX 01 00:00:00 TRACK 06 AUDIO PERFORMER "Телевизор" TITLE "Конца света не будет" INDEX 00 05:36:62FILE "06. Конца света не будет.m4a" WAVE INDEX 01 00:00:00 TRACK 07 AUDIO PERFORMER "Телевизор" TITLE "Уходи один" INDEX 00 03:56:32FILE "07. Уходи один.m4a" WAVE INDEX 01 00:00:00 TRACK 08 AUDIO PERFORMER "Телевизор" TITLE "Я у вольных, у небес" INDEX 00 03:38:48FILE "08. Я у вольных, у небес.m4a" WAVE INDEX 01 00:00:00 TRACK 09 AUDIO PERFORMER "Телевизор" TITLE "Сыт по горло" INDEX 00 06:45:43FILE "09. Сыт по горло.m4a" WAVE INDEX 01 00:00:00 TRACK 10 AUDIO PERFORMER "Телевизор" TITLE "I'm the walrus" INDEX 00 04:44:36FILE "10. I'm the walrus.m4a" WAVE INDEX 01 00:00:00 TRACK 11 AUDIO PERFORMER "Телевизор" TITLE "Run for your life" INDEX 00 03:49:58FILE "11. Run for your life.m4a" WAVE INDEX 01 00:00:00 TRACK 12 AUDIO PERFORMER "Телевизор" TITLE "Вальс" INDEX 00 03:21:48FILE "12. Вальс.m4a" WAVE INDEX 01 00:00:00

Лог проверки качества

[CUETools log; Date: 10.02.2018 12:26:18; Version: 2.1.6][CTDB TOCID: 4WWDdbROPMTScnN_I.Ys.Sbw17A-] found.Track | CTDB Status 1 | (5/5) Accurately ripped 2 | (5/5) Accurately ripped 3 | (5/5) Accurately ripped 4 | (5/5) Accurately ripped 5 | (5/5) Accurately ripped 6 | (5/5) Accurately ripped 7 | (5/5) Accurately ripped 8 | (5/5) Accurately ripped 9 | (5/5) Accurately ripped 10 | (5/5) Accurately ripped 11 | (5/5) Accurately ripped 12 | (5/5) Accurately ripped[AccurateRip ID: 00188015-00e3d992-b10c3c0c] found.Track [ CRC | V2 ] Status 01 [772f3737|8cdf4acd] (0 1/1) Accurately ripped 02 [af9a6def|f4090cbd] (0 1/1) Accurately ripped 03 [dd709b0b|a380f385] (0 1/1) Accurately ripped 04 [7bb05fb5|54c424af] (0 1/1) Accurately ripped 05 [392029e2|1ceb059f] (0 1/1) Accurately ripped 06 [36bf0c6d|c39ea003] (0 1/1) Accurately ripped 07 [27be957a|e4e173cf] (0 1/1) Accurately ripped 08 [7aa834db|b31808f6] (0 1/1) Accurately ripped 09 [9626ed91|5f1af179] (0 1/1) Accurately ripped 10 [91322a32|6d0b73e4] (0 1/1) Accurately ripped 11 [53d4751d|6ce4c52f] (0 1/1) Accurately ripped 12 [ef0388c0|6b5bc45b] (0 1/1) Accurately ripped
Track Peak [ CRC32 ] [W/O NULL] [ LOG ] -- 99,5 [84897BE9] [77193913] 01 97,3 [2AEB6F42] [93693CFD] CRC32 02 98,4 [B4AEAA01] [603A35E0] CRC32 03 92,9 [E35C0D0C] [BE0DD13B] CRC32 04 97,4 [82841B92] [F393719E] CRC32 05 94,8 [48EB4192] [67E16168] CRC32 06 94,0 [F9937E4B] [00B6E828] CRC32 07 98,9 [EB962B1D] [9CBF55E1] CRC32 08 99,5 [8C28364F] [58005CE7] CRC32 09 97,5 [12E4EE3D] [C6C9DEF5] CRC32 10 88,1 [068C491E] [FD3C375A] CRC32 11 95,6 [2F0A3FB5] [5D3A9378] CRC32 12 58,7 [745D754F] [0053553D] CRC32

1995. Двое

Продолжительность: 00:45:11
Треклист:
1. Звёздная
2. Люли-люли
3. Нет денег
4. Муха-блюз
5. Беги-беги
6. бели-берда-микс
7. Ты на пути в Чикаго
8. Листик
9. Акварель
10. Белый лебедь

Лог создания рипа

Exact Audio Copy V1.1 from 23. June 2015
EAC extraction logfile from 26. August 2016, 19:07
Телевизор / Двое
Used drive : ASUS SDRW-08D1S-U Adapter: 1 ID: 1
Read mode : SecureUtilize accurate stream : YesDefeat audio cache : YesMake use of C2 pointers : No
Read offset correction : 103Overread into Lead-In and Lead-Out : NoFill up missing offset samples with silence : YesDelete leading and trailing silent blocks : NoNull samples used in CRC calculations : YesUsed interface : Native Win32 interface for Win NT & 2000Gap handling : Appended to previous track
Used output format : User Defined EncoderSelected bitrate : 1024 kBit/sQuality : HighAdd ID3 tag : NoCommand line compressor : J:\Program Files (x86)\Exact Audio Copy\Flac\flac.exeAdditional command line options : -V -8 -T "COMMENT=ripped by Krevetka1972 special for СПАМ -T "ARTIST=%artist%" -T "TITLE=%title%" -T "ALBUM=%albumtitle%" -T "DATE=%year%" -T "TRACKNUMBER=%tracknr%" -T "GENRE=%genre%" -T "ALBUMARTIST=%albuminterpret%" %source% -o Юst%
TOC of the extracted CD
Track | Start | Length | Start sector | End sector --------------------------------------------------------- 1 | 0:00.00 | 4:19.68 | 0 | 19492 2 | 4:19.68 | 4:16.50 | 19493 | 38742 3 | 8:36.43 | 4:47.65 | 38743 | 60332 4 | 13:24.33 | 3:57.44 | 60333 | 78151 5 | 17:22.02 | 3:24.43 | 78152 | 93494 6 | 20:46.45 | 6:38.23 | 93495 | 123367 7 | 27:24.68 | 5:02.35 | 123368 | 146052 8 | 32:27.28 | 4:15.46 | 146053 | 165223 9 | 36:42.74 | 4:21.25 | 165224 | 184823 10 | 41:04.24 | 4:06.52 | 184824 | 203325
Track 1
Filename G:\Телевизор\1995 - Двое (Геометрия # GEO 072 CD, GEO 073 CD)\1995 - Двое\01. Телевизор - Звёздная.wav
Pre-gap length 0:00:02.00
Peak level 98.8 % Extraction speed 1.1 X Track quality 99.9 % Test CRC 1C62AD15 Copy CRC 1C62AD15 Accurately ripped (confidence 2) [D5CEB4A9] (AR v2) Copy OK
Track 2
Filename G:\Телевизор\1995 - Двое (Геометрия # GEO 072 CD, GEO 073 CD)\1995 - Двое\02. Телевизор - Люли-Люли.wav
Pre-gap length 0:00:03.00
Peak level 98.8 % Extraction speed 1.4 X Track quality 100.0 % Test CRC D60E4C9D Copy CRC D60E4C9D Accurately ripped (confidence 2) [97E5E423] (AR v2) Copy OK
Track 3
Filename G:\Телевизор\1995 - Двое (Геометрия # GEO 072 CD, GEO 073 CD)\1995 - Двое\03. Телевизор - Нет Денег.wav
Pre-gap length 0:00:04.00
Peak level 98.8 % Extraction speed 1.6 X Track quality 100.0 % Test CRC BB6290E9 Copy CRC BB6290E9 Accurately ripped (confidence 2) [472A13A6] (AR v2) Copy OK
Track 4
Filename G:\Телевизор\1995 - Двое (Геометрия # GEO 072 CD, GEO 073 CD)\1995 - Двое\04. Телевизор - Муха-Блюз.wav
Pre-gap length 0:00:03.00
Peak level 98.8 % Extraction speed 1.7 X Track quality 100.0 % Test CRC 70548633 Copy CRC 70548633 Accurately ripped (confidence 2) [AF4568AC] (AR v2) Copy OK
Track 5
Filename G:\Телевизор\1995 - Двое (Геометрия # GEO 072 CD, GEO 073 CD)\1995 - Двое\05. Телевизор - Беги-Беги.wav
Pre-gap length 0:00:04.00
Peak level 98.8 % Extraction speed 1.7 X Track quality 100.0 % Test CRC D81D6165 Copy CRC D81D6165 Accurately ripped (confidence 2) [C150C661] (AR v2) Copy OK
Track 6
Filename G:\Телевизор\1995 - Двое (Геометрия # GEO 072 CD, GEO 073 CD)\1995 - Двое\06. Телевизор - Бели-Берда-Микс.wav
Pre-gap length 0:00:03.00
Peak level 98.8 % Extraction speed 2.0 X Track quality 100.0 % Test CRC 3C0213EB Copy CRC 3C0213EB Accurately ripped (confidence 2) [EF8A62B3] (AR v2) Copy OK
Track 7
Filename G:\Телевизор\1995 - Двое (Геометрия # GEO 072 CD, GEO 073 CD)\1995 - Двое\07. Телевизор - Ты На Пути В Чикаго.wav
Peak level 98.8 % Extraction speed 1.9 X Track quality 99.9 % Test CRC EB1C29AC Copy CRC EB1C29AC Accurately ripped (confidence 2) [E6DB6E3D] (AR v2) Copy OK
Track 8
Filename G:\Телевизор\1995 - Двое (Геометрия # GEO 072 CD, GEO 073 CD)\1995 - Двое\08. Телевизор - Листик.wav
Pre-gap length 0:00:03.00
Peak level 98.8 % Extraction speed 1.9 X Track quality 99.9 % Test CRC 3378F4DD Copy CRC 3378F4DD Accurately ripped (confidence 2) [C944BC91] (AR v2) Copy OK
Track 9
Filename G:\Телевизор\1995 - Двое (Геометрия # GEO 072 CD, GEO 073 CD)\1995 - Двое\09. Телевизор - Акварель.wav
Pre-gap length 0:00:03.00
Peak level 98.8 % Extraction speed 2.3 X Track quality 100.0 % Test CRC DB5C9FF6 Copy CRC DB5C9FF6 Accurately ripped (confidence 2) [D6AFD8C4] (AR v2) Copy OK
Track 10
Filename G:\Телевизор\1995 - Двое (Геометрия # GEO 072 CD, GEO 073 CD)\1995 - Двое\10. Телевизор - Белый Лебедь.wav
Pre-gap length 0:00:02.00
Peak level 95.5 % Extraction speed 2.0 X Track quality 99.9 % Test CRC FBD979E2 Copy CRC FBD979E2 Accurately ripped (confidence 2) [85E2CA53] (AR v2) Copy OK
All tracks accurately ripped
No errors occurred
End of status report
---- CUETools DB Plugin V2.1.6
[CTDB TOCID: o_tFl8OxehxRJ8tExAq5qvjZNzc-] foundSubmit result: o_tFl8OxehxRJ8tExAq5qvjZNzc- has been confirmedTrack | CTDB Status 1 | (3/3) Accurately ripped 2 | (3/3) Accurately ripped 3 | (3/3) Accurately ripped 4 | (3/3) Accurately ripped 5 | (3/3) Accurately ripped 6 | (3/3) Accurately ripped 7 | (3/3) Accurately ripped 8 | (3/3) Accurately ripped 9 | (3/3) Accurately ripped 10 | (3/3) Accurately ripped
==== Log checksum BEB048E44C6F0023F013468259174E9529129BF33B62FBC6A00CB0CF5463DF27 ====

Содержание индексной карты (.CUE)

PERFORMER "Телевизор"TITLE "Двое"REM DATE 1995REM DISCNUMBER 1REM TOTALDISCS 1REM GENRE "Rock"FILE "01. Звёздная.m4a" WAVE TRACK 01 AUDIO PERFORMER "Телевизор" TITLE "Звёздная" INDEX 01 00:00:00 TRACK 02 AUDIO PERFORMER "Телевизор" TITLE "Люли-люли" INDEX 00 04:16:68FILE "02. Люли-люли.m4a" WAVE INDEX 01 00:00:00 TRACK 03 AUDIO PERFORMER "Телевизор" TITLE "Нет денег" INDEX 00 04:12:50FILE "03. Нет денег.m4a" WAVE INDEX 01 00:00:00 TRACK 04 AUDIO PERFORMER "Телевизор" TITLE "Муха-блюз" INDEX 00 04:44:65FILE "04. Муха-блюз.m4a" WAVE INDEX 01 00:00:00 TRACK 05 AUDIO PERFORMER "Телевизор" TITLE "Беги-беги" INDEX 00 03:53:44FILE "05. Беги-беги.m4a" WAVE INDEX 01 00:00:00 TRACK 06 AUDIO PERFORMER "Телевизор" TITLE "Бели-берда-микс" INDEX 00 03:21:43FILE "06. Бели-берда-микс.m4a" WAVE INDEX 01 00:00:00FILE "07. Ты на пути в Чикаго.m4a" WAVE TRACK 07 AUDIO PERFORMER "Телевизор" TITLE "Ты на пути в Чикаго" INDEX 01 00:00:00 TRACK 08 AUDIO PERFORMER "Телевизор" TITLE "Листик" INDEX 00 04:59:35FILE "08. Листик.m4a" WAVE INDEX 01 00:00:00 TRACK 09 AUDIO PERFORMER "Телевизор" TITLE "Акварель" INDEX 00 04:12:46FILE "09. Акварель.m4a" WAVE INDEX 01 00:00:00 TRACK 10 AUDIO PERFORMER "Телевизор" TITLE "Белый лебедь" INDEX 00 04:19:25FILE "10. Белый лебедь.m4a" WAVE INDEX 01 00:00:00

Лог проверки качества

[CUETools log; Date: 10.02.2018 12:28:44; Version: 2.1.6][CTDB TOCID: o_tFl8OxehxRJ8tExAq5qvjZNzc-] found.Track | CTDB Status 1 | (4/4) Accurately ripped 2 | (4/4) Accurately ripped 3 | (4/4) Accurately ripped 4 | (4/4) Accurately ripped 5 | (4/4) Accurately ripped 6 | (4/4) Accurately ripped 7 | (4/4) Accurately ripped 8 | (4/4) Accurately ripped 9 | (4/4) Accurately ripped 10 | (4/4) Accurately ripped[AccurateRip ID: 0010fbb3-00889938-810a970a] found.Track [ CRC | V2 ] Status 01 [b9bcd347|d5ceb4a9] (0 3/3) Accurately ripped 02 [7638ea8d|97e5e423] (0 3/3) Accurately ripped 03 [614f3046|472a13a6] (0 3/3) Accurately ripped 04 [e21e5bfc|af4568ac] (0 3/3) Accurately ripped 05 [9f50c06a|c150c661] (0 3/3) Accurately ripped 06 [837c5ef8|ef8a62b3] (0 3/3) Accurately ripped 07 [41bc4137|e6db6e3d] (0 3/3) Accurately ripped 08 [fb124298|c944bc91] (0 3/3) Accurately ripped 09 [a8bd57d4|d6afd8c4] (0 3/3) Accurately ripped 10 [053fb6d0|85e2ca53] (0 3/3) Accurately ripped
Track Peak [ CRC32 ] [W/O NULL] [ LOG ] -- 98,8 [76C193AA] [0FF64C7A] 01 98,8 [1C62AD15] [B3815B02] CRC32 02 98,8 [D60E4C9D] [DBC5B7E5] CRC32 03 98,8 [BB6290E9] [58F82841] CRC32 04 98,8 [70548633] [910811D5] CRC32 05 98,8 [D81D6165] [7D3727A2] CRC32 06 98,8 [3C0213EB] [F894D7D0] CRC32 07 98,8 [EB1C29AC] [A41AF939] CRC32 08 98,8 [3378F4DD] [C55E66A3] CRC32 09 98,8 [DB5C9FF6] [191A2EBC] CRC32 10 95,5 [FBD979E2] [3D5A43A9] CRC32

2001. Путь к успеху

Продолжительность: 00:54:55
Треклист:
1. Путь к успеху
2. Укатила
3. Алла Борисна
4. Лают
5. Тепло
6. Дома
7. Ада нет
8. Палец
9. Негодяй
10. Душа
11. Быть бы
12. Дым (Bonus track)

Лог создания рипа

Exact Audio Copy V1.1 from 23. June 2015
EAC extraction logfile from 3. September 2016, 18:30
Телевизор / Путь К Успеху
Used drive : ASUS SDRW-08D1S-U Adapter: 1 ID: 1
Read mode : SecureUtilize accurate stream : YesDefeat audio cache : YesMake use of C2 pointers : No
Read offset correction : 103Overread into Lead-In and Lead-Out : NoFill up missing offset samples with silence : YesDelete leading and trailing silent blocks : NoNull samples used in CRC calculations : YesUsed interface : Native Win32 interface for Win NT & 2000Gap handling : Appended to previous track
Used output format : User Defined EncoderSelected bitrate : 1024 kBit/sQuality : HighAdd ID3 tag : NoCommand line compressor : J:\Program Files (x86)\Exact Audio Copy\Flac\flac.exeAdditional command line options : -V -8 -T "COMMENT=ripped by Krevetka1972 special for СПАМ -T "ARTIST=%artist%" -T "TITLE=%title%" -T "ALBUM=%albumtitle%" -T "DATE=%year%" -T "TRACKNUMBER=%tracknr%" -T "GENRE=%genre%" -T "ALBUMARTIST=%albuminterpret%" %source% -o Юst%
TOC of the extracted CD
Track | Start | Length | Start sector | End sector --------------------------------------------------------- 1 | 0:00.00 | 3:10.05 | 0 | 14254 2 | 3:10.05 | 3:42.03 | 14255 | 30907 3 | 6:52.08 | 3:37.57 | 30908 | 47239 4 | 10:29.65 | 4:01.71 | 47240 | 65385 5 | 14:31.61 | 5:22.44 | 65386 | 89579 6 | 19:54.30 | 7:21.30 | 89580 | 122684 7 | 27:15.60 | 5:32.44 | 122685 | 147628 8 | 32:48.29 | 2:16.03 | 147629 | 157831 9 | 35:04.32 | 3:30.50 | 157832 | 173631 10 | 38:35.07 | 5:46.32 | 173632 | 199613 11 | 44:21.39 | 6:05.66 | 199614 | 227054 12 | 50:27.30 | 4:28.33 | 227055 | 247187
Track 1
Filename G:\Телевизор\2001 - Путь К Успеху (Геометрия # GEO 098 CD)\01. Телевизор - Путь К Успеху.wav
Pre-gap length 0:00:02.00
Peak level 95.5 % Extraction speed 1.2 X Track quality 100.0 % Test CRC 629608CF Copy CRC 629608CF Accurately ripped (confidence 1) [7853E937] (AR v2) Copy OK
Track 2
Filename G:\Телевизор\2001 - Путь К Успеху (Геометрия # GEO 098 CD)\02. Телевизор - Укатала.wav
Peak level 95.5 % Extraction speed 1.3 X Track quality 100.0 % Test CRC AB96DD43 Copy CRC AB96DD43 Accurately ripped (confidence 1) [C2B0F5F5] (AR v2) Copy OK
Track 3
Filename G:\Телевизор\2001 - Путь К Успеху (Геометрия # GEO 098 CD)\03. Телевизор - Алла Борисна.wav
Peak level 89.5 % Extraction speed 1.2 X Track quality 99.9 % Test CRC AEB45F65 Copy CRC AEB45F65 Accurately ripped (confidence 1) [17DA79CB] (AR v2) Copy OK
Track 4
Filename G:\Телевизор\2001 - Путь К Успеху (Геометрия # GEO 098 CD)\04. Телевизор - Лают.wav
Peak level 95.5 % Extraction speed 1.5 X Track quality 100.0 % Test CRC B92E6AA3 Copy CRC B92E6AA3 Accurately ripped (confidence 1) [ED3AFA07] (AR v2) Copy OK
Track 5
Filename G:\Телевизор\2001 - Путь К Успеху (Геометрия # GEO 098 CD)\05. Телевизор - Тепло.wav
Peak level 94.4 % Extraction speed 1.7 X Track quality 100.0 % Test CRC 14373950 Copy CRC 14373950 Accurately ripped (confidence 1) [78B53D36] (AR v2) Copy OK
Track 6
Filename G:\Телевизор\2001 - Путь К Успеху (Геометрия # GEO 098 CD)\06. Телевизор - Dooma.wav
Peak level 96.6 % Extraction speed 1.9 X Track quality 100.0 % Test CRC 71545C0D Copy CRC 71545C0D Accurately ripped (confidence 1) [5F45C30F] (AR v2) Copy OK
Track 7
Filename G:\Телевизор\2001 - Путь К Успеху (Геометрия # GEO 098 CD)\07. Телевизор - Ада Нет.wav
Peak level 95.5 % Extraction speed 2.0 X Track quality 100.0 % Test CRC 3E5AA1E0 Copy CRC 3E5AA1E0 Accurately ripped (confidence 1) [656A8901] (AR v2) Copy OK
Track 8
Filename G:\Телевизор\2001 - Путь К Успеху (Геометрия # GEO 098 CD)\08. Телевизор - Палец.wav
Peak level 96.6 % Extraction speed 1.8 X Track quality 100.0 % Test CRC 15EB5CDC Copy CRC 15EB5CDC Accurately ripped (confidence 1) [47B1B3A0] (AR v2) Copy OK
Track 9
Filename G:\Телевизор\2001 - Путь К Успеху (Геометрия # GEO 098 CD)\09. Телевизор - Негодяй.wav
Peak level 95.5 % Extraction speed 2.1 X Track quality 100.0 % Test CRC F3103868 Copy CRC F3103868 Accurately ripped (confidence 1) [A9619A88] (AR v2) Copy OK
Track 10
Filename G:\Телевизор\2001 - Путь К Успеху (Геометрия # GEO 098 CD)\10. Телевизор - Душа.wav
Peak level 89.6 % Extraction speed 2.3 X Track quality 100.0 % Test CRC 9FB56E6B Copy CRC 9FB56E6B Accurately ripped (confidence 1) [06025DAD] (AR v2) Copy OK
Track 11
Filename G:\Телевизор\2001 - Путь К Успеху (Геометрия # GEO 098 CD)\11. Телевизор - Быть Бы.wav
Peak level 95.5 % Extraction speed 2.4 X Track quality 100.0 % Test CRC E454B23D Copy CRC E454B23D Accurately ripped (confidence 1) [CFB21D01] (AR v2) Copy OK
Track 12
Filename G:\Телевизор\2001 - Путь К Успеху (Геометрия # GEO 098 CD)\12. Kirill Komarov & Michail Borzykin - Дым (bonus).wav
Peak level 77.5 % Extraction speed 2.4 X Track quality 100.0 % Test CRC FFB1DD43 Copy CRC FFB1DD43 Accurately ripped (confidence 1) [BF09271D] (AR v2) Copy OK
All tracks accurately ripped
No errors occurred
End of status report
---- CUETools DB Plugin V2.1.6
[CTDB TOCID: wGnT9lDCNK7MskNPp0hjDx6UE2o-] foundSubmit result: wGnT9lDCNK7MskNPp0hjDx6UE2o- has been confirmedTrack | CTDB Status 1 | (2/2) Accurately ripped 2 | (2/2) Accurately ripped 3 | (2/2) Accurately ripped 4 | (2/2) Accurately ripped 5 | (2/2) Accurately ripped 6 | (2/2) Accurately ripped 7 | (2/2) Accurately ripped 8 | (2/2) Accurately ripped 9 | (2/2) Accurately ripped 10 | (2/2) Accurately ripped 11 | (2/2) Accurately ripped 12 | (2/2) Accurately ripped
==== Log checksum 3EB054D4B437B05BF4C7A1261719736C9A7FE58684687031434B34797E5E3F72 ====

Содержание индексной карты (.CUE)

REM COMMENT "ripped by Krevetka1972 special for СПАМPERFORMER "Телевизор"TITLE "Путь к успеху"REM DATE 2001REM DISCNUMBER 1REM TOTALDISCS 1REM GENRE "Rock"FILE "01. Путь к успеху.m4a" WAVE TRACK 01 AUDIO PERFORMER "Телевизор" TITLE "Путь к успеху" INDEX 01 00:00:00FILE "02. Укатала.m4a" WAVE TRACK 02 AUDIO PERFORMER "Телевизор" TITLE "Укатала" INDEX 01 00:00:00FILE "03. Алла Борисна.m4a" WAVE TRACK 03 AUDIO PERFORMER "Телевизор" TITLE "Алла Борисна" INDEX 01 00:00:00FILE "04. Лают.m4a" WAVE TRACK 04 AUDIO PERFORMER "Телевизор" TITLE "Лают" INDEX 01 00:00:00FILE "05. Тепло.m4a" WAVE TRACK 05 AUDIO PERFORMER "Телевизор" TITLE "Тепло" INDEX 01 00:00:00FILE "06. Dooma.m4a" WAVE TRACK 06 AUDIO PERFORMER "Телевизор" TITLE "Dooma" INDEX 01 00:00:00FILE "07. Ада нет.m4a" WAVE TRACK 07 AUDIO PERFORMER "Телевизор" TITLE "Ада нет" INDEX 01 00:00:00FILE "08. Палец.m4a" WAVE TRACK 08 AUDIO PERFORMER "Телевизор" TITLE "Палец" INDEX 01 00:00:00FILE "09. Негодяй.m4a" WAVE TRACK 09 AUDIO PERFORMER "Телевизор" TITLE "Негодяй" INDEX 01 00:00:00FILE "10. Душа.m4a" WAVE TRACK 10 AUDIO PERFORMER "Телевизор" TITLE "Душа" INDEX 01 00:00:00FILE "11. Быть бы.m4a" WAVE TRACK 11 AUDIO PERFORMER "Телевизор" TITLE "Быть бы" INDEX 01 00:00:00FILE "12. Дым (bonus).m4a" WAVE TRACK 12 AUDIO PERFORMER "Kirill Komarov & Michail Borzykin " TITLE "Дым (bonus)" INDEX 01 00:00:00

Лог проверки качества

[CUETools log; Date: 10.02.2018 12:33:05; Version: 2.1.6][CTDB TOCID: wGnT9lDCNK7MskNPp0hjDx6UE2o-] found.Track | CTDB Status 1 | (3/3) Accurately ripped 2 | (3/3) Accurately ripped 3 | (3/3) Accurately ripped 4 | (3/3) Accurately ripped 5 | (3/3) Accurately ripped 6 | (3/3) Accurately ripped 7 | (3/3) Accurately ripped 8 | (3/3) Accurately ripped 9 | (3/3) Accurately ripped 10 | (3/3) Accurately ripped 11 | (3/3) Accurately ripped 12 | (3/3) Accurately ripped[AccurateRip ID: 00173d3c-00dd548a-9b0cdf0c] found.Track [ CRC | V2 ] Status 01 [8ee59248|7853e937] (0 2/2) Accurately ripped 02 [53ad64c7|c2b0f5f5] (0 2/2) Accurately ripped 03 [56d73749|17da79cb] (0 2/2) Accurately ripped 04 [1f08bd14|ed3afa07] (0 2/2) Accurately ripped 05 [6ec3825b|78b53d36] (0 2/2) Accurately ripped 06 [9a128526|5f45c30f] (0 2/2) Accurately ripped 07 [190f2acc|656a8901] (0 2/2) Accurately ripped 08 [fa325254|47b1b3a0] (0 2/2) Accurately ripped 09 [84a9738d|a9619a88] (0 2/2) Accurately ripped 10 [1fe0bf13|06025dad] (0 2/2) Accurately ripped 11 [dfc3e72f|cfb21d01] (0 2/2) Accurately ripped 12 [f8aea655|bf09271d] (0 2/2) Accurately ripped
Track Peak [ CRC32 ] [W/O NULL] [ LOG ] -- 96,6 [945052CB] [73368A27] 01 95,5 [629608CF] [30EB5C22] CRC32 02 95,5 [AB96DD43] [4B247C3C] CRC32 03 89,5 [AEB45F65] [FE35A4A7] CRC32 04 95,5 [B92E6AA3] [8A6B3300] CRC32 05 94,4 [14373950] [D791E3DD] CRC32 06 96,6 [71545C0D] [953CE27A] CRC32 07 95,5 [3E5AA1E0] [C0A76443] CRC32 08 96,6 [15EB5CDC] [0945A93E] CRC32 09 95,5 [F3103868] [DCF595C4] CRC32 10 89,6 [9FB56E6B] [0793948B] CRC32 11 95,5 [E454B23D] [DE656BBC] CRC32 12 77,5 [FFB1DD43] [8E215317] CRC32

2004. Мегамизантроп

Продолжительность: 00:45:36
Треклист:
1. Мегамизантроп
2. Пустой
3. Аллилуйя
4. Обходи
5. Костыли
6. Молча
7. Ушла из дома
8. Тараканы
9. Пронесло
10. Бабуины
11. Если телефон молчит
12. Мандариновый снег

Лог создания рипа

Exact Audio Copy V1.1 from 23. June 2015
EAC extraction logfile from 25. August 2016, 21:25
Телевизор / МегаМизантроп
Used drive : ASUS SDRW-08D1S-U Adapter: 1 ID: 1
Read mode : SecureUtilize accurate stream : YesDefeat audio cache : YesMake use of C2 pointers : No
Read offset correction : 103Overread into Lead-In and Lead-Out : NoFill up missing offset samples with silence : YesDelete leading and trailing silent blocks : NoNull samples used in CRC calculations : YesUsed interface : Native Win32 interface for Win NT & 2000Gap handling : Appended to previous track
Used output format : User Defined EncoderSelected bitrate : 1024 kBit/sQuality : HighAdd ID3 tag : NoCommand line compressor : J:\Program Files (x86)\Exact Audio Copy\Flac\flac.exeAdditional command line options : -V -8 -T "COMMENT=ripped by Krevetka1972 special for СПАМ -T "ARTIST=%artist%" -T "TITLE=%title%" -T "ALBUM=%albumtitle%" -T "DATE=%year%" -T "TRACKNUMBER=%tracknr%" -T "GENRE=%genre%" -T "ALBUMARTIST=%albuminterpret%" %source% -o Юst%
TOC of the extracted CD
Track | Start | Length | Start sector | End sector --------------------------------------------------------- 1 | 0:00.00 | 3:19.07 | 0 | 14931 2 | 3:19.07 | 3:05.14 | 14932 | 28820 3 | 6:24.21 | 4:23.65 | 28821 | 48610 4 | 10:48.11 | 3:31.61 | 48611 | 64496 5 | 14:19.72 | 4:43.65 | 64497 | 85786 6 | 19:03.62 | 2:47.57 | 85787 | 98368 7 | 21:51.44 | 4:28.35 | 98369 | 118503 8 | 26:20.04 | 2:47.00 | 118504 | 131028 9 | 29:07.04 | 2:32.45 | 131029 | 142473 10 | 31:39.49 | 4:08.35 | 142474 | 161108 11 | 35:48.09 | 4:54.30 | 161109 | 183188 12 | 40:42.39 | 4:53.51 | 183189 | 205214
Track 1
Filename G:\Телевизор\2004 - МегаМизантроп (Геометрия # GEO 079 CD, GEO 080 CD)\2004 - МегаМизантроп\01. Телевизор - МегаМизантроп.wav
Pre-gap length 0:00:02.00
Peak level 98.8 % Extraction speed 1.2 X Track quality 100.0 % Test CRC 10E18B4B Copy CRC 10E18B4B Accurately ripped (confidence 1) [1A294C51] (AR v2) Copy OK
Track 2
Filename G:\Телевизор\2004 - МегаМизантроп (Геометрия # GEO 079 CD, GEO 080 CD)\2004 - МегаМизантроп\02. Телевизор - Пустой.wav
Peak level 98.8 % Extraction speed 1.3 X Track quality 100.0 % Test CRC 44F79968 Copy CRC 44F79968 Accurately ripped (confidence 1) [D0A3955B] (AR v2) Copy OK
Track 3
Filename G:\Телевизор\2004 - МегаМизантроп (Геометрия # GEO 079 CD, GEO 080 CD)\2004 - МегаМизантроп\03. Телевизор - Аллилуйя.wav
Peak level 94.4 % Extraction speed 1.5 X Track quality 100.0 % Test CRC 2F326467 Copy CRC 2F326467 Accurately ripped (confidence 1) [4BCFDF59] (AR v2) Copy OK
Track 4
Filename G:\Телевизор\2004 - МегаМизантроп (Геометрия # GEO 079 CD, GEO 080 CD)\2004 - МегаМизантроп\04. Телевизор - Обходи.wav
Peak level 98.8 % Extraction speed 1.3 X Track quality 99.9 % Test CRC E12A58EF Copy CRC E12A58EF Accurately ripped (confidence 1) [4786B74E] (AR v2) Copy OK
Track 5
Filename G:\Телевизор\2004 - МегаМизантроп (Геометрия # GEO 079 CD, GEO 080 CD)\2004 - МегаМизантроп\05. Телевизор - Костыли.wav
Peak level 98.8 % Extraction speed 1.5 X Track quality 99.9 % Test CRC 68D38551 Copy CRC 68D38551 Accurately ripped (confidence 1) [86B2A7BB] (AR v2) Copy OK
Track 6
Filename G:\Телевизор\2004 - МегаМизантроп (Геометрия # GEO 079 CD, GEO 080 CD)\2004 - МегаМизантроп\06. Телевизор - Молча.wav
Peak level 98.8 % Extraction speed 1.6 X Track quality 100.0 % Test CRC 36DB641C Copy CRC 36DB641C Accurately ripped (confidence 1) [1A847F0A] (AR v2) Copy OK
Track 7
Filename G:\Телевизор\2004 - МегаМизантроп (Геометрия # GEO 079 CD, GEO 080 CD)\2004 - МегаМизантроп\07. Телевизор - Ушла Из Дома.wav
Peak level 98.8 % Extraction speed 1.9 X Track quality 100.0 % Test CRC A47C5A21 Copy CRC A47C5A21 Accurately ripped (confidence 1) [FD6632A1] (AR v2) Copy OK
Track 8
Filename G:\Телевизор\2004 - МегаМизантроп (Геометрия # GEO 079 CD, GEO 080 CD)\2004 - МегаМизантроп\08. Телевизор - Тараканы.wav
Peak level 98.8 % Extraction speed 1.5 X Track quality 99.9 % Test CRC 63675E64 Copy CRC 63675E64 Accurately ripped (confidence 1) [ADA57B2A] (AR v2) Copy OK
Track 9
Filename G:\Телевизор\2004 - МегаМизантроп (Геометрия # GEO 079 CD, GEO 080 CD)\2004 - МегаМизантроп\09. Телевизор - Пронесло.wav
Peak level 98.8 % Extraction speed 1.8 X Track quality 100.0 % Test CRC 202A9E7A Copy CRC 202A9E7A Accurately ripped (confidence 1) [788F0BED] (AR v2) Copy OK
Track 10
Filename G:\Телевизор\2004 - МегаМизантроп (Геометрия # GEO 079 CD, GEO 080 CD)\2004 - МегаМизантроп\10. Телевизор - Бабуины.wav
Peak level 98.8 % Extraction speed 2.1 X Track quality 100.0 % Test CRC FBF3E7A1 Copy CRC FBF3E7A1 Accurately ripped (confidence 1) [6D82AED5] (AR v2) Copy OK
Track 11
Filename G:\Телевизор\2004 - МегаМизантроп (Геометрия # GEO 079 CD, GEO 080 CD)\2004 - МегаМизантроп\11. Телевизор - Если Телефон Молчит.wav
Peak level 85.9 % Extraction speed 2.2 X Track quality 100.0 % Test CRC A1676AF4 Copy CRC A1676AF4 Accurately ripped (confidence 1) [F990D8C4] (AR v2) Copy OK
Track 12
Filename G:\Телевизор\2004 - МегаМизантроп (Геометрия # GEO 079 CD, GEO 080 CD)\2004 - МегаМизантроп\12. Телевизор - Мандариновый Снег.wav
Peak level 89.1 % Extraction speed 2.3 X Track quality 100.0 % Test CRC CB8BA845 Copy CRC CB8BA845 Accurately ripped (confidence 1) [9A81A1AF] (AR v2) Copy OK
All tracks accurately ripped
No errors occurred
End of status report
---- CUETools DB Plugin V2.1.6
[CTDB TOCID: 8D7lNXmCM88Oxqj0Yp8pvztSLY0-] foundSubmit result: 8D7lNXmCM88Oxqj0Yp8pvztSLY0- has been confirmedTrack | CTDB Status 1 | (4/4) Accurately ripped 2 | (4/4) Accurately ripped 3 | (4/4) Accurately ripped 4 | (4/4) Accurately ripped 5 | (4/4) Accurately ripped 6 | (4/4) Accurately ripped 7 | (4/4) Accurately ripped 8 | (4/4) Accurately ripped 9 | (4/4) Accurately ripped 10 | (4/4) Accurately ripped 11 | (4/4) Accurately ripped 12 | (4/4) Accurately ripped
==== Log checksum F5C6F65DF1F7BE7CC1FD1DBF174BDDAF14F6ED77951875829BA32927111A7156 ====

Содержание индексной карты (.CUE)

PERFORMER "Телевизор"TITLE "Мегамизантроп"REM DATE 2004REM DISCNUMBER 1REM TOTALDISCS 1FILE "01. Мегамизантроп.m4a" WAVE TRACK 01 AUDIO PERFORMER "Телевизор" TITLE "Мегамизантроп" INDEX 01 00:00:00FILE "02. Пустой.m4a" WAVE TRACK 02 AUDIO PERFORMER "Телевизор" TITLE "Пустой" INDEX 01 00:00:00FILE "03. Аллилуйя.m4a" WAVE TRACK 03 AUDIO PERFORMER "Телевизор" TITLE "Аллилуйя" INDEX 01 00:00:00FILE "04. Обходи.m4a" WAVE TRACK 04 AUDIO PERFORMER "Телевизор" TITLE "Обходи" INDEX 01 00:00:00FILE "05. Костыли.m4a" WAVE TRACK 05 AUDIO PERFORMER "Телевизор" TITLE "Костыли" INDEX 01 00:00:00FILE "06. Молча.m4a" WAVE TRACK 06 AUDIO PERFORMER "Телевизор" TITLE "Молча" INDEX 01 00:00:00FILE "07. Ушла из дома.m4a" WAVE TRACK 07 AUDIO PERFORMER "Телевизор" TITLE "Ушла из дома" INDEX 01 00:00:00FILE "08. Тараканы.m4a" WAVE TRACK 08 AUDIO PERFORMER "Телевизор" TITLE "Тараканы" INDEX 01 00:00:00FILE "09. Пронесло.m4a" WAVE TRACK 09 AUDIO PERFORMER "Телевизор" TITLE "Пронесло" INDEX 01 00:00:00FILE "10. Бабуины.m4a" WAVE TRACK 10 AUDIO PERFORMER "Телевизор" TITLE "Бабуины" INDEX 01 00:00:00FILE "11. Если телефон молчит.m4a" WAVE TRACK 11 AUDIO PERFORMER "Телевизор" TITLE "Если телефон молчит" INDEX 01 00:00:00FILE "12. Мандариновый снег.m4a" WAVE TRACK 12 AUDIO PERFORMER "Телевизор" TITLE "Мандариновый снег" INDEX 01 00:00:00

Лог проверки качества

[CUETools log; Date: 10.02.2018 12:34:57; Version: 2.1.6][CTDB TOCID: 8D7lNXmCM88Oxqj0Yp8pvztSLY0-] found.Track | CTDB Status 1 | (5/5) Accurately ripped 2 | (5/5) Accurately ripped 3 | (5/5) Accurately ripped 4 | (5/5) Accurately ripped 5 | (5/5) Accurately ripped 6 | (5/5) Accurately ripped 7 | (5/5) Accurately ripped 8 | (5/5) Accurately ripped 9 | (5/5) Accurately ripped 10 | (5/5) Accurately ripped 11 | (5/5) Accurately ripped 12 | (5/5) Accurately ripped[AccurateRip ID: 001391e9-00b783e9-890ab00c] found.Track [ CRC | V2 ] Status 01 [3fddbafe|1a294c51] (0 1/1) Accurately ripped 02 [fc2316b7|d0a3955b] (0 1/1) Accurately ripped 03 [869e2d1c|4bcfdf59] (0 1/1) Accurately ripped 04 [8ef58916|4786b74e] (0 1/1) Accurately ripped 05 [d10bd15a|86b2a7bb] (0 1/1) Accurately ripped 06 [3698e554|1a847f0a] (0 1/1) Accurately ripped 07 [f799ee6a|fd6632a1] (0 1/1) Accurately ripped 08 [fd33230f|ada57b2a] (0 1/1) Accurately ripped 09 [cea28fe4|788f0bed] (0 1/1) Accurately ripped 10 [a25d4a9e|6d82aed5] (0 1/1) Accurately ripped 11 [992f23e1|f990d8c4] (0 1/1) Accurately ripped 12 [e0adfefe|9a81a1af] (0 1/1) Accurately ripped
Track Peak [ CRC32 ] [W/O NULL] [ LOG ] -- 98,8 [DEC63FE3] [4B3280BD] 01 98,8 [10E18B4B] [DBE431A4] CRC32 02 98,8 [44F79968] [5EB0991A] CRC32 03 94,4 [2F326467] [DEA82731] CRC32 04 98,8 [E12A58EF] [2B9867F8] CRC32 05 98,8 [68D38551] [08B8C397] CRC32 06 98,8 [36DB641C] [A5EDA62B] CRC32 07 98,8 [A47C5A21] [89C3EBB4] CRC32 08 98,8 [63675E64] [F4968C85] CRC32 09 98,8 [202A9E7A] [7E538235] CRC32 10 98,8 [FBF3E7A1] [64BA30DF] CRC32 11 85,9 [A1676AF4] [5DCE4295] CRC32 12 89,1 [CB8BA845] [28D1B009] CRC32

2005. Отчуждение-2005

Продолжительность: 00:42:36
Треклист:
1. Отчуждение
2. Холод
3. Вера
4. Пластмасса
5. Музыка для мертвых
6. Потребитель
7. Дети уходят
8. Три-четыре гада
9. Политпесня
10. Не плачь
11. Все в порядке

Лог создания рипа

Exact Audio Copy V1.1 from 23. June 2015
EAC extraction logfile from 25. August 2016, 20:17
Телевизор / Отчуждение 2005
Used drive : ASUS SDRW-08D1S-U Adapter: 1 ID: 1
Read mode : SecureUtilize accurate stream : YesDefeat audio cache : YesMake use of C2 pointers : No
Read offset correction : 103Overread into Lead-In and Lead-Out : NoFill up missing offset samples with silence : YesDelete leading and trailing silent blocks : NoNull samples used in CRC calculations : YesUsed interface : Native Win32 interface for Win NT & 2000Gap handling : Appended to previous track
Used output format : User Defined EncoderSelected bitrate : 1024 kBit/sQuality : HighAdd ID3 tag : NoCommand line compressor : J:\Program Files (x86)\Exact Audio Copy\Flac\flac.exeAdditional command line options : -V -8 -T "COMMENT=ripped by Krevetka1972 special for СПАМ -T "ARTIST=%artist%" -T "TITLE=%title%" -T "ALBUM=%albumtitle%" -T "DATE=%year%" -T "TRACKNUMBER=%tracknr%" -T "GENRE=%genre%" -T "ALBUMARTIST=%albuminterpret%" %source% -o Юst%
TOC of the extracted CD
Track | Start | Length | Start sector | End sector --------------------------------------------------------- 1 | 0:00.00 | 3:59.39 | 0 | 17963 2 | 3:59.39 | 5:03.41 | 17964 | 40729 3 | 9:03.05 | 3:19.18 | 40730 | 55672 4 | 12:22.23 | 4:12.40 | 55673 | 74612 5 | 16:34.63 | 4:20.67 | 74613 | 94179 6 | 20:55.55 | 3:05.08 | 94180 | 108062 7 | 24:00.63 | 3:48.34 | 108063 | 125196 8 | 27:49.22 | 2:43.65 | 125197 | 137486 9 | 30:33.12 | 3:55.03 | 137487 | 155114 10 | 34:28.15 | 4:12.53 | 155115 | 174067 11 | 38:40.68 | 3:55.27 | 174068 | 191719
Track 1
Filename G:\Телевизор\1989-2005 - Отчуждение (Геометрия # GEO 087 CD, GEO 088 CD)\CD - 2005\01. Телевизор - Отчуждение.wav
Pre-gap length 0:00:02.00
Peak level 94.2 % Extraction speed 1.2 X Track quality 100.0 % Test CRC FF70F62D Copy CRC FF70F62D Accurately ripped (confidence 1) [D79E9F9C] (AR v2) Copy OK
Track 2
Filename G:\Телевизор\1989-2005 - Отчуждение (Геометрия # GEO 087 CD, GEO 088 CD)\CD - 2005\02. Телевизор - Холод.wav
Peak level 98.7 % Extraction speed 1.4 X Track quality 100.0 % Test CRC ADCA0A15 Copy CRC ADCA0A15 Accurately ripped (confidence 1) [15574054] (AR v2) Copy OK
Track 3
Filename G:\Телевизор\1989-2005 - Отчуждение (Геометрия # GEO 087 CD, GEO 088 CD)\CD - 2005\03. Телевизор - Вера.wav
Peak level 89.9 % Extraction speed 1.5 X Track quality 100.0 % Test CRC 0E8A1F63 Copy CRC 0E8A1F63 Accurately ripped (confidence 1) [5F4938CF] (AR v2) Copy OK
Track 4
Filename G:\Телевизор\1989-2005 - Отчуждение (Геометрия # GEO 087 CD, GEO 088 CD)\CD - 2005\04. Телевизор - Пластмасса.wav
Peak level 90.9 % Extraction speed 1.6 X Track quality 100.0 % Test CRC F4F4EB76 Copy CRC F4F4EB76 Accurately ripped (confidence 1) [5A73A000] (AR v2) Copy OK
Track 5
Filename G:\Телевизор\1989-2005 - Отчуждение (Геометрия # GEO 087 CD, GEO 088 CD)\CD - 2005\05. Телевизор - Музыка для мёртвых.wav
Peak level 93.8 % Extraction speed 1.7 X Track quality 100.0 % Test CRC D4E0EDF3 Copy CRC D4E0EDF3 Accurately ripped (confidence 1) [37A726A1] (AR v2) Copy OK
Track 6
Filename G:\Телевизор\1989-2005 - Отчуждение (Геометрия # GEO 087 CD, GEO 088 CD)\CD - 2005\06. Телевизор - Потребитель.wav
Peak level 93.9 % Extraction speed 1.7 X Track quality 100.0 % Test CRC F7644181 Copy CRC F7644181 Accurately ripped (confidence 1) [D4B231D7] (AR v2) Copy OK
Track 7
Filename G:\Телевизор\1989-2005 - Отчуждение (Геометрия # GEO 087 CD, GEO 088 CD)\CD - 2005\07. Телевизор - Дети уходят.wav
Peak level 92.9 % Extraction speed 1.9 X Track quality 100.0 % Test CRC DF988D28 Copy CRC DF988D28 Accurately ripped (confidence 1) [745F41DA] (AR v2) Copy OK
Track 8
Filename G:\Телевизор\1989-2005 - Отчуждение (Геометрия # GEO 087 CD, GEO 088 CD)\CD - 2005\08. Телевизор - Три-четыре гада.wav
Peak level 95.0 % Extraction speed 1.8 X Track quality 100.0 % Test CRC AD455DFD Copy CRC AD455DFD Accurately ripped (confidence 1) [A31EF2E0] (AR v2) Copy OK
Track 9
Filename G:\Телевизор\1989-2005 - Отчуждение (Геометрия # GEO 087 CD, GEO 088 CD)\CD - 2005\09. Телевизор - Политпесня.wav
Peak level 91.1 % Extraction speed 1.8 X Track quality 99.9 % Test CRC B71AEFF6 Copy CRC B71AEFF6 Accurately ripped (confidence 1) [372622B6] (AR v2) Copy OK
Track 10
Filename G:\Телевизор\1989-2005 - Отчуждение (Геометрия # GEO 087 CD, GEO 088 CD)\CD - 2005\10. Телевизор - Не плачь.wav
Peak level 96.4 % Extraction speed 2.1 X Track quality 100.0 % Test CRC 95B70BC7 Copy CRC 95B70BC7 Accurately ripped (confidence 1) [1102C26E] (AR v2) Copy OK
Track 11
Filename G:\Телевизор\1989-2005 - Отчуждение (Геометрия # GEO 087 CD, GEO 088 CD)\CD - 2005\11. Телевизор - Всё в порядке.wav
Peak level 96.6 % Extraction speed 1.9 X Track quality 99.9 % Test CRC 358F3F1B Copy CRC 358F3F1B Accurately ripped (confidence 1) [EBA6EBE9] (AR v2) Copy OK
All tracks accurately ripped
No errors occurred
End of status report
---- CUETools DB Plugin V2.1.6
[CTDB TOCID: N0z.9z1HM69m7dxSaWJuVo9nGoQ-] foundSubmit result: N0z.9z1HM69m7dxSaWJuVo9nGoQ- has been confirmedTrack | CTDB Status 1 | (3/3) Accurately ripped 2 | (3/3) Accurately ripped 3 | (3/3) Accurately ripped 4 | (3/3) Accurately ripped 5 | (3/3) Accurately ripped 6 | (3/3) Accurately ripped 7 | (3/3) Accurately ripped 8 | (3/3) Accurately ripped 9 | (3/3) Accurately ripped 10 | (3/3) Accurately ripped 11 | (3/3) Accurately ripped
==== Log checksum F6B7725407EA1830610BCEC3B6A1A30F8F2738A13D386C432982D618012FED40 ====

Содержание индексной карты (.CUE)

REM COMMENT "ripped by Krevetka1972 special for СПАМPERFORMER "Телевизор"TITLE "Отчуждение 2005"REM DATE 2005REM DISCNUMBER 1REM TOTALDISCS 1REM GENRE "Rock"FILE "01. Отчуждение.m4a" WAVE TRACK 01 AUDIO PERFORMER "Телевизор" TITLE "Отчуждение" INDEX 01 00:00:00FILE "02. Холод.m4a" WAVE TRACK 02 AUDIO PERFORMER "Телевизор" TITLE "Холод" INDEX 01 00:00:00FILE "03. Вера.m4a" WAVE TRACK 03 AUDIO PERFORMER "Телевизор" TITLE "Вера" INDEX 01 00:00:00FILE "04. Пластмасса.m4a" WAVE TRACK 04 AUDIO PERFORMER "Телевизор" TITLE "Пластмасса" INDEX 01 00:00:00FILE "05. Музыка для мёртвых.m4a" WAVE TRACK 05 AUDIO PERFORMER "Телевизор" TITLE "Музыка для мёртвых" INDEX 01 00:00:00FILE "06. Потребитель.m4a" WAVE TRACK 06 AUDIO PERFORMER "Телевизор" TITLE "Потребитель" INDEX 01 00:00:00FILE "07. Дети уходят.m4a" WAVE TRACK 07 AUDIO PERFORMER "Телевизор" TITLE "Дети уходят" INDEX 01 00:00:00FILE "08. Три-четыре гада.m4a" WAVE TRACK 08 AUDIO PERFORMER "Телевизор" TITLE "Три-четыре гада" INDEX 01 00:00:00FILE "09. Политпесня.m4a" WAVE TRACK 09 AUDIO PERFORMER "Телевизор" TITLE "Политпесня" INDEX 01 00:00:00FILE "10. Не плачь.m4a" WAVE TRACK 10 AUDIO PERFORMER "Телевизор" TITLE "Не плачь" INDEX 01 00:00:00FILE "11. Всё в порядке.m4a" WAVE TRACK 11 AUDIO PERFORMER "Телевизор" TITLE "Всё в порядке" INDEX 01 00:00:00

Лог проверки качества

[CUETools log; Date: 10.02.2018 12:20:55; Version: 2.1.6][CTDB TOCID: N0z.9z1HM69m7dxSaWJuVo9nGoQ-] found.Track | CTDB Status 1 | (4/4) Accurately ripped 2 | (4/4) Accurately ripped 3 | (4/4) Accurately ripped 4 | (4/4) Accurately ripped 5 | (4/4) Accurately ripped 6 | (4/4) Accurately ripped 7 | (4/4) Accurately ripped 8 | (4/4) Accurately ripped 9 | (4/4) Accurately ripped 10 | (4/4) Accurately ripped 11 | (4/4) Accurately ripped[AccurateRip ID: 0011ed1a-0099d27e-8a09fc0b] found.Track [ CRC | V2 ] Status 01 [7bd84f64|d79e9f9c] (0 2/2) Accurately ripped 02 [d08283e8|15574054] (0 2/2) Accurately ripped 03 [36a2191a|5f4938cf] (0 2/2) Accurately ripped 04 [95e4bd81|5a73a000] (0 2/2) Accurately ripped 05 [6a8e340e|37a726a1] (0 2/2) Accurately ripped 06 [59eb30fe|d4b231d7] (0 2/2) Accurately ripped 07 [d018feb1|745f41da] (0 2/2) Accurately ripped 08 [031c2047|a31ef2e0] (0 2/2) Accurately ripped 09 [bc124d84|372622b6] (0 2/2) Accurately ripped 10 [aa80bdf8|1102c26e] (0 2/2) Accurately ripped 11 [dacc8048|eba6ebe9] (0 2/2) Accurately ripped
Track Peak [ CRC32 ] [W/O NULL] [ LOG ] -- 98,7 [C834D857] [FD826B58] 01 94,2 [FF70F62D] [66686D17] CRC32 02 98,7 [ADCA0A15] [659DFBDB] CRC32 03 89,9 [0E8A1F63] [0B1BDB95] CRC32 04 90,9 [F4F4EB76] [03150F01] CRC32 05 93,8 [D4E0EDF3] [64DC1974] CRC32 06 93,9 [F7644181] [00215865] CRC32 07 92,9 [DF988D28] [9F5DE44F] CRC32 08 95,0 [AD455DFD] [201D80A2] CRC32 09 91,1 [B71AEFF6] [489BC3F0] CRC32 10 96,4 [95B70BC7] [FEDE4615] CRC32 11 96,6 [358F3F1B] [93A4C8F5] CRC32

2009. Дежавю

Продолжительность: 00:44:00
Треклист:
1. Дежавю
2. Заколотите подвал
3. Квадраты
4. Пока мы сидим
5. Сиди дома
6. Очки
7. Глупая
8. Пока ты со мной
9. Газпромбайтер
10. Околесица
11. Тишина

Лог создания рипа

Exact Audio Copy V1.1 from 23. June 2015
EAC extraction logfile from 24. August 2016, 21:45
Телевизор / Дежавю
Used drive : ASUS SDRW-08D1S-U Adapter: 1 ID: 1
Read mode : SecureUtilize accurate stream : YesDefeat audio cache : YesMake use of C2 pointers : No
Read offset correction : 103Overread into Lead-In and Lead-Out : NoFill up missing offset samples with silence : YesDelete leading and trailing silent blocks : NoNull samples used in CRC calculations : YesUsed interface : Native Win32 interface for Win NT & 2000Gap handling : Appended to previous track
Used output format : User Defined EncoderSelected bitrate : 1024 kBit/sQuality : HighAdd ID3 tag : NoCommand line compressor : J:\Program Files (x86)\Exact Audio Copy\Flac\flac.exeAdditional command line options : -V -8 -T "COMMENT=ripped by Krevetka1972 special for СПАМ -T "ARTIST=%artist%" -T "TITLE=%title%" -T "ALBUM=%albumtitle%" -T "DATE=%year%" -T "TRACKNUMBER=%tracknr%" -T "GENRE=%genre%" -T "ALBUMARTIST=%albuminterpret%" %source% -o Юst%
TOC of the extracted CD
Track | Start | Length | Start sector | End sector --------------------------------------------------------- 1 | 0:00.00 | 5:01.04 | 0 | 22578 2 | 5:01.04 | 3:31.02 | 22579 | 38405 3 | 8:32.06 | 2:42.22 | 38406 | 50577 4 | 11:14.28 | 3:59.18 | 50578 | 68520 5 | 15:13.46 | 2:58.57 | 68521 | 81927 6 | 18:12.28 | 4:32.15 | 81928 | 102342 7 | 22:44.43 | 4:18.04 | 102343 | 121696 8 | 27:02.47 | 3:53.46 | 121697 | 139217 9 | 30:56.18 | 5:06.04 | 139218 | 162171 10 | 36:02.22 | 3:43.16 | 162172 | 178912 11 | 39:45.38 | 4:15.28 | 178913 | 198065
Track 1
Filename G:\Телевизор\2009 - Дежавю (Геометрия # GEO 019 CD)\01. Телевизор - Дежавю.wav
Pre-gap length 0:00:02.00
Peak level 98.2 % Extraction speed 1.3 X Track quality 100.0 % Test CRC C8395AF6 Copy CRC C8395AF6 Accurately ripped (confidence 2) [843C7161] (AR v2) Copy OK
Track 2
Filename G:\Телевизор\2009 - Дежавю (Геометрия # GEO 019 CD)\02. Телевизор - Заколотите подвал.wav
Pre-gap length 0:00:03.00
Peak level 98.3 % Extraction speed 1.4 X Track quality 100.0 % Test CRC B6B4FC2E Copy CRC B6B4FC2E Accurately ripped (confidence 2) [53C3EBD1] (AR v2) Copy OK
Track 3
Filename G:\Телевизор\2009 - Дежавю (Геометрия # GEO 019 CD)\03. Телевизор - Квадраты.wav
Pre-gap length 0:00:03.00
Peak level 98.2 % Extraction speed 1.4 X Track quality 100.0 % Test CRC 4DF2C6A7 Copy CRC 4DF2C6A7 Accurately ripped (confidence 2) [D1E4CAE3] (AR v2) Copy OK
Track 4
Filename G:\Телевизор\2009 - Дежавю (Геометрия # GEO 019 CD)\04. Телевизор - Пока мы сидим.wav
Pre-gap length 0:00:03.00
Peak level 96.6 % Extraction speed 1.6 X Track quality 100.0 % Test CRC BC597FDE Copy CRC BC597FDE Accurately ripped (confidence 2) [0C47A365] (AR v2) Copy OK
Track 5
Filename G:\Телевизор\2009 - Дежавю (Геометрия # GEO 019 CD)\05. Телевизор - Сиди дома.wav
Pre-gap length 0:00:03.00
Peak level 98.2 % Extraction speed 1.6 X Track quality 100.0 % Test CRC 4C5A9B53 Copy CRC 4C5A9B53 Accurately ripped (confidence 2) [E3BE67C1] (AR v2) Copy OK
Track 6
Filename G:\Телевизор\2009 - Дежавю (Геометрия # GEO 019 CD)\06. Телевизор - Очки.wav
Pre-gap length 0:00:03.00
Peak level 82.7 % Extraction speed 1.8 X Track quality 100.0 % Test CRC 05CBBB72 Copy CRC 05CBBB72 Accurately ripped (confidence 2) [97826E5F] (AR v2) Copy OK
Track 7
Filename G:\Телевизор\2009 - Дежавю (Геометрия # GEO 019 CD)\07. Телевизор - Глупая.wav
Pre-gap length 0:00:03.00
Peak level 98.2 % Extraction speed 1.9 X Track quality 100.0 % Test CRC 56085721 Copy CRC 56085721 Accurately ripped (confidence 2) [145EE41C] (AR v2) Copy OK
Track 8
Filename G:\Телевизор\2009 - Дежавю (Геометрия # GEO 019 CD)\08. Телевизор - Пока ты со мной.wav
Pre-gap length 0:00:03.00
Peak level 98.2 % Extraction speed 2.0 X Track quality 100.0 % Test CRC 963FEBA7 Copy CRC 963FEBA7 Accurately ripped (confidence 2) [9C1DC888] (AR v2) Copy OK
Track 9
Filename G:\Телевизор\2009 - Дежавю (Геометрия # GEO 019 CD)\09. Телевизор - Газпромбайтер.wav
Pre-gap length 0:00:03.00
Peak level 98.2 % Extraction speed 2.0 X Track quality 99.9 % Test CRC FE41DEC5 Copy CRC FE41DEC5 Accurately ripped (confidence 2) [0E8D914F] (AR v2) Copy OK
Track 10
Filename G:\Телевизор\2009 - Дежавю (Геометрия # GEO 019 CD)\10. Телевизор - Околесица.wav
Pre-gap length 0:00:03.00
Peak level 98.2 % Extraction speed 1.6 X Track quality 99.9 % Test CRC 744081E8 Copy CRC 744081E8 Accurately ripped (confidence 2) [D87C9B21] (AR v1) Copy OK
Track 11
Filename G:\Телевизор\2009 - Дежавю (Геометрия # GEO 019 CD)\11. Телевизор - Тишина.wav
Pre-gap length 0:00:03.00
Peak level 98.2 % Extraction speed 2.3 X Track quality 100.0 % Test CRC 51378E84 Copy CRC 51378E84 Accurately ripped (confidence 2) [64582D49] (AR v2) Copy OK
All tracks accurately ripped
No errors occurred
End of status report
---- CUETools DB Plugin V2.1.6
[CTDB TOCID: srRglZS3uBOecbEWT5ECAHFtGWU-] foundSubmit result: srRglZS3uBOecbEWT5ECAHFtGWU- has been confirmedTrack | CTDB Status 1 | (8/8) Accurately ripped 2 | (8/8) Accurately ripped 3 | (8/8) Accurately ripped 4 | (8/8) Accurately ripped 5 | (8/8) Accurately ripped 6 | (8/8) Accurately ripped 7 | (8/8) Accurately ripped 8 | (8/8) Accurately ripped 9 | (6/8) Accurately ripped, or (1/8) differs in 208 samples @02:27:47,02:32:14-02:32:15,02:44:18,02:58:14,04:35:56 10 | (4/8) Accurately ripped, or (1/8) differs in 36 samples @01:36:24-01:36:25, or (1/8) differs in 49 samples @01:36:24-01:36:25,02:01:70, or (1/8) differs in 2071 samples @00:22:70,00:23:11,00:23:27,00:26:27,00:26:43,00:26:59-00:26:60,00:27:00,00:27:64-00:27:65,00:30:48,00:33:64,00:34:05-00:34:06,00:34:21-00:34:22,00:34:69-00:34:70,00:35:26-00:35:27,00:35:59,00:36:32,00:36:48,00:37:21-00:37:22,00:38:27,00:39:00-00:39:01,00:40:22,00:41:59,00:42:16-00:42:17,00:42:65,00:43:06,00:43:22,00:43:54-00:43:55,00:44:27-00:44:28,00:52:23-00:52:24,00:54:19,01:04:11,01:06:23,01:08:02,01:22:04,01:31:10,01:35:18-01:35:19,01:36:24-01:36:25,01:38:37,01:39:27,01:41:07,01:42:29-01:42:30,01:47:45,01:49:09,01:55:47,02:01:70,02:25:67,02:56:07 11 | (7/8) Accurately ripped, or (1/8) differs in 24 samples @01:12:49,01:23:29
==== Log checksum 57B0E37F049B2469BE802B4D6578B65E321B5BF55BB53EF8EFEDB7886B1330A4 ====

Содержание индексной карты (.CUE)

PERFORMER "Телевизор"TITLE "Дежавю"REM DATE 2009REM DISCNUMBER 1REM TOTALDISCS 1REM GENRE "Rock"FILE "01. Дежавю.m4a" WAVE TRACK 01 AUDIO PERFORMER "Телевизор" TITLE "Дежавю" INDEX 01 00:00:00 TRACK 02 AUDIO PERFORMER "Телевизор" TITLE "Заколотите подвал" INDEX 00 04:58:04FILE "02. Заколотите подвал.m4a" WAVE INDEX 01 00:00:00 TRACK 03 AUDIO PERFORMER "Телевизор" TITLE "Квадраты" INDEX 00 03:28:02FILE "03. Квадраты.m4a" WAVE INDEX 01 00:00:00 TRACK 04 AUDIO PERFORMER "Телевизор" TITLE "Пока мы сидим" INDEX 00 02:39:22FILE "04. Пока мы сидим.m4a" WAVE INDEX 01 00:00:00 TRACK 05 AUDIO PERFORMER "Телевизор" TITLE "Сиди дома" INDEX 00 03:56:18FILE "05. Сиди дома.m4a" WAVE INDEX 01 00:00:00 TRACK 06 AUDIO PERFORMER "Телевизор" TITLE "Очки" INDEX 00 02:55:57FILE "06. Очки.m4a" WAVE INDEX 01 00:00:00 TRACK 07 AUDIO PERFORMER "Телевизор" TITLE "Глупая" INDEX 00 04:29:15FILE "07. Глупая.m4a" WAVE INDEX 01 00:00:00 TRACK 08 AUDIO PERFORMER "Телевизор" TITLE "Пока ты со мной" INDEX 00 04:15:04FILE "08. Пока ты со мной.m4a" WAVE INDEX 01 00:00:00 TRACK 09 AUDIO PERFORMER "Телевизор" TITLE "Газпромбайтер" INDEX 00 03:50:46FILE "09. Газпромбайтер.m4a" WAVE INDEX 01 00:00:00 TRACK 10 AUDIO PERFORMER "Телевизор" TITLE "Околесица" INDEX 00 05:03:04FILE "10. Околесица.m4a" WAVE INDEX 01 00:00:00 TRACK 11 AUDIO PERFORMER "Телевизор" TITLE "Тишина" INDEX 00 03:40:16FILE "11. Тишина.m4a" WAVE INDEX 01 00:00:00

Лог проверки качества

[CUETools log; Date: 10.02.2018 12:36:27; Version: 2.1.6][CTDB TOCID: srRglZS3uBOecbEWT5ECAHFtGWU-] found.Track | CTDB Status 1 | (9/9) Accurately ripped 2 | (9/9) Accurately ripped 3 | (9/9) Accurately ripped 4 | (9/9) Accurately ripped 5 | (9/9) Accurately ripped 6 | (9/9) Accurately ripped 7 | (9/9) Accurately ripped 8 | (9/9) Accurately ripped 9 | (7/9) Accurately ripped 10 | (5/9) Accurately ripped 11 | (8/9) Accurately ripped[AccurateRip ID: 0011c485-009a35f4-960a500b] found.Track [ CRC | V2 ] Status 01 [9fe7e97f|843c7161] (6 3/9) Accurately ripped 02 [b2052abe|53c3ebd1] (6 3/9) Accurately ripped 03 [ffb35c59|d1e4cae3] (6 3/9) Accurately ripped 04 [f10e48f2|0c47a365] (6 3/9) Accurately ripped 05 [9212674e|e3be67c1] (6 3/9) Accurately ripped 06 [24452845|97826e5f] (6 3/9) Accurately ripped 07 [d46286ef|145ee41c] (6 3/9) Accurately ripped 08 [adef8460|9c1dc888] (6 3/9) Accurately ripped 09 [4c7fc64a|0e8d914f] (5 2/7) Accurately ripped 10 [d87c9b21|8de2f19d] (2 0/2) Accurately ripped 11 [9cd71039|64582d49] (6 3/9) Accurately ripped
Track Peak [ CRC32 ] [W/O NULL] [ LOG ] -- 98,2 [E2DBD768] [8D244DF4] 01 98,2 [C8395AF6] [A05F391D] CRC32 02 98,2 [B6B4FC2E] [D0D33634] CRC32 03 98,2 [4DF2C6A7] [368B3BD7] CRC32 04 96,6 [BC597FDE] [47617D2C] CRC32 05 98,2 [4C5A9B53] [349B1FBF] CRC32 06 82,7 [05CBBB72] [4BF20416] CRC32 07 98,2 [56085721] [9218B00E] CRC32 08 98,2 [963FEBA7] [2A4CD23B] CRC32 09 98,2 [FE41DEC5] [6063ACBB] CRC32 10 98,2 [744081E8] [2F9EF54E] CRC32 11 98,2 [51378E84] [3FA1D04B] CRC32

2016. Ихтиозавр

Продолжительность: 00:43:32
Треклист:
1. Просто быть никем
2. А по берегам
3. Красный снег
4. Джунгли возьмут свое
5. Хородоворот
6. Партия Божьей росы
7. Истерика свиноматок
8. Последний стакан воды
9. Безумный тунец
10. Ты прости нас
11. Не считая попугаев
12. Остров
13. Ихтиозавр

Лог создания рипа

Exact Audio Copy V1.1 from 23. June 2015
EAC extraction logfile from 6. November 2016, 17:06
Телевизор / ИхТиозавр
Used drive : ASUS SDRW-08D1S-U Adapter: 1 ID: 1
Read mode : SecureUtilize accurate stream : YesDefeat audio cache : YesMake use of C2 pointers : No
Read offset correction : 103Overread into Lead-In and Lead-Out : NoFill up missing offset samples with silence : YesDelete leading and trailing silent blocks : NoNull samples used in CRC calculations : YesUsed interface : Native Win32 interface for Win NT & 2000Gap handling : Appended to previous track
Used output format : User Defined EncoderSelected bitrate : 1024 kBit/sQuality : HighAdd ID3 tag : NoCommand line compressor : J:\Program Files (x86)\Exact Audio Copy\Flac\flac.exeAdditional command line options : -V -8 -T "COMMENT=ripped by Krevetka1972 special for СПАМ -T "ARTIST=%artist%" -T "TITLE=%title%" -T "ALBUM=%albumtitle%" -T "DATE=%year%" -T "TRACKNUMBER=%tracknr%" -T "GENRE=%genre%" -T "ALBUMARTIST=%albuminterpret%" %source% -o Юst%
TOC of the extracted CD
Track | Start | Length | Start sector | End sector --------------------------------------------------------- 1 | 0:00.00 | 4:11.22 | 0 | 18846 2 | 4:11.22 | 4:16.71 | 18847 | 38117 3 | 8:28.18 | 3:13.03 | 38118 | 52595 4 | 11:41.21 | 2:45.21 | 52596 | 64991 5 | 14:26.42 | 3:22.33 | 64992 | 80174 6 | 17:49.00 | 2:42.18 | 80175 | 92342 7 | 20:31.18 | 3:03.37 | 92343 | 106104 8 | 23:34.55 | 2:07.09 | 106105 | 115638 9 | 25:41.64 | 3:46.72 | 115639 | 132660 10 | 29:28.61 | 3:19.48 | 132661 | 147633 11 | 32:48.34 | 3:04.57 | 147634 | 161490 12 | 35:53.16 | 3:26.50 | 161491 | 176990 13 | 39:19.66 | 4:12.63 | 176991 | 195953
Track 1
Filename G:\Телевизор\2016 - ИхТиозавр (Геометрия # GEO 105 CD)\01. Телевизор - Просто Быть Никем.wav
Pre-gap length 0:00:02.00
Peak level 99.2 % Extraction speed 1.1 X Track quality 99.9 % Test CRC A7D90313 Copy CRC A7D90313 Track not present in AccurateRip database Copy OK
Track 2
Filename G:\Телевизор\2016 - ИхТиозавр (Геометрия # GEO 105 CD)\02. Телевизор - А По Берегам.wav
Peak level 99.3 % Extraction speed 1.3 X Track quality 99.9 % Test CRC D3E88BFE Copy CRC D3E88BFE Track not present in AccurateRip database Copy OK
Track 3
Filename G:\Телевизор\2016 - ИхТиозавр (Геометрия # GEO 105 CD)\03. Телевизор - Красный Снег.wav
Peak level 99.7 % Extraction speed 1.4 X Track quality 100.0 % Test CRC D897B70F Copy CRC D897B70F Track not present in AccurateRip database Copy OK
Track 4
Filename G:\Телевизор\2016 - ИхТиозавр (Геометрия # GEO 105 CD)\04. Телевизор - Джунгли Возьмут Своё.wav
Peak level 99.8 % Extraction speed 1.5 X Track quality 100.0 % Test CRC 48A3B658 Copy CRC 48A3B658 Track not present in AccurateRip database Copy OK
Track 5
Filename G:\Телевизор\2016 - ИхТиозавр (Геометрия # GEO 105 CD)\05. Телевизор - Хороводоворот.wav
Peak level 99.6 % Extraction speed 1.6 X Track quality 100.0 % Test CRC D485FC5C Copy CRC D485FC5C Track not present in AccurateRip database Copy OK
Track 6
Filename G:\Телевизор\2016 - ИхТиозавр (Геометрия # GEO 105 CD)\06. Телевизор - Партия Божьей Росы.wav
Peak level 99.3 % Extraction speed 1.6 X Track quality 100.0 % Test CRC 1090B539 Copy CRC 1090B539 Track not present in AccurateRip database Copy OK
Track 7
Filename G:\Телевизор\2016 - ИхТиозавр (Геометрия # GEO 105 CD)\07. Телевизор - Истерика Свиноматок.wav
Peak level 99.2 % Extraction speed 1.7 X Track quality 100.0 % Test CRC 2DE580DF Copy CRC 2DE580DF Track not present in AccurateRip database Copy OK
Track 8
Filename G:\Телевизор\2016 - ИхТиозавр (Геометрия # GEO 105 CD)\08. Телевизор - Последний Стакан Воды.wav
Peak level 99.0 % Extraction speed 1.3 X Track quality 99.9 % Test CRC 51B17032 Copy CRC 51B17032 Track not present in AccurateRip database Copy OK
Track 9
Filename G:\Телевизор\2016 - ИхТиозавр (Геометрия # GEO 105 CD)\09. Телевизор - Безумный Тунец.wav
Peak level 100.0 % Extraction speed 1.9 X Track quality 100.0 % Test CRC 934F4F59 Copy CRC 934F4F59 Track not present in AccurateRip database Copy OK
Track 10
Filename G:\Телевизор\2016 - ИхТиозавр (Геометрия # GEO 105 CD)\10. Телевизор - Ты Прости Нас.wav
Peak level 99.0 % Extraction speed 1.9 X Track quality 100.0 % Test CRC E73A9CFF Copy CRC E73A9CFF Track not present in AccurateRip database Copy OK
Track 11
Filename G:\Телевизор\2016 - ИхТиозавр (Геометрия # GEO 105 CD)\11. Телевизор - Не Считая Попугаев.wav
Peak level 100.0 % Extraction speed 2.0 X Track quality 100.0 % Test CRC 9433BD2F Copy CRC 9433BD2F Track not present in AccurateRip database Copy OK
Track 12
Filename G:\Телевизор\2016 - ИхТиозавр (Геометрия # GEO 105 CD)\12. Телевизор - Остров.wav
Peak level 99.1 % Extraction speed 2.0 X Track quality 100.0 % Test CRC C12A6281 Copy CRC C12A6281 Track not present in AccurateRip database Copy OK
Track 13
Filename G:\Телевизор\2016 - ИхТиозавр (Геометрия # GEO 105 CD)\13. Телевизор - Ихтиозавр.wav
Peak level 99.0 % Extraction speed 2.2 X Track quality 100.0 % Test CRC F01AC24C Copy CRC F01AC24C Track not present in AccurateRip database Copy OK
None of the tracks are present in the AccurateRip database
No errors occurred
End of status report
---- CUETools DB Plugin V2.1.6
[CTDB TOCID: 7xoWdeHnQPQQ6VElI1yYdO46d5o-] foundSubmit result: 7xoWdeHnQPQQ6VElI1yYdO46d5o- has been confirmedTrack | CTDB Status 1 | (1/1) Accurately ripped 2 | (1/1) Accurately ripped 3 | (1/1) Accurately ripped 4 | (1/1) Accurately ripped 5 | (1/1) Accurately ripped 6 | (1/1) Accurately ripped 7 | (1/1) Accurately ripped 8 | (1/1) Accurately ripped 9 | (1/1) Accurately ripped 10 | (1/1) Accurately ripped 11 | (1/1) Accurately ripped 12 | (1/1) Accurately ripped 13 | (1/1) Accurately ripped
==== Log checksum 7F73FC66C1BF37EDA23DE3312BD19721237979AFEC23A530C27C26EFD4CDF101 ====

Содержание индексной карты (.CUE)

PERFORMER "Телевизор"TITLE "Ихтиозавр"REM DATE 2016REM DISCNUMBER 1REM TOTALDISCS 1REM GENRE "Alternative Rock"FILE "01. Просто быть никем.m4a" WAVE TRACK 01 AUDIO PERFORMER "Телевизор" TITLE "Просто быть никем" INDEX 01 00:00:00FILE "02. А по берегам.m4a" WAVE TRACK 02 AUDIO PERFORMER "Телевизор" TITLE "А по берегам" INDEX 01 00:00:00FILE "03. Красный снег.m4a" WAVE TRACK 03 AUDIO PERFORMER "Телевизор" TITLE "Красный снег" INDEX 01 00:00:00FILE "04. Джунгли возьмут своё.m4a" WAVE TRACK 04 AUDIO PERFORMER "Телевизор" TITLE "Джунгли возьмут своё" INDEX 01 00:00:00FILE "05. Хороводоворот.m4a" WAVE TRACK 05 AUDIO PERFORMER "Телевизор" TITLE "Хороводоворот" INDEX 01 00:00:00FILE "06. Партия божьей росы.m4a" WAVE TRACK 06 AUDIO PERFORMER "Телевизор" TITLE "Партия божьей росы" INDEX 01 00:00:00FILE "07. Истерика свиноматок.m4a" WAVE TRACK 07 AUDIO PERFORMER "Телевизор" TITLE "Истерика свиноматок" INDEX 01 00:00:00FILE "08. Последний стакан воды.m4a" WAVE TRACK 08 AUDIO PERFORMER "Телевизор" TITLE "Последний стакан воды" INDEX 01 00:00:00FILE "09. Безумный тунец.m4a" WAVE TRACK 09 AUDIO PERFORMER "Телевизор" TITLE "Безумный тунец" INDEX 01 00:00:00FILE "10. Ты прости нас.m4a" WAVE TRACK 10 AUDIO PERFORMER "Телевизор" TITLE "Ты прости нас" INDEX 01 00:00:00FILE "11. Не считая попугаев.m4a" WAVE TRACK 11 AUDIO PERFORMER "Телевизор" TITLE "Не считая попугаев" INDEX 01 00:00:00FILE "12. Остров.m4a" WAVE TRACK 12 AUDIO PERFORMER "Телевизор" TITLE "Остров" INDEX 01 00:00:00FILE "13. Ихтиозавр.m4a" WAVE TRACK 13 AUDIO PERFORMER "Телевизор" TITLE "Ихтиозавр" INDEX 01 00:00:00

Лог проверки качества

[CUETools log; Date: 10.02.2018 12:39:34; Version: 2.1.6][CTDB TOCID: 7xoWdeHnQPQQ6VElI1yYdO46d5o-] found.Track | CTDB Status 1 | (7/7) Accurately ripped 2 | (7/7) Accurately ripped 3 | (7/7) Accurately ripped 4 | (7/7) Accurately ripped 5 | (7/7) Accurately ripped 6 | (7/7) Accurately ripped 7 | (7/7) Accurately ripped 8 | (7/7) Accurately ripped 9 | (7/7) Accurately ripped 10 | (7/7) Accurately ripped 11 | (7/7) Accurately ripped 12 | (7/7) Accurately ripped 13 | (7/7) Accurately ripped[AccurateRip ID: 00151c7a-00d0161e-960a340d] found.Track [ CRC | V2 ] Status 01 [f35da726|82cfb87e] (0 2/2) Accurately ripped 02 [cdfc3cee|d23a8e9d] (0 2/2) Accurately ripped 03 [6591a4fb|d0cde13d] (0 2/2) Accurately ripped 04 [d9855658|bca54187] (0 2/2) Accurately ripped 05 [6419c701|86b606c6] (0 2/2) Accurately ripped 06 [dc13afa5|86596fa1] (0 2/2) Accurately ripped 07 [ba9c0d4d|c657450d] (0 2/2) Accurately ripped 08 [334e239c|36d49c54] (0 2/2) Accurately ripped 09 [eb1e4660|a908b21c] (0 2/2) Accurately ripped 10 [a893a933|e6c9482e] (0 2/2) Accurately ripped 11 [855f017e|e8aea62c] (0 2/2) Accurately ripped 12 [7f2cd1be|318c3324] (0 2/2) Accurately ripped 13 [7cfdf086|072cbb8c] (0 2/2) Accurately ripped
Track Peak [ CRC32 ] [W/O NULL] [ LOG ] -- 100,0 [4900B5C8] [CEFB288F] 01 99,2 [A7D90313] [D2AA64E0] CRC32 02 99,3 [D3E88BFE] [3F22E2C4] CRC32 03 99,7 [D897B70F] [DF2D6257] CRC32 04 99,8 [48A3B658] [C704CB70] CRC32 05 99,6 [D485FC5C] [50F0B61C] CRC32 06 99,3 [1090B539] [76BB9A0D] CRC32 07 99,2 [2DE580DF] [B3C6143E] CRC32 08 99,0 [51B17032] [D45E4C2B] CRC32 09 100,0 [934F4F59] [AC211AB8] CRC32 10 99,0 [E73A9CFF] [8228E0C9] CRC32 11 100,0 [9433BD2F] [C84EC157] CRC32 12 99,1 [C12A6281] [55D3065A] CRC32 13 99,0 [F01AC24C] [BFC442D9] CRC32
ПРОДОЛЖЕНИЕ НИЖЕ


[islamvillage.com]_t_5539550.torrent
Торрент: Зарегистрирован ·  [ 2019-01-02 14:14 ] ·  d4ba7b9c661336c699b378abbe670745531ad62f

116 KB

Статус: проверено
Скачан: 0 раз
Размер: 6.12 GB
Оценка: 
(Голосов: 0)
Сказали спасибо: 0  Спасибо
Похожие темы
[Профиль]    [ЛС]
Показать сообщения:    
Ответить на тему

Текущее время: Сегодня 11:46

Часовой пояс: GMT + 7



Вы не можете начинать темы
Вы не можете отвечать на сообщения
Вы не можете редактировать свои сообщения
Вы не можете удалять свои сообщения
Вы не можете голосовать в опросах
Вы не можете прикреплять файлы к сообщениям
Вы можете скачивать файлы


Stitchers | Cura del corpo | Activation key for Windows 7 Home Premium 32/64 bit (instant email delivery)