(Rap) [CD] Snowgoons - Коллекция (4 альбома) - (2011-2016), ALAC (tracks+.cue), lossless

Ответить на тему
Статистика раздачи [Обновить пиров]
Размер:  2.16 GB   |    Зарегистрирован:  14 дней   |    Скачан:  0 раз

Полного источника не было: Никогда

 
   
 
 
 
Автор Сообщение

islamvillage.com

Создавать темы 02-Янв-2019 14:53

[Цитировать]

Snowgoons / Коллекция
Жанр: Rap
Носитель: CD
Страна-производитель диска: Germany
Год издания: 2011-2018
Страна исполнителя (группы): Germany
Аудио кодек: ALAC (*.m4a)
Тип рипа: tracks+.cue
Программа-конвертер: Собственный рип (EAC)
Битрейт аудио: lossless
Наличие сканов в содержимом раздачи: да
Тексты: вшиты частично (в альбоме Goon Bap, только для 13. Cypher God ft. Passionate MC нашёлся текст)
Источник : Собственные диски

2011 - Snowgoons & M.O.P. - Sparta (00:34:08)

Издатель (лейбл): Babygrande
Номер по каталогу: STB-CD-23
Треклист:
01. Sparta! (есть текст)
02. Back at it (есть текст)
03. Get yours (есть текст)
04. Blaspemy (blast 4 me) (нет текста)
05. Opium (есть текст)
06. Hard niggaz! (нет текста)
07. Rollin' (нет текста)
08. No mercy (нет текста)
09. Break 'em (нет текста)
10. Body on the iron (нет текста)

Лог создания рипа

Exact Audio Copy V1.3 from 2. September 2016
Отчёт EAC об извлечении, выполненном 11. января 2018, 21:55
Snowgoons & M.O.P. / Sparta
Дисковод: HL-DT-STDVDRAM GP60NB50 Adapter: 1 ID: 0
Режим чтения : ДостоверностьИспользование точного потока : ДаОтключение кэша аудио : ДаИспользование указателей C2 : Нет
Коррекция смещения при чтении : 6Способность читать области Lead-in и Lead-out : НетЗаполнение пропущенных сэмплов тишиной : ДаУдаление блоков с тишиной в начале и конце : НетПри вычислениях CRC использовались нулевые сэмплы : ДаИнтерфейс : Встроенный Win32-интерфейс для Win NT/2000Обработка зазоров : Добавлено к предыдущему треку
Выходной формат : Пользовательский кодировщикВыбранный битрейт : 128 kBit/sКачество : ВысокийДобавление ID3-тега : НетУтилита сжатия : C:\Users\Антон\Downloads\qaac_2.63\qaac_2.63\x64\refalac64.exeДополнительные параметры : -s --ignorelength --artist "%artist%" --title "%title%" --album "%albumtitle%" --date "%year%" --track "%tracknr%" --genre "%genre%" -o %dest% %source%
TOC извлечённого CD
Трек | Старт | Длительность | Начальный сектор | Конечный сектор --------------------------------------------------------------------- 1 | 0:00.00 | 3:38.61 | 0 | 16410 2 | 3:38.61 | 3:37.31 | 16411 | 32716 3 | 7:16.17 | 3:48.32 | 32717 | 49848 4 | 11:04.49 | 3:40.20 | 49849 | 66368 5 | 14:44.69 | 3:24.41 | 66369 | 81709 6 | 18:09.35 | 2:40.60 | 81710 | 93769 7 | 20:50.20 | 4:21.43 | 93770 | 113387 8 | 25:11.63 | 2:34.53 | 113388 | 124990 9 | 27:46.41 | 3:20.50 | 124991 | 140040 10 | 31:07.16 | 3:01.04 | 140041 | 153619
Трек 1
Имя файла C:\Users\Антон\Downloads\Музыка\Snowgoons\2011 - Sparta\01 Sparta!.wav
Длина предзазора 0:00:02.00
Пиковый уровень 95.6 % Скорость извлечения 1.1 X Качество трека 99.9 % CRC теста A58ACBDE CRC копии A58ACBDE Точное извлечение (достоверность 2) [1E98105F] (AR v2) Копирование... OK
Трек 2
Имя файла C:\Users\Антон\Downloads\Музыка\Snowgoons\2011 - Sparta\02 Back at it.wav
Длина предзазора 0:00:01.00
Пиковый уровень 95.5 % Скорость извлечения 1.3 X Качество трека 100.0 % CRC теста 05ED0F22 CRC копии 05ED0F22 Точное извлечение (достоверность 2) [20B00DC7] (AR v2) Копирование... OK
Трек 3
Имя файла C:\Users\Антон\Downloads\Музыка\Snowgoons\2011 - Sparta\03 Get yours.wav
Длина предзазора 0:00:01.00
Пиковый уровень 95.6 % Скорость извлечения 1.3 X Качество трека 99.9 % CRC теста 5113D286 CRC копии 5113D286 Точное извлечение (достоверность 2) [C23F5647] (AR v2) Копирование... OK
Трек 4
Имя файла C:\Users\Антон\Downloads\Музыка\Snowgoons\2011 - Sparta\04 Blaspemy (blast 4 me).wav
Длина предзазора 0:00:01.00
Пиковый уровень 95.6 % Скорость извлечения 1.6 X Качество трека 100.0 % CRC теста FFDBB857 CRC копии FFDBB857 Точное извлечение (достоверность 2) [CED9B812] (AR v2) Копирование... OK
Трек 5
Имя файла C:\Users\Антон\Downloads\Музыка\Snowgoons\2011 - Sparta\05 Opium.wav
Длина предзазора 0:00:01.00
Пиковый уровень 95.5 % Скорость извлечения 1.6 X Качество трека 100.0 % CRC теста 3D8BBD19 CRC копии 3D8BBD19 Точное извлечение (достоверность 2) [AF93AADB] (AR v2) Копирование... OK
Трек 6
Имя файла C:\Users\Антон\Downloads\Музыка\Snowgoons\2011 - Sparta\06 Hard niggaz!.wav
Длина предзазора 0:00:01.00
Пиковый уровень 95.5 % Скорость извлечения 1.6 X Качество трека 100.0 % CRC теста B2A080EC CRC копии B2A080EC Точное извлечение (достоверность 2) [6EE41950] (AR v2) Копирование... OK
Трек 7
Имя файла C:\Users\Антон\Downloads\Музыка\Snowgoons\2011 - Sparta\07 Rollin'.wav
Длина предзазора 0:00:01.00
Пиковый уровень 95.6 % Скорость извлечения 1.6 X Качество трека 99.9 % CRC теста 019A8DE3 CRC копии 019A8DE3 Точное извлечение (достоверность 2) [FF876176] (AR v2) Копирование... OK
Трек 8
Имя файла C:\Users\Антон\Downloads\Музыка\Snowgoons\2011 - Sparta\08 No mercy.wav
Длина предзазора 0:00:01.00
Пиковый уровень 95.6 % Скорость извлечения 1.5 X Качество трека 99.9 % CRC теста 9DAB747D CRC копии 9DAB747D Точное извлечение (достоверность 2) [1155D7FC] (AR v2) Копирование... OK
Трек 9
Имя файла C:\Users\Антон\Downloads\Музыка\Snowgoons\2011 - Sparta\09 Break 'em.wav
Длина предзазора 0:00:01.00
Пиковый уровень 95.5 % Скорость извлечения 1.9 X Качество трека 100.0 % CRC теста EDB9BF6B CRC копии EDB9BF6B Точное извлечение (достоверность 2) [D76A2474] (AR v2) Копирование... OK
Трек 10
Имя файла C:\Users\Антон\Downloads\Музыка\Snowgoons\2011 - Sparta\10 Body on the iron.wav
Длина предзазора 0:00:01.00
Пиковый уровень 95.5 % Скорость извлечения 1.9 X Качество трека 100.0 % CRC теста CBAE3C89 CRC копии CBAE3C89 Точное извлечение (достоверность 2) [024487E2] (AR v2) Копирование... OK
Все треки извлечены точно
Ошибок не произошло
Конец отчёта
---- CUETools DB Plugin V2.1.6
[CTDB TOCID: 3Vzu3_TjkJZutSLbuihgmv4bFHY-] foundSubmit result: 3Vzu3_TjkJZutSLbuihgmv4bFHY- has been confirmedTrack | CTDB Status 1 | (3/3) Accurately ripped 2 | (3/3) Accurately ripped 3 | (3/3) Accurately ripped 4 | (3/3) Accurately ripped 5 | (3/3) Accurately ripped 6 | (3/3) Accurately ripped 7 | (3/3) Accurately ripped 8 | (3/3) Accurately ripped 9 | (3/3) Accurately ripped 10 | (3/3) Accurately ripped
==== Контрольная сумма отчёта 53B6BF891C3FDAB54179689D313D2671EA4A80D38B71257069F965448F2EDA3E ====

Содержание индексной карты (.CUE)

REM GENRE RapREM DATE 2011REM DISCID 8908000AREM COMMENT "ExactAudioCopy v1.3"PERFORMER "Snowgoons & M.O.P."TITLE "Sparta"REM COMPOSER ""FILE "01 Sparta!.wav" WAVE TRACK 01 AUDIO TITLE "Sparta!" PERFORMER "Snowgoons & M.O.P." REM COMPOSER "" INDEX 01 00:00:00 TRACK 02 AUDIO TITLE "Back at it" PERFORMER "Snowgoons & M.O.P." REM COMPOSER "" INDEX 00 03:37:61FILE "02 Back at it.wav" WAVE INDEX 01 00:00:00 TRACK 03 AUDIO TITLE "Get yours" PERFORMER "Snowgoons & M.O.P." REM COMPOSER "" INDEX 00 03:36:31FILE "03 Get yours.wav" WAVE INDEX 01 00:00:00 TRACK 04 AUDIO TITLE "Blaspemy (blast 4 me)" PERFORMER "Snowgoons & M.O.P." REM COMPOSER "" INDEX 00 03:47:32FILE "04 Blaspemy (blast 4 me).wav" WAVE INDEX 01 00:00:00 TRACK 05 AUDIO TITLE "Opium" PERFORMER "Snowgoons & M.O.P." REM COMPOSER "" INDEX 00 03:39:20FILE "05 Opium.wav" WAVE INDEX 01 00:00:00 TRACK 06 AUDIO TITLE "Hard niggaz!" PERFORMER "Snowgoons & M.O.P." REM COMPOSER "" INDEX 00 03:23:41FILE "06 Hard niggaz!.wav" WAVE INDEX 01 00:00:00 TRACK 07 AUDIO TITLE "Rollin'" PERFORMER "Snowgoons & M.O.P." REM COMPOSER "" INDEX 00 02:39:60FILE "07 Rollin'.wav" WAVE INDEX 01 00:00:00 TRACK 08 AUDIO TITLE "No mercy" PERFORMER "Snowgoons & M.O.P." REM COMPOSER "" INDEX 00 04:20:43FILE "08 No mercy.wav" WAVE INDEX 01 00:00:00 TRACK 09 AUDIO TITLE "Break 'em" PERFORMER "Snowgoons & M.O.P." REM COMPOSER "" INDEX 00 02:33:53FILE "09 Break 'em.wav" WAVE INDEX 01 00:00:00 TRACK 10 AUDIO TITLE "Body on the iron" PERFORMER "Snowgoons & M.O.P." REM COMPOSER "" INDEX 00 03:19:50FILE "10 Body on the iron.wav" WAVE INDEX 01 00:00:00

Лог проверки качества

CUE Corrector v. 8.3.3 / b. 844 (Jan. 10, 2018)————————————————————————————————————————————————————————————————————————--- / Sparta
Folder: 2011 - SpartaAudio files: 01 Sparta!.m4a [03:38.813; ALAC • 979 kbps • 16 bit \ 44100 Hz • stereo; 25.56 MB (26 802 876 B)] 02 Back at it.m4a [03:37.413; ALAC • 1032 kbps • 16 bit \ 44100 Hz • stereo; 26.76 MB (28 063 840 B)] 03 Get yours.m4a [03:48.427; ALAC • 1007 kbps • 16 bit \ 44100 Hz • stereo; 27.43 MB (28 767 428 B)] 04 Blaspemy (blast 4 me).m4a [03:40.267; ALAC • 1019 kbps • 16 bit \ 44100 Hz • stereo; 26.78 MB (28 084 282 B)] 05 Opium.m4a [03:24.547; ALAC • 973 kbps • 16 bit \ 44100 Hz • stereo; 23.76 MB (24 908 981 B)] 06 Hard niggaz!.m4a [02:40.800; ALAC • 1039 kbps • 16 bit \ 44100 Hz • stereo; 19.93 MB (20 897 932 B)] 07 Rollin'.m4a [04:21.573; ALAC • 952 kbps • 16 bit \ 44100 Hz • stereo; 29.70 MB (31 146 796 B)] 08 No mercy.m4a [02:34.707; ALAC • 1107 kbps • 16 bit \ 44100 Hz • stereo; 20.43 MB (21 423 370 B)] 09 Break 'em.m4a [03:20.667; ALAC • 1027 kbps • 16 bit \ 44100 Hz • stereo; 24.59 MB (25 782 990 B)] 10 Body on the iron.m4a [03:01.053; ALAC • 1001 kbps • 16 bit \ 44100 Hz • stereo; 21.63 MB (22 678 219 B)]
Accuracy: -m0
File 01 Sparta! - 95% MPEG [03:38:61]
Detected average hi-boundary frequency : 21395.700 Hz Detected average lo-boundary frequency : 18134.110 Hz Detected average hi-cut frequency : 21799.190 Hz Detected average lo-cut frequency : 18422.590 Hz Maximum probablis boundary frequency : 21891.000 Hz Coefficient of nonlinearity of a phase : 0.01913397 First order smothness : 0.74402730 Second order smothness : 0.60068260
File 02 Back at it - 100% CDDA [03:37:31]
Detected average hi-boundary frequency : 21459.900 Hz Detected average lo-boundary frequency : 19439.990 Hz Detected average hi-cut frequency : 21950.290 Hz Detected average lo-cut frequency : 18494.220 Hz Maximum probablis boundary frequency : 21891.000 Hz Coefficient of nonlinearity of a phase : 0.18844470 First order smothness : 0.63991420 Second order smothness : 0.54635190
File 03 Get yours - 95% MPEG [03:48:32]
Detected average hi-boundary frequency : 21510.840 Hz Detected average lo-boundary frequency : 19242.610 Hz Detected average hi-cut frequency : 21955.050 Hz Detected average lo-cut frequency : 19095.110 Hz Maximum probablis boundary frequency : 21891.000 Hz Coefficient of nonlinearity of a phase : 0.02910733 First order smothness : 0.70710780 Second order smothness : 0.55514710
File 04 Blaspemy (blast 4 me) - 100% CDDA [03:40:20]
Detected average hi-boundary frequency : 21534.420 Hz Detected average lo-boundary frequency : 18673.650 Hz Detected average hi-cut frequency : 21981.870 Hz Detected average lo-cut frequency : 20493.130 Hz Maximum probablis boundary frequency : 21891.000 Hz Coefficient of nonlinearity of a phase : 0.37289090 First order smothness : 0.68702290 Second order smothness : 0.70101780
File 05 Opium - 95% MPEG [03:24:41]
Detected average hi-boundary frequency : 21313.190 Hz Detected average lo-boundary frequency : 18632.920 Hz Detected average hi-cut frequency : 21774.000 Hz Detected average lo-cut frequency : 17259.550 Hz Maximum probablis boundary frequency : 21891.000 Hz Coefficient of nonlinearity of a phase : 0.03315435 First order smothness : 0.69466000 Second order smothness : 0.54130530
File 06 Hard niggaz! - 100% CDDA [02:40:60]
Detected average hi-boundary frequency : 21442.510 Hz Detected average lo-boundary frequency : 18988.710 Hz Detected average hi-cut frequency : 21946.140 Hz Detected average lo-cut frequency : 18218.600 Hz Maximum probablis boundary frequency : 21891.000 Hz Coefficient of nonlinearity of a phase : 0.12639910 First order smothness : 0.67170250 Second order smothness : 0.53980240
File 07 Rollin' - 99% CDDA [04:21:43]
Detected average hi-boundary frequency : 21397.100 Hz Detected average lo-boundary frequency : 18032.890 Hz Detected average hi-cut frequency : 21953.070 Hz Detected average lo-cut frequency : 18341.410 Hz Maximum probablis boundary frequency : 21891.000 Hz Coefficient of nonlinearity of a phase : 0.10329590 First order smothness : 0.65440910 Second order smothness : 0.66012140
File 08 No mercy - 100% CDDA [02:34:53]
Detected average hi-boundary frequency : 21431.570 Hz Detected average lo-boundary frequency : 18581.070 Hz Detected average hi-cut frequency : 21977.030 Hz Detected average lo-cut frequency : 20686.910 Hz Maximum probablis boundary frequency : 21891.000 Hz Coefficient of nonlinearity of a phase : 0.74603680 First order smothness : 0.58187310 Second order smothness : 0.70694860
File 09 Break 'em - 100% CDDA [03:20:50]
Detected average hi-boundary frequency : 21450.350 Hz Detected average lo-boundary frequency : 18803.760 Hz Detected average hi-cut frequency : 21964.960 Hz Detected average lo-cut frequency : 18856.140 Hz Maximum probablis boundary frequency : 21891.000 Hz Coefficient of nonlinearity of a phase : 0.27837160 First order smothness : 0.66744190 Second order smothness : 0.55348840
File 10 Body on the iron - 100% CDDA [03:01:04]
Detected average hi-boundary frequency : 21416.660 Hz Detected average lo-boundary frequency : 18806.010 Hz Detected average hi-cut frequency : 21927.180 Hz Detected average lo-cut frequency : 18095.110 Hz Maximum probablis boundary frequency : 21891.000 Hz Coefficient of nonlinearity of a phase : 0.09299380 First order smothness : 0.66255780 Second order smothness : 0.54545450
————— Summary: —————These tracks looks like CDDA with probability 100%.————————————————————————————————————————————————————————————————————————
ANALYZER: auCDtect: CD records authenticity detector, version 0.8.2 Copyright (c) 2004 Oleg Berngardt. All rights reserved. Copyright (c) 2004 Alexander Djourik. All rights reserved.
Time elapsed: 1 m 42 sLog created at January 11, 2018 22:00:56
=== 5BCEAC95EF4E0253F6DB709540117A8EA0E2FF690E90B6161DCE53541BEBE88D ===

Скриншот(ы) тегов iTunes

2015 - Independent warriors! (01:02:02

Издатель (лейбл): Goon MuSick
Номер по каталогу: GM15-016
Треклист:
01. Sean Strange – Intro (нет текста)
02. Snowgoons ft. Sicknature & Reef The Lost Cauze & Aspects & Virtuoso - Independent warriors! (нет текста)
03. Typ Ill ft. Termanology - No surrender! (есть текст)
04. OuterSpace - Never enough (есть текст)
05. Nature - If you watch (нет текста)
06. Diabolic ft. R.A. The Rugged Man - Suffolk's most wanted! (есть текст)
07. Fredro Starr - This ain't my day (есть текст)
08. Snowgoons ft. Swifty McVay & Jay Gill - Dirty goons (нет текста)
09. Sicknature ft. Ill Bill & Vinnie Paz - Violent rage! (есть текст)
10. Aspects ft. Madchild & Mike P - Ride or die (есть текст)
11. Virtuoso ft. Esoteric & Celph Titled - Sweatshop Deathrock (есть текст)
12. Oddisee - All in a days work (Snowgoons remix) (нет текста)
13. Onyx ft. Snak The Ripper - Dirty cops (есть текст)
14. N.B.S. - We're all equal! (нет текста)
15. Killakikitt ft. Slaine & N.B.S. - Lehettem volna (есть текст)
16. Q-Fingaz ft. Masta Ace - Progression (нет текста)
17. Reef the Lost Cauze - Talk to me (нет текста)
18. Viro the Virus - Beastiality (Snowgoons remix) (нет текста)

Лог создания рипа

Exact Audio Copy V1.1 from 23. June 2015
Отчёт EAC об извлечении, выполненном 6. сентября 2016, 10:41
Snowgoons / Independent warriors!
Дисковод: HL-DT-STDVDRAM GP60NB50 Adapter: 1 ID: 0
Режим чтения : ДостоверностьИспользование точного потока : ДаОтключение кэша аудио : ДаИспользование указателей C2 : Нет
Коррекция смещения при чтении : 6Способность читать области Lead-in и Lead-out : НетЗаполнение пропущенных сэмплов тишиной : ДаУдаление блоков с тишиной в начале и конце : НетПри вычислениях CRC использовались нулевые сэмплы : ДаИнтерфейс : Встроенный Win32-интерфейс для Win NT/2000Обработка зазоров : Добавлено к предыдущему треку
Выходной формат : Пользовательский кодировщикВыбранный битрейт : 128 kBit/sКачество : ВысокийДобавление ID3-тега : НетУтилита сжатия : C:\Users\Антон\Downloads\Архивы\qaac_2.58\qaac_2.58\x64\refalac64.exeДополнительные параметры : -s --ignorelength --artist "%artist%" --title "%title%" --album "%albumtitle%" --date "%year%" --track "%tracknr%" --genre "%genre%" -o %dest% %source%
TOC извлечённого CD
Трек | Старт | Длительность | Начальный сектор | Конечный сектор --------------------------------------------------------------------- 1 | 0:00.00 | 0:55.59 | 0 | 4183 2 | 0:55.59 | 3:06.19 | 4184 | 18152 3 | 4:02.03 | 3:35.05 | 18153 | 34282 4 | 7:37.08 | 3:09.55 | 34283 | 48512 5 | 10:46.63 | 3:11.57 | 48513 | 62894 6 | 13:58.45 | 3:35.73 | 62895 | 79092 7 | 17:34.43 | 3:54.21 | 79093 | 96663 8 | 21:28.64 | 3:12.20 | 96664 | 111083 9 | 24:41.09 | 3:41.56 | 111084 | 127714 10 | 28:22.65 | 3:47.69 | 127715 | 144808 11 | 32:10.59 | 3:18.52 | 144809 | 159710 12 | 35:29.36 | 2:30.52 | 159711 | 171012 13 | 38:00.13 | 3:47.69 | 171013 | 188106 14 | 41:48.07 | 3:14.20 | 188107 | 202676 15 | 45:02.27 | 5:41.32 | 202677 | 228283 16 | 50:43.59 | 3:16.15 | 228284 | 242998 17 | 53:59.74 | 3:59.35 | 242999 | 260958 18 | 57:59.34 | 4:02.14 | 260959 | 279122
Трек 1
Имя файла C:\Users\Антон\Downloads\Музыка\Snowgoons - Independent warriors! (2015)\01 Intro.wav
Длина предзазора 0:00:02.00
Пиковый уровень 96.0 % Скорость извлечения 1.3 X Качество трека 99.8 % CRC теста EA234AA1 CRC копии EA234AA1 Трек не обнаружен в базе AccurateRip Копирование... OK
Трек 2
Имя файла C:\Users\Антон\Downloads\Музыка\Snowgoons - Independent warriors! (2015)\02 Independent warriors!.wav
Длина предзазора 0:00:00.10
Пиковый уровень 96.0 % Скорость извлечения 2.3 X Качество трека 99.9 % CRC теста B9C2A800 CRC копии B9C2A800 Трек не обнаружен в базе AccurateRip Копирование... OK
Трек 3
Имя файла C:\Users\Антон\Downloads\Музыка\Snowgoons - Independent warriors! (2015)\03 No surrender!.wav
Длина предзазора 0:00:00.10
Пиковый уровень 96.0 % Скорость извлечения 2.9 X Качество трека 100.0 % CRC теста 5A0B106E CRC копии 5A0B106E Трек не обнаружен в базе AccurateRip Копирование... OK
Трек 4
Имя файла C:\Users\Антон\Downloads\Музыка\Snowgoons - Independent warriors! (2015)\04 Never enough.wav
Длина предзазора 0:00:00.10
Пиковый уровень 92.8 % Скорость извлечения 3.1 X Качество трека 100.0 % CRC теста 2AAEABBD CRC копии 2AAEABBD Трек не обнаружен в базе AccurateRip Копирование... OK
Трек 5
Имя файла C:\Users\Антон\Downloads\Музыка\Snowgoons - Independent warriors! (2015)\05 If you watch.wav
Длина предзазора 0:00:00.10
Пиковый уровень 96.6 % Скорость извлечения 3.3 X Качество трека 100.0 % CRC теста 95DDAF9F CRC копии 95DDAF9F Трек не обнаружен в базе AccurateRip Копирование... OK
Трек 6
Имя файла C:\Users\Антон\Downloads\Музыка\Snowgoons - Independent warriors! (2015)\06 Suffolk's most wanted!.wav
Длина предзазора 0:00:00.10
Пиковый уровень 100.0 % Скорость извлечения 1.5 X Качество трека 100.0 % CRC теста 0F0404CD CRC копии 0F0404CD Трек не обнаружен в базе AccurateRip Копирование... OK
Трек 7
Имя файла C:\Users\Антон\Downloads\Музыка\Snowgoons - Independent warriors! (2015)\07 This ain't my day.wav
Длина предзазора 0:00:00.10
Пиковый уровень 96.0 % Скорость извлечения 3.8 X Качество трека 100.0 % CRC теста F8BD5ED9 CRC копии F8BD5ED9 Трек не обнаружен в базе AccurateRip Копирование... OK
Трек 8
Имя файла C:\Users\Антон\Downloads\Музыка\Snowgoons - Independent warriors! (2015)\08 Dirty goons.wav
Длина предзазора 0:00:00.10
Пиковый уровень 96.0 % Скорость извлечения 2.3 X Качество трека 100.0 % CRC теста 0D88AF48 CRC копии 0D88AF48 Трек не обнаружен в базе AccurateRip Копирование... OK
Трек 9
Имя файла C:\Users\Антон\Downloads\Музыка\Snowgoons - Independent warriors! (2015)\09 Violent rage!.wav
Длина предзазора 0:00:00.10
Пиковый уровень 94.9 % Скорость извлечения 1.5 X Качество трека 99.9 % CRC теста BAF39F07 CRC копии BAF39F07 Трек не обнаружен в базе AccurateRip Копирование... OK
Трек 10
Имя файла C:\Users\Антон\Downloads\Музыка\Snowgoons - Independent warriors! (2015)\10 Ride or die.wav
Длина предзазора 0:00:00.10
Пиковый уровень 96.0 % Скорость извлечения 4.3 X Качество трека 100.0 % CRC теста 4E4DE97E CRC копии 4E4DE97E Трек не обнаружен в базе AccurateRip Копирование... OK
Трек 11
Имя файла C:\Users\Антон\Downloads\Музыка\Snowgoons - Independent warriors! (2015)\11 Sweatshop Deathrock.wav
Длина предзазора 0:00:00.10
Пиковый уровень 96.0 % Скорость извлечения 1.9 X Качество трека 100.0 % CRC теста 37D7D974 CRC копии 37D7D974 Трек не обнаружен в базе AccurateRip Копирование... OK
Трек 12
Имя файла C:\Users\Антон\Downloads\Музыка\Snowgoons - Independent warriors! (2015)\12 All in a days work (Snowgoons remix).wav
Длина предзазора 0:00:00.10
Пиковый уровень 99.8 % Скорость извлечения 1.5 X Качество трека 99.9 % CRC теста 9850D254 CRC копии 9850D254 Трек не обнаружен в базе AccurateRip Копирование... OK
Трек 13
Имя файла C:\Users\Антон\Downloads\Музыка\Snowgoons - Independent warriors! (2015)\13 Dirty cops.wav
Длина предзазора 0:00:00.10
Пиковый уровень 96.0 % Скорость извлечения 2.0 X Качество трека 100.0 % CRC теста BAC0B91E CRC копии BAC0B91E Трек не обнаружен в базе AccurateRip Копирование... OK
Трек 14
Имя файла C:\Users\Антон\Downloads\Музыка\Snowgoons - Independent warriors! (2015)\14 We're all equal!.wav
Длина предзазора 0:00:00.10
Пиковый уровень 96.0 % Скорость извлечения 2.0 X Качество трека 100.0 % CRC теста 3549550F CRC копии 3549550F Трек не обнаружен в базе AccurateRip Копирование... OK
Трек 15
Имя файла C:\Users\Антон\Downloads\Музыка\Snowgoons - Independent warriors! (2015)\15 Lehettem volna.wav
Длина предзазора 0:00:00.10
Пиковый уровень 96.0 % Скорость извлечения 2.3 X Качество трека 100.0 % CRC теста 0DF20D38 CRC копии 0DF20D38 Трек не обнаружен в базе AccurateRip Копирование... OK
Трек 16
Имя файла C:\Users\Антон\Downloads\Музыка\Snowgoons - Independent warriors! (2015)\16 Progression.wav
Длина предзазора 0:00:00.10
Пиковый уровень 96.0 % Скорость извлечения 1.9 X Качество трека 99.9 % CRC теста E03787EC CRC копии E03787EC Трек не обнаружен в базе AccurateRip Копирование... OK
Трек 17
Имя файла C:\Users\Антон\Downloads\Музыка\Snowgoons - Independent warriors! (2015)\17 Talk to me.wav
Длина предзазора 0:00:00.10
Пиковый уровень 96.0 % Скорость извлечения 2.3 X Качество трека 100.0 % CRC теста B3FF5060 CRC копии B3FF5060 Трек не обнаружен в базе AccurateRip Копирование... OK
Трек 18
Имя файла C:\Users\Антон\Downloads\Музыка\Snowgoons - Independent warriors! (2015)\18 Beastiality (Snowgoons remix).wav
Длина предзазора 0:00:00.10
Пиковый уровень 96.0 % Скорость извлечения 2.4 X Качество трека 100.0 % CRC теста EFC3D143 CRC копии EFC3D143 Трек не обнаружен в базе AccurateRip Копирование... OK
Ни одного трека нет в базе AccurateRip
Ошибок не произошло
Конец отчёта
---- CUETools DB Plugin V2.1.6
[CTDB TOCID: Ze84cVdc8pKDxoJK8IcsaI38Wks-] disk not present in databaseSubmit result: Ze84cVdc8pKDxoJK8IcsaI38Wks- has been uploaded
==== Контрольная сумма отчёта DBFF34C2A0B712FBE82F3F64A636FBBD28839533BC71DE2CAB068CD94B4B6059 ====

Содержание индексной карты (.CUE)

REM GENRE RapREM DATE 2015REM DISCID DB0E8912REM COMMENT "ExactAudioCopy v1.1"PERFORMER "Snowgoons"TITLE "Independent warriors!"FILE "01 Intro.wav" WAVE TRACK 01 AUDIO TITLE "Intro" PERFORMER "Sean Strange" ISRC DELJ81592813 INDEX 01 00:00:00 TRACK 02 AUDIO TITLE "Independent warriors!" PERFORMER "Snowgoons ft. Sicknature & Reef The Lost Cauze & Aspects & Virtuoso" ISRC DELJ81592814 INDEX 00 00:55:49FILE "02 Independent warriors!.wav" WAVE INDEX 01 00:00:00 TRACK 03 AUDIO TITLE "No surrender!" PERFORMER "Typ Ill ft. Termanology" ISRC DELJ81592815 INDEX 00 03:06:09FILE "03 No surrender!.wav" WAVE INDEX 01 00:00:00 TRACK 04 AUDIO TITLE "Never enough" PERFORMER "Outerspace" ISRC DELJ81592816 INDEX 00 03:34:70FILE "04 Never enough.wav" WAVE INDEX 01 00:00:00 TRACK 05 AUDIO TITLE "If you watch" PERFORMER "Nature" ISRC DELJ81592817 INDEX 00 03:09:45FILE "05 If you watch.wav" WAVE INDEX 01 00:00:00 TRACK 06 AUDIO TITLE "Suffolk's most wanted!" PERFORMER "Diabolic ft. R.A. The Rugged Man" ISRC DELJ81592818 INDEX 00 03:11:47FILE "06 Suffolk's most wanted!.wav" WAVE INDEX 01 00:00:00 TRACK 07 AUDIO TITLE "This ain't my day" PERFORMER "Fredro Starr" ISRC DELJ81592819 INDEX 00 03:35:63FILE "07 This ain't my day.wav" WAVE INDEX 01 00:00:00 TRACK 08 AUDIO TITLE "Dirty goons" PERFORMER "Snowgoons ft. Swifty McVay & Jay Gill" ISRC DELJ81592820 INDEX 00 03:54:11FILE "08 Dirty goons.wav" WAVE INDEX 01 00:00:00 TRACK 09 AUDIO TITLE "Violent rage!" PERFORMER "Sicknature ft. Ill Bill & Vinnie Paz" ISRC DELJ81592821 INDEX 00 03:12:10FILE "09 Violent rage!.wav" WAVE INDEX 01 00:00:00 TRACK 10 AUDIO TITLE "Ride or die" PERFORMER "Aspects ft. Madchild & Mike P" ISRC DELJ81592822 INDEX 00 03:41:46FILE "10 Ride or die.wav" WAVE INDEX 01 00:00:00 TRACK 11 AUDIO TITLE "Sweatshop Deathrock" PERFORMER "Virtuoso ft. Esoteric & Celph Titeld" ISRC DELJ81592823 INDEX 00 03:47:59FILE "11 Sweatshop Deathrock.wav" WAVE INDEX 01 00:00:00 TRACK 12 AUDIO TITLE "All in a days work (Snowgoons remix)" PERFORMER "Oddisee" ISRC DELJ81592824 INDEX 00 03:18:42FILE "12 All in a days work (Snowgoons remix).wav" WAVE INDEX 01 00:00:00 TRACK 13 AUDIO TITLE "Dirty cops" PERFORMER "Onyx ft. Snak The Ripper" ISRC DELJ81592825 INDEX 00 02:30:42FILE "13 Dirty cops.wav" WAVE INDEX 01 00:00:00 TRACK 14 AUDIO TITLE "We're all equal!" PERFORMER "N.B.S." ISRC DELJ81592826 INDEX 00 03:47:59FILE "14 We're all equal!.wav" WAVE INDEX 01 00:00:00 TRACK 15 AUDIO TITLE "Lehettem volna" PERFORMER "Killakikitt ft. Slaine & N.B.S." ISRC DELJ81592827 INDEX 00 03:14:10FILE "15 Lehettem volna.wav" WAVE INDEX 01 00:00:00 TRACK 16 AUDIO TITLE "Progression" PERFORMER "Q-Fingaz ft. Masta Ace" ISRC DELJ81592827 INDEX 00 05:41:22FILE "16 Progression.wav" WAVE INDEX 01 00:00:00 TRACK 17 AUDIO TITLE "Talk to me" PERFORMER "Reef Tha Lost Cauze" ISRC DELJ81592829 INDEX 00 03:16:05FILE "17 Talk to me.wav" WAVE INDEX 01 00:00:00 TRACK 18 AUDIO TITLE "Beastiality (Snowgoons remix)" PERFORMER "Viro The Virus" ISRC DELJ81592830 INDEX 00 03:59:25FILE "18 Beastiality (Snowgoons remix).wav" WAVE INDEX 01 00:00:00

Лог проверки качества

CUE Corrector v. 8.0.1 / b. 681 (Sep. 05, 2016)————————————————————————————————————————————————————————————————————————--- / Independent warriors!
Folder: Snowgoons - Independent warriors! (2015)Audio files: 01 Intro.m4a [00:55.59; ALAC • 843 kbps • 16 bit \ 44100 Hz • stereo; 5,61 MB (5 886 183 bytes)] 02 Independent warriors!.m4a [03:06.19; ALAC • 960 kbps • 16 bit \ 44100 Hz • stereo; 21,35 MB (22 382 891 bytes)] 03 No surrender!.m4a [03:35.05; ALAC • 941 kbps • 16 bit \ 44100 Hz • stereo; 24,15 MB (25 322 176 bytes)] 04 Never enough.m4a [03:09.55; ALAC • 967 kbps • 16 bit \ 44100 Hz • stereo; 21,90 MB (22 960 067 bytes)] 05 If you watch.m4a [03:11.57; ALAC • 941 kbps • 16 bit \ 44100 Hz • stereo; 21,52 MB (22 569 469 bytes)] 06 Suffolk's most wanted!.m4a [03:35.73; ALAC • 965 kbps • 16 bit \ 44100 Hz • stereo; 24,87 MB (26 080 859 bytes)] 07 This ain't my day.m4a [03:54.21; ALAC • 933 kbps • 16 bit \ 44100 Hz • stereo; 26,08 MB (27 351 658 bytes)] 08 Dirty goons.m4a [03:12.20; ALAC • 978 kbps • 16 bit \ 44100 Hz • stereo; 22,43 MB (23 521 574 bytes)] 09 Violent rage!.m4a [03:41.56; ALAC • 1014 kbps • 16 bit \ 44100 Hz • stereo; 26,82 MB (28 121 433 bytes)] 10 Ride or die.m4a [03:47.69; ALAC • 961 kbps • 16 bit \ 44100 Hz • stereo; 26,12 MB (27 392 600 bytes)] 11 Sweatshop Deathrock.m4a [03:18.52; ALAC • 972 kbps • 16 bit \ 44100 Hz • stereo; 23,05 MB (24 168 679 bytes)] 12 All in a days work (Snowgoons remix).m4a [02:30.52; ALAC • 869 kbps • 16 bit \ 44100 Hz • stereo; 15,63 MB (16 390 534 bytes)] 13 Dirty cops.m4a [03:47.69; ALAC • 931 kbps • 16 bit \ 44100 Hz • stereo; 25,33 MB (26 564 835 bytes)] 14 We're all equal!.m4a [03:14.20; ALAC • 934 kbps • 16 bit \ 44100 Hz • stereo; 21,65 MB (22 700 761 bytes)] 15 Lehettem volna.m4a [05:41.32; ALAC • 932 kbps • 16 bit \ 44100 Hz • stereo; 37,97 MB (39 818 003 bytes)] 16 Progression.m4a [03:16.15; ALAC • 898 kbps • 16 bit \ 44100 Hz • stereo; 21,04 MB (22 059 056 bytes)] 17 Talk to me.m4a [03:59.35; ALAC • 889 kbps • 16 bit \ 44100 Hz • stereo; 25,42 MB (26 650 322 bytes)] 18 Beastiality (Snowgoons remix).m4a [04:02.14; ALAC • 832 kbps • 16 bit \ 44100 Hz • stereo; 24,06 MB (25 231 464 bytes)]
Accuracy: -m8
File 01 Intro - 89% MPEG [00:55.59]
Detected average hi-boundary frequency : 2.145123e+004 Hz Detected average lo-boundary frequency : 1.477840e+004 Hz Detected average hi-cut frequency : 2.183521e+004 Hz Detected average lo-cut frequency : 2.130534e+004 Hz Maximum probablis boundary frequency : 2.184300e+004 Hz Coefficient of nonlinearity of a phase : 9.430611e-001 First order smothness : 6.818182e-001 Second order smothness : 8.939394e-001
File 02 Independent warriors! - 100% CDDA [03:06.19]
Detected average hi-boundary frequency : 2.037325e+004 Hz Detected average lo-boundary frequency : 1.487531e+004 Hz Detected average hi-cut frequency : 2.151788e+004 Hz Detected average lo-cut frequency : 1.096195e+004 Hz Maximum probablis boundary frequency : 2.189100e+004 Hz Coefficient of nonlinearity of a phase : 1.073643e+000 First order smothness : 4.864865e-001 Second order smothness : 2.972973e-001
File 03 No surrender! - 95% MPEG [03:35.05]
Detected average hi-boundary frequency : 2.006147e+004 Hz Detected average lo-boundary frequency : 1.714377e+004 Hz Detected average hi-cut frequency : 1.982931e+004 Hz Detected average lo-cut frequency : 1.758195e+004 Hz Maximum probablis boundary frequency : 2.189100e+004 Hz Coefficient of nonlinearity of a phase : 1.625352e-002 First order smothness : 7.859922e-001 Second order smothness : 7.354086e-001
File 04 Never enough - 58% CDDA [03:09.55]
Detected average hi-boundary frequency : 2.046415e+004 Hz Detected average lo-boundary frequency : 1.694382e+004 Hz Detected average hi-cut frequency : 2.102094e+004 Hz Detected average lo-cut frequency : 1.717113e+004 Hz Maximum probablis boundary frequency : 2.190200e+004 Hz Coefficient of nonlinearity of a phase : 8.485369e-002 First order smothness : 8.185841e-001 Second order smothness : 7.389381e-001
File 05 If you watch - 100% CDDA [03:11.57]
Detected average hi-boundary frequency : 2.076158e+004 Hz Detected average lo-boundary frequency : 1.438851e+004 Hz Detected average hi-cut frequency : 2.174726e+004 Hz Detected average lo-cut frequency : 1.492785e+004 Hz Maximum probablis boundary frequency : 2.189100e+004 Hz Coefficient of nonlinearity of a phase : 4.029655e-001 First order smothness : 4.890830e-001 Second order smothness : 7.074236e-001
File 06 Suffolk's most wanted! - 100% CDDA [03:35.73]
Detected average hi-boundary frequency : 2.033263e+004 Hz Detected average lo-boundary frequency : 1.396719e+004 Hz Detected average hi-cut frequency : 2.155675e+004 Hz Detected average lo-cut frequency : 1.056887e+004 Hz Maximum probablis boundary frequency : 2.189100e+004 Hz Coefficient of nonlinearity of a phase : 3.633902e-001 First order smothness : 5.155039e-001 Second order smothness : 3.527132e-001
File 07 This ain't my day - 100% CDDA [03:54.21]
Detected average hi-boundary frequency : 2.028704e+004 Hz Detected average lo-boundary frequency : 1.369530e+004 Hz Detected average hi-cut frequency : 2.163101e+004 Hz Detected average lo-cut frequency : 9.996621e+003 Hz Maximum probablis boundary frequency : 2.189600e+004 Hz Coefficient of nonlinearity of a phase : 1.281563e-001 First order smothness : 4.714286e-001 Second order smothness : 5.750000e-001
File 08 Dirty goons - 100% CDDA [03:12.20]
Detected average hi-boundary frequency : 2.015700e+004 Hz Detected average lo-boundary frequency : 1.487382e+004 Hz Detected average hi-cut frequency : 2.112064e+004 Hz Detected average lo-cut frequency : 1.489696e+004 Hz Maximum probablis boundary frequency : 2.191300e+004 Hz Coefficient of nonlinearity of a phase : 6.707314e-002 First order smothness : 5.173913e-001 Second order smothness : 6.782609e-001
File 09 Violent rage! - 100% CDDA [03:41.56]
Detected average hi-boundary frequency : 2.057679e+004 Hz Detected average lo-boundary frequency : 1.367943e+004 Hz Detected average hi-cut frequency : 2.134474e+004 Hz Detected average lo-cut frequency : 1.009020e+004 Hz Maximum probablis boundary frequency : 2.189600e+004 Hz Coefficient of nonlinearity of a phase : 4.603819e-001 First order smothness : 4.981132e-001 Second order smothness : 2.641509e-001
File 10 Ride or die - 100% CDDA [03:47.69]
Detected average hi-boundary frequency : 2.062321e+004 Hz Detected average lo-boundary frequency : 1.534185e+004 Hz Detected average hi-cut frequency : 2.127922e+004 Hz Detected average lo-cut frequency : 6.039489e+003 Hz Maximum probablis boundary frequency : 2.128300e+004 Hz Coefficient of nonlinearity of a phase : 8.357354e-001 First order smothness : 5.735294e-001 Second order smothness : 3.382353e-001
File 11 Sweatshop Deathrock - 85% CDDA [03:18.52]
Detected average hi-boundary frequency : 2.079692e+004 Hz Detected average lo-boundary frequency : 1.569745e+004 Hz Detected average hi-cut frequency : 2.128727e+004 Hz Detected average lo-cut frequency : 1.745340e+004 Hz Maximum probablis boundary frequency : 2.190200e+004 Hz Coefficient of nonlinearity of a phase : 1.350784e-001 First order smothness : 5.316456e-001 Second order smothness : 7.805907e-001
File 12 All in a days work (Snowgoons remix) - 100% CDDA [02:30.52]
Detected average hi-boundary frequency : 2.075897e+004 Hz Detected average lo-boundary frequency : 1.468765e+004 Hz Detected average hi-cut frequency : 2.129973e+004 Hz Detected average lo-cut frequency : 1.267582e+004 Hz Maximum probablis boundary frequency : 2.190700e+004 Hz Coefficient of nonlinearity of a phase : 1.391206e-001 First order smothness : 4.666667e-001 Second order smothness : 5.500000e-001
File 13 Dirty cops - 100% CDDA [03:47.69]
Detected average hi-boundary frequency : 2.033652e+004 Hz Detected average lo-boundary frequency : 1.312104e+004 Hz Detected average hi-cut frequency : 2.105533e+004 Hz Detected average lo-cut frequency : 6.033016e+003 Hz Maximum probablis boundary frequency : 2.189100e+004 Hz Coefficient of nonlinearity of a phase : 1.672794e+000 First order smothness : 4.375000e-001 Second order smothness : 4.595588e-001
File 14 We're all equal! - 100% CDDA [03:14.20]
Detected average hi-boundary frequency : 2.046491e+004 Hz Detected average lo-boundary frequency : 1.234559e+004 Hz Detected average hi-cut frequency : 2.148416e+004 Hz Detected average lo-cut frequency : 5.664446e+003 Hz Maximum probablis boundary frequency : 2.190200e+004 Hz Coefficient of nonlinearity of a phase : 1.201805e+000 First order smothness : 4.655172e-001 Second order smothness : 4.827586e-001
File 15 Lehettem volna - 100% CDDA [05:41.32]
Detected average hi-boundary frequency : 2.026008e+004 Hz Detected average lo-boundary frequency : 1.346231e+004 Hz Detected average hi-cut frequency : 2.122135e+004 Hz Detected average lo-cut frequency : 5.194495e+003 Hz Maximum probablis boundary frequency : 2.189600e+004 Hz Coefficient of nonlinearity of a phase : 2.303426e-001 First order smothness : 4.545455e-001 Second order smothness : 2.727273e-001
File 16 Progression - 100% CDDA [03:16.15]
Detected average hi-boundary frequency : 2.017066e+004 Hz Detected average lo-boundary frequency : 1.360243e+004 Hz Detected average hi-cut frequency : 2.126525e+004 Hz Detected average lo-cut frequency : 7.873198e+003 Hz Maximum probablis boundary frequency : 2.189600e+004 Hz Coefficient of nonlinearity of a phase : 7.356747e-001 First order smothness : 4.316239e-001 Second order smothness : 5.598291e-001
File 17 Talk to me - 100% CDDA [03:59.35]
Detected average hi-boundary frequency : 2.061235e+004 Hz Detected average lo-boundary frequency : 1.456572e+004 Hz Detected average hi-cut frequency : 2.170547e+004 Hz Detected average lo-cut frequency : 1.364945e+004 Hz Maximum probablis boundary frequency : 2.189600e+004 Hz Coefficient of nonlinearity of a phase : 6.027192e-001 First order smothness : 5.034965e-001 Second order smothness : 4.930070e-001
File 18 Beastiality (Snowgoons remix) - 94% CDDA [04:02.14]
Detected average hi-boundary frequency : 2.073116e+004 Hz Detected average lo-boundary frequency : 1.583390e+004 Hz Detected average hi-cut frequency : 2.100103e+004 Hz Detected average lo-cut frequency : 1.246074e+004 Hz Maximum probablis boundary frequency : 2.189600e+004 Hz Coefficient of nonlinearity of a phase : 4.900444e-002 First order smothness : 5.570934e-001 Second order smothness : 6.159170e-001
————— Summary: —————These tracks looks like CDDA with probability 100%.————————————————————————————————————————————————————————————————————————
ANALYZER: auCDtect: CD records authenticity detector, version 0.8.2 Copyright (c) 2004 Oleg Berngardt. All rights reserved. Copyright (c) 2004 Alexander Djourik. All rights reserved.
Time elapsed: 37.7 sLog created at September 06, 2016 20:16:16
=== B61029F590FDAF5832C7B169BD100508AA8B01314C9722165BC809DA3C7F1773 ===

Скриншот(ы) тегов iTunes

2016 - Goon Bap (01:14:59)

Издатель (лейбл): Goon MuSick
Номер по каталогу: GM16-022
Треклист:
01. Kick, snare & hi-hats intro with DJ Premier & Royce Da 59
02. Goon Bap ft. Reef The Lost Cauze & Sicknature
03. The 90's are back ft. O.C. & DoItAll (Lords Of The Underground) & UG (Cella Dwellas) & Sticky Fingaz (Onyx) & Dres (Black Sheep) & Nine & Sonny Seeza (Onyx) & Ras Kass & Psycho Les (Beatnuts)
04. All city Kingz ft. Artifacts
05. Team death match ft. Diabolic & Chino XL & Lil Fame (M,O,P,) & Fredro Starr (Onyx) & Justin Tyme
06. Keep runnin' ft. Chris Rivers
07. Problems ft. Locksmith & Skrewtape & Rite Hook
08. Way ahead ft. Dilated Peoples
09. I reminisce ft. Intell & Sean Strange & Method Man
10. Steady Cloakin ft. The Doppelgangaz
11. We won't die! ft. Sicknature & Sean Strange
12. It's a Queens thing ft. Infamous Mobb
13. Cypher God ft. Passionate MC
14. Solid gold guns ft. Conway & Banish & Supreme Cerebral & Recognize Ali
15. Know what you're facing? ft. Killah Priest & Slaine & Aspects
16. Give me room ft. Flatlinerz
17. Tight team ft. Epidemic
18. New Kidz on the blok ft. Token & TJ Brown & Big Kurt & Intell & Merkules
19. Freedom ft. Sicknature & Snak The Ripper & Block McCloud
20. Killaz Supreme ft. Ghostface Killah & Ill Bill & Aspects & Sick Jacken
21. My advice ft Pumpkinhead aka PH

Лог создания рипа

Exact Audio Copy V1.3 from 2. September 2016
Отчёт EAC об извлечении, выполненном 15. января 2017, 17:01
Snowgoons / Gooon Bap
Дисковод: HL-DT-STDVDRAM GP60NB50 Adapter: 1 ID: 0
Режим чтения : ДостоверностьИспользование точного потока : ДаОтключение кэша аудио : ДаИспользование указателей C2 : Нет
Коррекция смещения при чтении : 6Способность читать области Lead-in и Lead-out : НетЗаполнение пропущенных сэмплов тишиной : ДаУдаление блоков с тишиной в начале и конце : НетПри вычислениях CRC использовались нулевые сэмплы : ДаИнтерфейс : Встроенный Win32-интерфейс для Win NT/2000Обработка зазоров : Добавлено к предыдущему треку
Выходной формат : Пользовательский кодировщикВыбранный битрейт : 128 kBit/sКачество : ВысокийДобавление ID3-тега : НетУтилита сжатия : C:\Users\Антон\Downloads\qaac_2.61\qaac_2.61\x64\refalac64.exeДополнительные параметры : -s --ignorelength --artist "%artist%" --title "%title%" --album "%albumtitle%" --date "%year%" --track "%tracknr%" --genre "%genre%" -o %dest% %source%
TOC извлечённого CD
Трек | Старт | Длительность | Начальный сектор | Конечный сектор --------------------------------------------------------------------- 1 | 0:00.00 | 1:08.31 | 0 | 5130 2 | 1:08.31 | 2:54.06 | 5131 | 18186 3 | 4:02.37 | 4:23.23 | 18187 | 37934 4 | 8:25.60 | 4:11.19 | 37935 | 56778 5 | 12:37.04 | 4:43.55 | 56779 | 78058 6 | 17:20.59 | 2:54.56 | 78059 | 91164 7 | 20:15.40 | 4:25.65 | 91165 | 111104 8 | 24:41.30 | 3:18.03 | 111105 | 125957 9 | 27:59.33 | 3:31.18 | 125958 | 141800 10 | 31:30.51 | 3:48.12 | 141801 | 158912 11 | 35:18.63 | 3:07.31 | 158913 | 172968 12 | 38:26.19 | 2:37.24 | 172969 | 184767 13 | 41:03.43 | 2:46.54 | 184768 | 197271 14 | 43:50.22 | 4:15.40 | 197272 | 216436 15 | 48:05.62 | 4:10.19 | 216437 | 235205 16 | 52:16.06 | 2:43.53 | 235206 | 247483 17 | 54:59.59 | 3:23.58 | 247484 | 262766 18 | 58:23.42 | 4:59.18 | 262767 | 285209 19 | 63:22.60 | 3:41.24 | 285210 | 301808 20 | 67:04.09 | 4:28.61 | 301809 | 321969 21 | 71:32.70 | 3:26.22 | 321970 | 337441
Трек 1
Имя файла C:\Users\Антон\Downloads\Snowgoons\2016 - Goon Bap\01 Kick, snare & hi-hats intro with DJ Premier & Royce Da 59.wav
Длина предзазора 0:00:02.00
Пиковый уровень 100.0 % Скорость извлечения 2.0 X Качество трека 100.0 % CRC теста 13055E9E CRC копии 13055E9E Трек не обнаружен в базе AccurateRip Копирование... OK
Трек 2
Имя файла C:\Users\Антон\Downloads\Snowgoons\2016 - Goon Bap\02 Goon Bap ft. Reef The Lost Cauze & Sicknature.wav
Пиковый уровень 98.7 % Скорость извлечения 2.7 X Качество трека 100.0 % CRC теста F010983B CRC копии F010983B Трек не обнаружен в базе AccurateRip Копирование... OK
Трек 3
Имя файла C:\Users\Антон\Downloads\Snowgoons\2016 - Goon Bap\03 The 90's are back.wav
Пиковый уровень 100.0 % Скорость извлечения 3.2 X Качество трека 100.0 % CRC теста 1DA24AAC CRC копии 1DA24AAC Трек не обнаружен в базе AccurateRip Копирование... OK
Трек 4
Имя файла C:\Users\Антон\Downloads\Snowgoons\2016 - Goon Bap\04 All city Kingz ft. Artifacts.wav
Пиковый уровень 100.0 % Скорость извлечения 3.4 X Качество трека 100.0 % CRC теста DDD508D1 CRC копии DDD508D1 Трек не обнаружен в базе AccurateRip Копирование... OK
Трек 5
Имя файла C:\Users\Антон\Downloads\Snowgoons\2016 - Goon Bap\05 Team death match.wav
Пиковый уровень 100.0 % Скорость извлечения 3.7 X Качество трека 100.0 % CRC теста 61127CCE CRC копии 61127CCE Трек не обнаружен в базе AccurateRip Копирование... OK
Трек 6
Имя файла C:\Users\Антон\Downloads\Snowgoons\2016 - Goon Bap\06 Keep runnin' ft. Chris Rivers.wav
Пиковый уровень 100.0 % Скорость извлечения 3.7 X Качество трека 100.0 % CRC теста E7FE0097 CRC копии E7FE0097 Трек не обнаружен в базе AccurateRip Копирование... OK
Трек 7
Имя файла C:\Users\Антон\Downloads\Snowgoons\2016 - Goon Bap\07 Problems ft. Locksmith & Skrewtape & Rite Hook.wav
Пиковый уровень 100.0 % Скорость извлечения 3.7 X Качество трека 100.0 % CRC теста 511220C1 CRC копии 511220C1 Трек не обнаружен в базе AccurateRip Копирование... OK
Трек 8
Имя файла C:\Users\Антон\Downloads\Snowgoons\2016 - Goon Bap\08 Way ahead ft. Dilated Peoples.wav
Пиковый уровень 100.0 % Скорость извлечения 1.8 X Качество трека 100.0 % CRC теста 331D3146 CRC копии 331D3146 Трек не обнаружен в базе AccurateRip Копирование... OK
Трек 9
Имя файла C:\Users\Антон\Downloads\Snowgoons\2016 - Goon Bap\09 I reminisce ft. Intell & Sean Strange & Method Man.wav
Пиковый уровень 100.0 % Скорость извлечения 4.3 X Качество трека 100.0 % CRC теста 98DD2501 CRC копии 98DD2501 Трек не обнаружен в базе AccurateRip Копирование... OK
Трек 10
Имя файла C:\Users\Антон\Downloads\Snowgoons\2016 - Goon Bap\10 Steady Cloakin ft Doppelgangaz.wav
Пиковый уровень 100.0 % Скорость извлечения 1.9 X Качество трека 100.0 % CRC теста E0BB99DA CRC копии E0BB99DA Трек не обнаружен в базе AccurateRip Копирование... OK
Трек 11
Имя файла C:\Users\Антон\Downloads\Snowgoons\2016 - Goon Bap\11 We won't die! ft. Sicknature & Sean Strange.wav
Пиковый уровень 100.0 % Скорость извлечения 1.9 X Качество трека 100.0 % CRC теста 1752B096 CRC копии 1752B096 Трек не обнаружен в базе AccurateRip Копирование... OK
Трек 12
Имя файла C:\Users\Антон\Downloads\Snowgoons\2016 - Goon Bap\12 It's a Queens thing ft. Infamous Mobb.wav
Пиковый уровень 100.0 % Скорость извлечения 1.9 X Качество трека 100.0 % CRC теста 32E4346E CRC копии 32E4346E Трек не обнаружен в базе AccurateRip Копирование... OK
Трек 13
Имя файла C:\Users\Антон\Downloads\Snowgoons\2016 - Goon Bap\13 Cypher God ft Passionate MC.wav
Пиковый уровень 100.0 % Скорость извлечения 2.0 X Качество трека 100.0 % CRC теста 03E8B394 CRC копии 03E8B394 Трек не обнаружен в базе AccurateRip Копирование... OK
Трек 14
Имя файла C:\Users\Антон\Downloads\Snowgoons\2016 - Goon Bap\14 Solid gold guns ft. Conway & Banish & Supreme Cerebral & Recognize Ali.wav
Пиковый уровень 100.0 % Скорость извлечения 2.2 X Качество трека 100.0 % CRC теста 9806E6D3 CRC копии 9806E6D3 Трек не обнаружен в базе AccurateRip Копирование... OK
Трек 15
Имя файла C:\Users\Антон\Downloads\Snowgoons\2016 - Goon Bap\15 Know what you're facing ft. Killah Priest & Slaine & Aspects.wav
Пиковый уровень 100.0 % Скорость извлечения 2.2 X Качество трека 100.0 % CRC теста 4E8D458A CRC копии 4E8D458A Трек не обнаружен в базе AccurateRip Копирование... OK
Трек 16
Имя файла C:\Users\Антон\Downloads\Snowgoons\2016 - Goon Bap\16 Give me room ft. Flatlinerz.wav
Пиковый уровень 100.0 % Скорость извлечения 2.1 X Качество трека 100.0 % CRC теста D9BEED96 CRC копии D9BEED96 Трек не обнаружен в базе AccurateRip Копирование... OK
Трек 17
Имя файла C:\Users\Антон\Downloads\Snowgoons\2016 - Goon Bap\17 Tight team ft. Epidemic.wav
Пиковый уровень 100.0 % Скорость извлечения 2.3 X Качество трека 100.0 % CRC теста 2754BED6 CRC копии 2754BED6 Трек не обнаружен в базе AccurateRip Копирование... OK
Трек 18
Имя файла C:\Users\Антон\Downloads\Snowgoons\2016 - Goon Bap\18 New Kidz on the blok ft. Token & TJ Brown & Big Kurt & Intell & Merkules.wav
Пиковый уровень 94.4 % Скорость извлечения 2.5 X Качество трека 100.0 % CRC теста 242CFE30 CRC копии 242CFE30 Трек не обнаружен в базе AccurateRip Копирование... OK
Трек 19
Имя файла C:\Users\Антон\Downloads\Snowgoons\2016 - Goon Bap\19 Freedom ft. Sicknature & Snak The Ripper & Block McCloud.wav
Пиковый уровень 100.0 % Скорость извлечения 2.4 X Качество трека 100.0 % CRC теста 9C593C12 CRC копии 9C593C12 Трек не обнаружен в базе AccurateRip Копирование... OK
Трек 20
Имя файла C:\Users\Антон\Downloads\Snowgoons\2016 - Goon Bap\20 Killaz Supreme ft. Ghostface Killah & Ill Bill & Aspects & Sick Jacken.wav
Пиковый уровень 100.0 % Скорость извлечения 2.6 X Качество трека 100.0 % CRC теста 5B7ABD0F CRC копии 5B7ABD0F Трек не обнаружен в базе AccurateRip Копирование... OK
Трек 21
Имя файла C:\Users\Антон\Downloads\Snowgoons\2016 - Goon Bap\21 My advice ft Pumpkinhead aka PH.wav
Длина предзазора 0:00:00.03
Пиковый уровень 100.0 % Скорость извлечения 2.6 X Качество трека 100.0 % CRC теста D36485DC CRC копии D36485DC Трек не обнаружен в базе AccurateRip Копирование... OK
Ни одного трека нет в базе AccurateRip
Ошибок не произошло
Конец отчёта
---- CUETools DB Plugin V2.1.6
[CTDB TOCID: DJdiZh_YAfm0HdH68VI.Rf8Psx8-] foundSubmit result: Время ожидания операции истеклоTrack | CTDB Status 1 | (2/2) Accurately ripped 2 | (2/2) Accurately ripped 3 | (2/2) Accurately ripped 4 | (2/2) Accurately ripped 5 | (2/2) Accurately ripped 6 | (2/2) Accurately ripped 7 | (2/2) Accurately ripped 8 | (2/2) Accurately ripped 9 | (2/2) Accurately ripped 10 | (2/2) Accurately ripped 11 | (2/2) Accurately ripped 12 | (2/2) Accurately ripped 13 | (2/2) Accurately ripped 14 | (2/2) Accurately ripped 15 | (2/2) Accurately ripped 16 | (2/2) Accurately ripped 17 | (2/2) Accurately ripped 18 | (2/2) Accurately ripped 19 | (2/2) Accurately ripped 20 | (2/2) Accurately ripped 21 | (2/2) Accurately ripped
==== Контрольная сумма отчёта A52A69AB6B722E607293041A773122EFE7A152A6464B144B6FB118021C5A8CCB ====

Содержание индексной карты (.CUE)

REM GENRE RapREM DATE 2016REM DISCID 15119315REM COMMENT "ExactAudioCopy v1.3"PERFORMER "Snowgoons"TITLE "Gooon Bap"REM COMPOSER ""FILE "01 Kick, snare & hi-hats intro with DJ Premier & Royce Da 59.wav" WAVE TRACK 01 AUDIO TITLE "Kick, snare & hi-hats intro with DJ Premier & Royce Da 59" PERFORMER "Snowgoons" REM COMPOSER "" INDEX 01 00:00:00FILE "02 Goon Bap ft. Reef The Lost Cauze & Sicknature.wav" WAVE TRACK 02 AUDIO TITLE "Goon Bap ft. Reef The Lost Cauze & Sicknature" PERFORMER "Snowgoons" REM COMPOSER "" INDEX 01 00:00:00FILE "03 The 90's are back.wav" WAVE TRACK 03 AUDIO TITLE "The 90's are back" PERFORMER "Snowgoons ft. O.C. & DoItAll & UG & Sticky Fingaz & Dres & Nine & Sonny Seeza..." REM COMPOSER "" INDEX 01 00:00:00FILE "04 All city Kingz ft. Artifacts.wav" WAVE TRACK 04 AUDIO TITLE "All city Kingz ft. Artifacts" PERFORMER "Snowgoons" REM COMPOSER "" INDEX 01 00:00:00FILE "05 Team death match.wav" WAVE TRACK 05 AUDIO TITLE "Team death match" PERFORMER "Snowgoons ft. Diabolic & Chino XL & Lil Fame & Fredro Starr & Justin Tyme" REM COMPOSER "" INDEX 01 00:00:00FILE "06 Keep runnin' ft. Chris Rivers.wav" WAVE TRACK 06 AUDIO TITLE "Keep runnin' ft. Chris Rivers" PERFORMER "Snowgoons" REM COMPOSER "" INDEX 01 00:00:00FILE "07 Problems ft. Locksmith & Skrewtape & Rite Hook.wav" WAVE TRACK 07 AUDIO TITLE "Problems ft. Locksmith & Skrewtape & Rite Hook" PERFORMER "Snowgoons" REM COMPOSER "" INDEX 01 00:00:00FILE "08 Way ahead ft. Dilated Peoples.wav" WAVE TRACK 08 AUDIO TITLE "Way ahead ft. Dilated Peoples" PERFORMER "Snowgoons" REM COMPOSER "" INDEX 01 00:00:00FILE "09 I reminisce ft. Intell & Sean Strange & Method Man.wav" WAVE TRACK 09 AUDIO TITLE "I reminisce ft. Intell & Sean Strange & Method Man" PERFORMER "Snowgoons" REM COMPOSER "" INDEX 01 00:00:00FILE "10 Steady Cloakin ft Doppelgangaz.wav" WAVE TRACK 10 AUDIO TITLE "Steady Cloakin ft Doppelgangaz" PERFORMER "Snowgoons" REM COMPOSER "" INDEX 01 00:00:00FILE "11 We won't die! ft. Sicknature & Sean Strange.wav" WAVE TRACK 11 AUDIO TITLE "We won't die! ft. Sicknature & Sean Strange" PERFORMER "Snowgoons" REM COMPOSER "" INDEX 01 00:00:00FILE "12 It's a Queens thing ft. Infamous Mobb.wav" WAVE TRACK 12 AUDIO TITLE "It's a Queens thing ft. Infamous Mobb" PERFORMER "Snowgoons" REM COMPOSER "" INDEX 01 00:00:00FILE "13 Cypher God ft Passionate MC.wav" WAVE TRACK 13 AUDIO TITLE "Cypher God ft Passionate MC" PERFORMER "Snowgoons" REM COMPOSER "" INDEX 01 00:00:00FILE "14 Solid gold guns ft. Conway & Banish & Supreme Cerebral & Recognize Ali.wav" WAVE TRACK 14 AUDIO TITLE "Solid gold guns ft. Conway & Banish & Supreme Cerebral & Recognize Ali" PERFORMER "Snowgoons" REM COMPOSER "" INDEX 01 00:00:00FILE "15 Know what you're facing ft. Killah Priest & Slaine & Aspects.wav" WAVE TRACK 15 AUDIO TITLE "Know what you're facing? ft. Killah Priest & Slaine & Aspects" PERFORMER "Snowgoons" REM COMPOSER "" INDEX 01 00:00:00FILE "16 Give me room ft. Flatlinerz.wav" WAVE TRACK 16 AUDIO TITLE "Give me room ft. Flatlinerz" PERFORMER "Snowgoons" REM COMPOSER "" INDEX 01 00:00:00FILE "17 Tight team ft. Epidemic.wav" WAVE TRACK 17 AUDIO TITLE "Tight team ft. Epidemic" PERFORMER "Snowgoons" REM COMPOSER "" INDEX 01 00:00:00FILE "18 New Kidz on the blok ft. Token & TJ Brown & Big Kurt & Intell & Merkules.wav" WAVE TRACK 18 AUDIO TITLE "New Kidz on the blok ft. Token & TJ Brown & Big Kurt & Intell & Merkules" PERFORMER "Snowgoons" REM COMPOSER "" INDEX 01 00:00:00FILE "19 Freedom ft. Sicknature & Snak The Ripper & Block McCloud.wav" WAVE TRACK 19 AUDIO TITLE "Freedom ft. Sicknature & Snak The Ripper & Block McCloud" PERFORMER "Snowgoons" REM COMPOSER "" INDEX 01 00:00:00FILE "20 Killaz Supreme ft. Ghostface Killah & Ill Bill & Aspects & Sick Jacken.wav" WAVE TRACK 20 AUDIO TITLE "Killaz Supreme ft. Ghostface Killah & Ill Bill & Aspects & Sick Jacken" PERFORMER "Snowgoons" REM COMPOSER "" INDEX 01 00:00:00 TRACK 21 AUDIO TITLE "My advice ft Pumpkinhead aka PH" PERFORMER "Snowgoons" REM COMPOSER "" INDEX 00 04:28:58FILE "21 My advice ft Pumpkinhead aka PH.wav" WAVE INDEX 01 00:00:00

Лог проверки качества

CUE Corrector v. 8.2.3 / b. 733 (Jan. 15, 2017)————————————————————————————————————————————————————————————————————————--- / Gooon Bap
Folder: 2016 - Goon BapAudio files: 01 Kick, snare & hi-hats intro with DJ Premier & Royce Da 59.m4a [01:08.31; ALAC • 877 kbps • 16 bit \ 44100 Hz • stereo; 7,16 MB (7 510 364 B)] 02 Goon Bap ft. Reef The Lost Cauze & Sicknature.m4a [02:54.06; ALAC • 983 kbps • 16 bit \ 44100 Hz • stereo; 20,43 MB (21 419 393 B)] 03 The 90's are back.m4a [04:23.23; ALAC • 1004 kbps • 16 bit \ 44100 Hz • stereo; 31,56 MB (33 091 339 B)] 04 All city Kingz ft. Artifacts.m4a [04:11.19; ALAC • 974 kbps • 16 bit \ 44100 Hz • stereo; 29,21 MB (30 633 964 B)] 05 Team death match.m4a [04:43.55; ALAC • 1026 kbps • 16 bit \ 44100 Hz • stereo; 34,74 MB (36 423 119 B)] 06 Keep runnin' ft. Chris Rivers.m4a [02:54.56; ALAC • 972 kbps • 16 bit \ 44100 Hz • stereo; 20,27 MB (21 256 324 B)] 07 Problems ft. Locksmith & Skrewtape & Rite Hook.m4a [04:25.65; ALAC • 912 kbps • 16 bit \ 44100 Hz • stereo; 28,95 MB (30 351 645 B)] 08 Way ahead ft. Dilated Peoples.m4a [03:18.03; ALAC • 933 kbps • 16 bit \ 44100 Hz • stereo; 22,05 MB (23 123 218 B)] 09 I reminisce ft. Intell & Sean Strange & Method Man.m4a [03:31.18; ALAC • 913 kbps • 16 bit \ 44100 Hz • stereo; 23,02 MB (24 138 334 B)] 10 Steady Cloakin ft Doppelgangaz.m4a [03:48.12; ALAC • 945 kbps • 16 bit \ 44100 Hz • stereo; 25,73 MB (26 984 376 B)] 11 We won't die! ft. Sicknature & Sean Strange.m4a [03:07.31; ALAC • 986 kbps • 16 bit \ 44100 Hz • stereo; 22,05 MB (23 123 393 B)] 12 It's a Queens thing ft. Infamous Mobb.m4a [02:37.24; ALAC • 966 kbps • 16 bit \ 44100 Hz • stereo; 18,13 MB (19 010 395 B)] 13 Cypher God ft Passionate MC.m4a [02:46.54; ALAC • 946 kbps • 16 bit \ 44100 Hz • stereo; 18,82 MB (19 731 681 B)] 14 Solid gold guns ft. Conway & Banish & Supreme Cerebral & Recognize Ali.m4a [04:15.40; ALAC • 961 kbps • 16 bit \ 44100 Hz • stereo; 29,32 MB (30 740 170 B)] 15 Know what you're facing ft. Killah Priest & Slaine & Aspects.m4a [04:10.19; ALAC • 922 kbps • 16 bit \ 44100 Hz • stereo; 27,53 MB (28 869 357 B)] 16 Give me room ft. Flatlinerz.m4a [02:43.53; ALAC • 991 kbps • 16 bit \ 44100 Hz • stereo; 19,36 MB (20 300 134 B)] 17 Tight team ft. Epidemic.m4a [03:23.58; ALAC • 757 kbps • 16 bit \ 44100 Hz • stereo; 18,42 MB (19 315 891 B)] 18 New Kidz on the blok ft. Token & TJ Brown & Big Kurt & Intell & Merkules.m4a [04:59.18; ALAC • 1030 kbps • 16 bit \ 44100 Hz • stereo; 36,76 MB (38 546 500 B)] 19 Freedom ft. Sicknature & Snak The Ripper & Block McCloud.m4a [03:41.24; ALAC • 934 kbps • 16 bit \ 44100 Hz • stereo; 24,66 MB (25 861 552 B)] 20 Killaz Supreme ft. Ghostface Killah & Ill Bill & Aspects & Sick Jacken.m4a [04:28.61; ALAC • 992 kbps • 16 bit \ 44100 Hz • stereo; 31,82 MB (33 370 152 B)] 21 My advice ft Pumpkinhead aka PH.m4a [03:26.22; ALAC • 844 kbps • 16 bit \ 44100 Hz • stereo; 20,79 MB (21 797 192 B)]
Accuracy: -m8
File 01 Kick, snare & hi-hats intro with DJ Premier & Royce Da 59 - 100% CDDA [01:08.31]
Detected average hi-boundary frequency : 1.997759e+004 Hz Detected average lo-boundary frequency : 1.511994e+004 Hz Detected average hi-cut frequency : 2.085059e+004 Hz Detected average lo-cut frequency : 1.524415e+004 Hz Maximum probablis boundary frequency : 2.134200e+004 Hz Coefficient of nonlinearity of a phase : 1.428478e-001 First order smothness : 5.925926e-001 Second order smothness : 5.061728e-001
File 02 Goon Bap ft. Reef The Lost Cauze & Sicknature - 100% CDDA [02:54.06]
Detected average hi-boundary frequency : 2.095154e+004 Hz Detected average lo-boundary frequency : 1.690889e+004 Hz Detected average hi-cut frequency : 2.141972e+004 Hz Detected average lo-cut frequency : 1.610184e+004 Hz Maximum probablis boundary frequency : 2.170800e+004 Hz Coefficient of nonlinearity of a phase : 6.825394e-002 First order smothness : 5.933014e-001 Second order smothness : 6.124402e-001
File 03 The 90's are back - 100% CDDA [04:23.23]
Detected average hi-boundary frequency : 2.089414e+004 Hz Detected average lo-boundary frequency : 1.737902e+004 Hz Detected average hi-cut frequency : 2.145294e+004 Hz Detected average lo-cut frequency : 1.348203e+004 Hz Maximum probablis boundary frequency : 2.177300e+004 Hz Coefficient of nonlinearity of a phase : 1.054306e-001 First order smothness : 6.444444e-001 Second order smothness : 4.285714e-001
File 04 All city Kingz ft. Artifacts - 100% CDDA [04:11.19]
Detected average hi-boundary frequency : 2.062221e+004 Hz Detected average lo-boundary frequency : 1.666942e+004 Hz Detected average hi-cut frequency : 2.089061e+004 Hz Detected average lo-cut frequency : 1.403350e+004 Hz Maximum probablis boundary frequency : 2.173000e+004 Hz Coefficient of nonlinearity of a phase : 5.357715e-002 First order smothness : 6.212625e-001 Second order smothness : 4.352159e-001
File 05 Team death match - 100% CDDA [04:43.55]
Detected average hi-boundary frequency : 2.102439e+004 Hz Detected average lo-boundary frequency : 1.713623e+004 Hz Detected average hi-cut frequency : 2.160212e+004 Hz Detected average lo-cut frequency : 1.426254e+004 Hz Maximum probablis boundary frequency : 2.177800e+004 Hz Coefficient of nonlinearity of a phase : 2.249884e-001 First order smothness : 5.294118e-001 Second order smothness : 3.352941e-001
File 06 Keep runnin' ft. Chris Rivers - 99% CDDA [02:54.56]
Detected average hi-boundary frequency : 2.083067e+004 Hz Detected average lo-boundary frequency : 1.743235e+004 Hz Detected average hi-cut frequency : 2.149412e+004 Hz Detected average lo-cut frequency : 1.733571e+004 Hz Maximum probablis boundary frequency : 2.189100e+004 Hz Coefficient of nonlinearity of a phase : 1.877000e-001 First order smothness : 6.190476e-001 Second order smothness : 5.666667e-001
File 07 Problems ft. Locksmith & Skrewtape & Rite Hook - 100% CDDA [04:25.65]
Detected average hi-boundary frequency : 2.068225e+004 Hz Detected average lo-boundary frequency : 1.663028e+004 Hz Detected average hi-cut frequency : 2.112352e+004 Hz Detected average lo-cut frequency : 1.641339e+004 Hz Maximum probablis boundary frequency : 2.172400e+004 Hz Coefficient of nonlinearity of a phase : 1.107985e-001 First order smothness : 5.673981e-001 Second order smothness : 5.956113e-001
File 08 Way ahead ft. Dilated Peoples - 100% CDDA [03:18.03]
Detected average hi-boundary frequency : 2.097492e+004 Hz Detected average lo-boundary frequency : 1.827641e+004 Hz Detected average hi-cut frequency : 2.160198e+004 Hz Detected average lo-cut frequency : 1.575753e+004 Hz Maximum probablis boundary frequency : 2.189100e+004 Hz Coefficient of nonlinearity of a phase : 2.621332e-001 First order smothness : 6.118143e-001 Second order smothness : 4.894515e-001
File 09 I reminisce ft. Intell & Sean Strange & Method Man - 100% CDDA [03:31.18]
Detected average hi-boundary frequency : 2.041285e+004 Hz Detected average lo-boundary frequency : 1.565222e+004 Hz Detected average hi-cut frequency : 2.071903e+004 Hz Detected average lo-cut frequency : 1.226899e+004 Hz Maximum probablis boundary frequency : 2.180000e+004 Hz Coefficient of nonlinearity of a phase : 2.641015e-002 First order smothness : 5.731225e-001 Second order smothness : 5.098814e-001
File 10 Steady Cloakin ft Doppelgangaz - 100% CDDA [03:48.12]
Detected average hi-boundary frequency : 2.121814e+004 Hz Detected average lo-boundary frequency : 1.797497e+004 Hz Detected average hi-cut frequency : 2.155423e+004 Hz Detected average lo-cut frequency : 1.959666e+004 Hz Maximum probablis boundary frequency : 2.149800e+004 Hz Coefficient of nonlinearity of a phase : 1.239175e-001 First order smothness : 5.934066e-001 Second order smothness : 6.117216e-001
File 11 We won't die! ft. Sicknature & Sean Strange - 100% CDDA [03:07.31]
Detected average hi-boundary frequency : 2.076336e+004 Hz Detected average lo-boundary frequency : 1.773493e+004 Hz Detected average hi-cut frequency : 2.128689e+004 Hz Detected average lo-cut frequency : 1.454714e+004 Hz Maximum probablis boundary frequency : 2.172400e+004 Hz Coefficient of nonlinearity of a phase : 1.816529e-001 First order smothness : 5.644444e-001 Second order smothness : 4.666667e-001
File 12 It's a Queens thing ft. Infamous Mobb - 100% CDDA [02:37.24]
Detected average hi-boundary frequency : 2.082579e+004 Hz Detected average lo-boundary frequency : 1.654297e+004 Hz Detected average hi-cut frequency : 2.155912e+004 Hz Detected average lo-cut frequency : 1.181890e+004 Hz Maximum probablis boundary frequency : 2.166500e+004 Hz Coefficient of nonlinearity of a phase : 1.230785e-001 First order smothness : 5.661376e-001 Second order smothness : 5.238095e-001
File 13 Cypher God ft Passionate MC - 95% MPEG [02:46.54]
Detected average hi-boundary frequency : 2.082055e+004 Hz Detected average lo-boundary frequency : 1.735077e+004 Hz Detected average hi-cut frequency : 2.135013e+004 Hz Detected average lo-cut frequency : 1.771473e+004 Hz Maximum probablis boundary frequency : 2.189100e+004 Hz Coefficient of nonlinearity of a phase : 4.036087e-002 First order smothness : 5.950000e-001 Second order smothness : 6.150000e-001
File 14 Solid gold guns ft. Conway & Banish & Supreme Cerebral & Recognize Ali - 100% CDDA [04:15.40]
Detected average hi-boundary frequency : 2.095362e+004 Hz Detected average lo-boundary frequency : 1.621068e+004 Hz Detected average hi-cut frequency : 2.176704e+004 Hz Detected average lo-cut frequency : 1.855550e+004 Hz Maximum probablis boundary frequency : 2.173500e+004 Hz Coefficient of nonlinearity of a phase : 9.123766e-001 First order smothness : 5.915033e-001 Second order smothness : 6.928105e-001
File 15 Know what you're facing ft. Killah Priest & Slaine & Aspects - 100% CDDA [04:10.19]
Detected average hi-boundary frequency : 2.077038e+004 Hz Detected average lo-boundary frequency : 1.700535e+004 Hz Detected average hi-cut frequency : 2.102744e+004 Hz Detected average lo-cut frequency : 1.297850e+004 Hz Maximum probablis boundary frequency : 2.169700e+004 Hz Coefficient of nonlinearity of a phase : 5.420147e-002 First order smothness : 5.966667e-001 Second order smothness : 5.100000e-001
File 16 Give me room ft. Flatlinerz - 100% CDDA [02:43.53]
Detected average hi-boundary frequency : 2.082774e+004 Hz Detected average lo-boundary frequency : 1.623853e+004 Hz Detected average hi-cut frequency : 2.171393e+004 Hz Detected average lo-cut frequency : 1.432903e+004 Hz Maximum probablis boundary frequency : 2.189100e+004 Hz Coefficient of nonlinearity of a phase : 4.302285e-001 First order smothness : 6.275510e-001 Second order smothness : 5.867347e-001
File 17 Tight team ft. Epidemic - 100% CDDA [03:23.58]
Detected average hi-boundary frequency : 2.081366e+004 Hz Detected average lo-boundary frequency : 1.704310e+004 Hz Detected average hi-cut frequency : 2.175678e+004 Hz Detected average lo-cut frequency : 1.697695e+004 Hz Maximum probablis boundary frequency : 2.180500e+004 Hz Coefficient of nonlinearity of a phase : 7.329228e-001 First order smothness : 5.245902e-001 Second order smothness : 6.762295e-001
File 18 New Kidz on the blok ft. Token & TJ Brown & Big Kurt & Intell & Merkules - 100% CDDA [04:59.18]
Detected average hi-boundary frequency : 2.122261e+004 Hz Detected average lo-boundary frequency : 1.843360e+004 Hz Detected average hi-cut frequency : 2.178642e+004 Hz Detected average lo-cut frequency : 1.804239e+004 Hz Maximum probablis boundary frequency : 2.189100e+004 Hz Coefficient of nonlinearity of a phase : 5.950143e-001 First order smothness : 6.452514e-001 Second order smothness : 5.307263e-001
File 19 Freedom ft. Sicknature & Snak The Ripper & Block McCloud - 100% CDDA [03:41.24]
Detected average hi-boundary frequency : 2.087835e+004 Hz Detected average lo-boundary frequency : 1.570376e+004 Hz Detected average hi-cut frequency : 2.137952e+004 Hz Detected average lo-cut frequency : 1.233559e+004 Hz Maximum probablis boundary frequency : 2.149800e+004 Hz Coefficient of nonlinearity of a phase : 8.704818e-002 First order smothness : 5.358491e-001 Second order smothness : 5.811321e-001
File 20 Killaz Supreme ft. Ghostface Killah & Ill Bill & Aspects & Sick Jacken - 100% CDDA [04:28.61]
Detected average hi-boundary frequency : 2.103495e+004 Hz Detected average lo-boundary frequency : 1.686559e+004 Hz Detected average hi-cut frequency : 2.151558e+004 Hz Detected average lo-cut frequency : 1.552132e+004 Hz Maximum probablis boundary frequency : 2.176700e+004 Hz Coefficient of nonlinearity of a phase : 1.605864e-001 First order smothness : 6.180124e-001 Second order smothness : 4.534161e-001
File 21 My advice ft Pumpkinhead aka PH - 95% MPEG [03:26.22]
Detected average hi-boundary frequency : 2.018870e+004 Hz Detected average lo-boundary frequency : 1.580130e+004 Hz Detected average hi-cut frequency : 2.016811e+004 Hz Detected average lo-cut frequency : 1.492429e+004 Hz Maximum probablis boundary frequency : 2.150900e+004 Hz Coefficient of nonlinearity of a phase : 1.338204e-002 First order smothness : 5.609756e-001 Second order smothness : 6.097561e-001
————— Summary: —————These tracks looks like CDDA with probability 100%.————————————————————————————————————————————————————————————————————————
ANALYZER: auCDtect: CD records authenticity detector, version 0.8.2 Copyright (c) 2004 Oleg Berngardt. All rights reserved. Copyright (c) 2004 Alexander Djourik. All rights reserved.
Time elapsed: 48.9 sLog created at January 15, 2017 19:58:02
=== C0BF69569664ACE0DA9C2AB69D58E29639E8A3EF1335DBC864D9C4B93C54D186 ===

Скриншот(ы) тегов iTunes

Об альбоме (сборнике)

На альбомах Snowgoons всегда было людно, но здесь, кажется, они превзошли сами себя. Тут приняли участие рэпперы из разных поколений, которых объединила общая любовь к хип-хопу. Бальзам на душу всем тем, кто скучает по грязному нью-йоркскому звуку 90-х. Уверены, что каждый найдет здесь что-то для себя.


[islamvillage.com]_t_5278795.torrent
Торрент: Зарегистрирован ·  [ 2019-01-02 14:14 ] ·  03ad8cbd3daeeccbb8f0f795e240197bf2585668

23 KB

Статус: проверено
Скачан: 0 раз
Размер: 2.16 GB
Оценка: 
(Голосов: 0)
Сказали спасибо: 0  Спасибо
Похожие темы
[Профиль]    [ЛС]
Показать сообщения:    
Ответить на тему

Текущее время: Сегодня 11:20

Часовой пояс: GMT + 7



Вы не можете начинать темы
Вы не можете отвечать на сообщения
Вы не можете редактировать свои сообщения
Вы не можете удалять свои сообщения
Вы не можете голосовать в опросах
Вы не можете прикреплять файлы к сообщениям
Вы можете скачивать файлы


Death Note Rewrite (Dub) | Nhạc pop, rock... | MICHEL Katalog Deutschland-Spezial Band 1 2017 in Farbe ehem. VP 88,- €