Взлётная полоса Владимира Татосова (Михаил Фалкин) [2006, Документальный, биография, театр, кинематограф, IPTVRip]

Ответить на тему
Статистика раздачи [Обновить пиров]
Размер:  416 MB   |    Зарегистрирован:  16 дней   |    Скачан:  0 раз

Полного источника не было: Никогда

 
   
 
 
 
Автор Сообщение

islamvillage.com

Создавать темы 02-Янв-2019 15:27

[Цитировать]

Взлётная полоса Владимира Татосова
Год выхода: 2006
Страна: Россия, ГТРК "Санкт Петербург"
Жанр: Документальный, биография, театр, кинематограф
Продолжительность: 00:25:16
Перевод: Не требуется
Русские субтитры: нет
Режиссер: Михаил Фалкин
Описание: В своей книге воспоминаний народный артист России Владимир Михайлович Татосов написал: "Насколько я себя помню, с раннего детства я мечтал быть летчиком, да я ли один! Мы все тогда, как мне казалось, мечтали о карьере и славе Чкалова, Челюскина...". Судьба распорядилась иначе. Прямо из летного училища ВВС Владимир Татосов ушел в театральное, по окончании которого последовала работа в Ленинградском театре Ленинского комсомола, где режиссером был Георгий Товстоногов. За своим учителем Татосов ушел в Большой драматический театр. Затем последовала работа на киностудии "Ленфильм". Однако, как считает сам артист, в нем все-таки победил рассказчик.
качество: IPTVRip
формат: AVI
Видео: XviD, 2100 Кбит/с, 704x528
Аудио: AC3, 2 ch, 192 Кбит/с

MediaInfo

Полное имя : D:\gotov\Взлетная полоса Владимира Татосова.2006.IPTVRip.aviФормат файла : AVIФормат файла/Информация : Audio Video InterleaveРазмер файла : 416 МбайтПродолжительность : 25 м. 16 с.Общий поток : 2302 Кбит/секПрограмма кодирования : VirtualDubMod 1.5.10.3 | www.virtualdub-fr.org || (build 2550/release)Библиотека кодирования : VirtualDubMod build 2550/release
ВидеоИдентификатор : 0Формат файла : MPEG-4 VisualПрофиль формата : Advanced Simple@L5Параметр BVOP формата : 2Параметр QPel формата : НетПараметр GMC формата : Без точки переходаПараметр матрицы формата : Default (H.263)Идентификатор кодека : XVIDИдентификатор кодека/Подсказка : XviDПродолжительность : 25 м. 16 с.Битрейт : 2100 Кбит/секШирина : 704 пикселяВысота : 528 пикселейСоотношение сторон : 4:3Частота кадров : 25,000 кадров/секЦветовое пространство : YUVСубдискретизация насыщенности : 4:2:0Битовая глубина : 8 битТип развёртки : ПрогрессивнаяМетод сжатия : С потерямиБит/(Пиксели*Кадры) : 0.226Размер потока : 380 Мбайт (91%)Библиотека кодирования : XviD 73
АудиоИдентификатор : 1Формат файла : AC-3Формат файла/Информация : Audio Coding 3Расширение режима : CM (complete main)Параметр Endianness формата : BigИдентификатор кодека : 2000Продолжительность : 25 м. 16 с.Вид битрейта : ПостоянныйБитрейт : 192 Кбит/секКаналы : 2 каналаРасположение каналов : Front: L RЧастота : 48,0 КГцЧастота кадров : 31,250 кадров/сек (1536 spf)Метод сжатия : С потерямиРазмер потока : 34,7 Мбайт (8%)Выравнивание : Разделение по промежуткамПродолжительность промежутка : 40 мс. (1,00 видеокадр)Время предзагрузки промежутка : 500 мс.

Скриншоты



[islamvillage.com]_t_5421781.torrent
Торрент: Зарегистрирован ·  [ 2019-01-02 14:14 ] ·  996f2ad8aff5d296c013e6faebf5a42e4c6e6044

5 KB

Статус: проверено
Скачан: 0 раз
Размер: 416 MB
Оценка: 
(Голосов: 0)
Сказали спасибо: 0  Спасибо
Похожие темы
[Профиль]    [ЛС]
Показать сообщения:    
Ответить на тему

Текущее время: Сегодня 09:55

Часовой пояс: GMT + 7



Вы не можете начинать темы
Вы не можете отвечать на сообщения
Вы не можете редактировать свои сообщения
Вы не можете удалять свои сообщения
Вы не можете голосовать в опросах
Вы не можете прикреплять файлы к сообщениям
Вы можете скачивать файлы


Miracle Sharingan Fansub | Women Platform Slippers Sandals Casual Shoes | Úzasnákovi 2