Битва экстрасенсов / Сезон 19 Выпуски 1-14 из 14 (Олег Чаурс) [2018, Паранормальное шоу, SATRip]

Ответить на тему
Статистика раздачи [Обновить пиров]
Размер:  13.15 GB   |    Зарегистрирован:  13 дней   |    Скачан:  0 раз

Полного источника не было: Никогда

 
   
 
 
 
Автор Сообщение

islamvillage.com

Создавать темы 02-Янв-2019 23:20

[Цитировать]

Битва экстрасенсов Сезон 19
Выпуски 1-14 из 14

Год выхода: 2018
Страна: Россия
Жанр: Паранормальное шоу
Продолжительность: 14 х ~01:08:00
Язык: Русский
Ведущий: Марат Башаров
Режиссер: Олег Чаурс
Телеканал: ТНТ
Описание: Существуют ли в мире люди с паранормальными способностями? Почти никто этого доподлинно не знает. Но шоу "Битва экстрасенсов" даст вам шанс разобраться в этом самим. Люди, называющие себя ведьмами, колдунами и ясновидящими, показывают свои способности перед камерами. Верить им или нет, вы поймете сами
Автор релиза:25Kuzmich

качество: SATRip
формат: AVI
Видео: MPEG4, XviD, 720x400 (16:9), 25.000 fps, 1 650 Kbps (0.229 bit/pixel)
Аудио: MP3, 48.0 KHz, 2 ch, 192 Kbps, CBR

MediaInfo

GeneralComplete name : D:\Bitva.ekstrasensov.S19.XviD.SATRip.25Kuzmich\Bitva.ekstrasensov.s19.e06.XviD.SATRip.25Kuzmich.avFormat : AVIFormat/Info : Audio Video InterleaveFile size : 909 MiBDuration : 1h 8mnOverall bit rate : 1 851 KbpsWriting application : VirtualDubMod 1.5.10.3 | www.virtualdub-fr.org || (build 2550/release)Writing library : VirtualDubMod build 2550/release
VideoID : 0Format : MPEG-4 VisualFormat profile : Advanced Simple@L5Format settings, BVOP : 1Format settings, QPel : NoFormat settings, GMC : No warppointsFormat settings, Matrix : Default (MPEG)Codec ID : XVIDCodec ID/Hint : XviDDuration : 1h 8mnBit rate : 1 650 KbpsWidth : 720 pixelsHeight : 400 pixelsDisplay aspect ratio : 16:9Frame rate : 25.000 fpsColor space : YUVChroma subsampling : 4:2:0Bit depth : 8 bitsScan type : ProgressiveCompression mode : LossyBits/(Pixel*Frame) : 0.229Stream size : 810 MiB (89%)Writing library : XviD 1.2.1 (UTC 2008-12-04)
AudioID : 1Format : MPEG AudioFormat version : Version 1Format profile : Layer 3Mode : Joint stereoCodec ID : 55Codec ID/Hint : MP3Duration : 1h 8mnBit rate mode : ConstantBit rate : 192 KbpsChannel(s) : 2 channelsSampling rate : 48.0 KHzCompression mode : LossyStream size : 94.2 MiB (10%)Alignment : Aligned on interleavesInterleave, duration : 40 ms (1.00 video frame)Interleave, preload duratio : 504 msWriting library : LAME3.99rEncoding settings : -m j -V 4 -q 2 -lowpass 18.6 -b 192

Скриншоты



[islamvillage.com]_t_5663316.torrent
Торрент: Зарегистрирован ·  [ 2019-01-02 22:29 ] ·  e34e3c1f6f1af06adacc94818ee69da02aa7a94a

67 KB

Статус: проверено
Скачан: 0 раз
Размер: 13.15 GB
Оценка: 
(Голосов: 0)
Сказали спасибо: 0  Спасибо
Похожие темы
[Профиль]    [ЛС]
Показать сообщения:    
Ответить на тему

Текущее время: Сегодня 18:42

Часовой пояс: GMT + 7



Вы не можете начинать темы
Вы не можете отвечать на сообщения
Вы не можете редактировать свои сообщения
Вы не можете удалять свои сообщения
Вы не можете голосовать в опросах
Вы не можете прикреплять файлы к сообщениям
Вы можете скачивать файлы


Orphan-Razor1911 | Bokep Cantik Full HD | Reissverschluss 70 cm teilbar Schwarz NEU für Jacken, Mäntel +schwerere Stoffe