Рассвет нацизма. Становление Гитлера / Dawn of the Nazis: Becoming Hitler [2017, Документальный, война, история, HDTVRip]

Ответить на тему
Статистика раздачи [Обновить пиров]
Размер:  723 MB   |    Зарегистрирован:  16 дней   |    Скачан:  0 раз

Полного источника не было: Никогда

 
   
 
 
 
Автор Сообщение

islamvillage.com

Создавать темы 04-Янв-2019 10:51

[Цитировать]

Рассвет нацизма. Становление Гитлера / Dawn of the Nazis: Becoming Hitler
Дата/Год выхода: 2017
Страна: National Geographic
Жанр: Документальный, война, история
Продолжительность: 00:00:43:58
Перевод: Профессиональный (дублированный)
Оригинальная аудиодорожка: английский
Телеканал: National Geographic
Описание: Фильм «Рассвет нацистов: Становление Гитлера» исследует жизнь этого нелюдя, как он поднялся из ничего, чтобы стать пожалуй, самым известным диктатором и военным преступником в истории.
Как же он посеял семена ненависти и насилия, которые привели к гибели десятков миллионов людей? Какой была Германия накануне начала Второй мировой войны? Вы увидите отчаяние и страх, побудившие целую нацию последовать страшному призыву одного человека к мировому господству. Мы сделаем шаг назад, чтобы принять более глубокий взгляд на то, как все это началось.
Фильм целиком создан из восстановленных и раскрашенных архивных кинокадров.
Доп. информация: Авторство релиза - alf62

Запись с канала National Geographic HD польского ТВ, с заменой польской аудиодорожки на русскую и английскую.
качество: HDTVRip
формат: AVI
Video: 720x400 (1.80:1), 25 fps, XviD build 73 ~1899 kbps avg, 0.26 bit/pixel
Аудио 1: Русский, 48 kHz, AC3 Dolby Digital, 2/0 (L,R) ch, ~192.00 kbps avg
Аудио 2: Английски, 48 kHz, AC3 Dolby Digital, 2/0 (L,R) ch, ~192.00 kbps avg[url=tracker.php?nm=%D0%A0%D0%B0%D1%81%D1%81%D0%B2%D0%B5%D1%82%20%D0%BD%D0%B0%D1%86%D0%B8%D0%B7%D0%BC%D0%B0.%20%D0%A1%D1%82%D0%B0%D0%BD%D0%BE%D0%B2%D0%BB%D0%B5%D0%BD%D0%B8%D0%B5%20%D0%93%D0%B8%D1%82%D0%BB%D0%B5%D1%80%D0%B0]Рассвет нацизма. Становление Гитлера на Torrentc.cr[/url]

MediaInfo

Рассвет.нацизма.Становление.Гитлера.2017.XviD.HDTVRip.alf62.aviFormat : AVIFormat/Info : Audio Video InterleaveFile size : 723 MiBDuration : 43 min 58 sOverall bit rate : 2 299 kb/sWriting application : VirtualDubModRus 1.5.10.2 (build 2542/release)Writing library : VirtualDubMod build 2542/release
VideoID : 0Format : MPEG-4 VisualFormat profile : Advanced Simple@L5Format settings, BVOP : 2Format settings, QPel : NoFormat settings, GMC : No warppointsFormat settings, Matrix : Default (MPEG)Codec ID : XVIDCodec ID/Hint : XviDDuration : 43 min 58 sBit rate : 1 900 kb/sWidth : 720 pixelsHeight : 400 pixelsDisplay aspect ratio : 16:9Frame rate : 25.000 FPSColor space : YUVChroma subsampling : 4:2:0Bit depth : 8 bitsScan type : ProgressiveCompression mode : LossyBits/(Pixel*Frame) : 0.264Stream size : 598 MiB (83%)Writing library : XviD 73
Audio #1ID : 1Format : AC-3Format/Info : Audio Coding 3Format settings, Endianness : BigCodec ID : 2000Duration : 43 min 58 sBit rate mode : ConstantBit rate : 192 kb/sChannel(s) : 2 channelsChannel positions : Front: L RSampling rate : 48.0 kHzFrame rate : 31.250 FPS (1536 spf)Bit depth : 16 bitsCompression mode : LossyStream size : 60.4 MiB (8%)Alignment : Split accross interleavesInterleave, duration : 40 ms (1.00 video frame)Interleave, preload duratio : 500 msService kind : Complete Main
Audio #2ID : 2Format : AC-3Format/Info : Audio Coding 3Format settings, Endianness : BigCodec ID : 2000Duration : 43 min 58 sBit rate mode : ConstantBit rate : 192 kb/sChannel(s) : 2 channelsChannel positions : Front: L RSampling rate : 48.0 kHzFrame rate : 31.250 FPS (1536 spf)Bit depth : 16 bitsCompression mode : LossyDelay relative to video : 24 msStream size : 60.4 MiB (8%)Alignment : Split accross interleavesInterleave, duration : 40 ms (1.00 video frame)Interleave, preload duratio : 500 msService kind : Complete Main


[islamvillage.com]_t_5400013.torrent
Торрент: Зарегистрирован ·  [ 2019-01-04 10:29 ] ·  6cf982a493015eb90e690cab77633d7bd35cd7eb

15 KB

Статус: проверено
Скачан: 0 раз
Размер: 723 MB
Оценка: 
(Голосов: 0)
Сказали спасибо: 0  Спасибо
Похожие темы
[Профиль]    [ЛС]
Показать сообщения:    
Ответить на тему

Текущее время: Сегодня 16:19

Часовой пояс: GMT + 7



Вы не можете начинать темы
Вы не можете отвечать на сообщения
Вы не можете редактировать свои сообщения
Вы не можете удалять свои сообщения
Вы не можете голосовать в опросах
Вы не можете прикреплять файлы к сообщениям
Вы можете скачивать файлы


1x800 First Dates | Nasze matki, nasi ojc.. | Goosebumps 2: Haunted Halloween