(Ska, Punk) [CD] Chase Long Beach ‎- Gravity Is What You Make It - 2009, FLAC (tracks+.cue), lossless

Ответить на тему
Статистика раздачи [Обновить пиров]
Размер:  287 MB   |    Зарегистрирован:  11 дней   |    Скачан:  0 раз

Полного источника не было: Никогда

 
   
 
 
 
Автор Сообщение

islamvillage.com

Создавать темы 05-Янв-2019 14:33

[Цитировать]

Chase Long Beach ‎ / Gravity Is What You Make It
Жанр: Ska, Punk
Носитель: CD
Страна-производитель диска (релиза): US
Год издания: 2009
Издатель (лейбл): Victory Records ‎
Номер по каталогу: VR519
Аудиокодек: FLAC (*.flac)
Тип рипа: tracks+.cue
Битрейт аудио: lossless
Продолжительность: 00:40:05
Источник (релизер): локальная сеть
Наличие сканов в содержимом раздачи: нет
Треклист:
1 Pall Mall Price Crisis
2 Joe vs The Cricket
3 We've Got Pockets Like Nobody's Business
4 That's No Moon It's A Space Station
5 A Diamond Bullet To The Brain
6 Bad Habit
7 Swing In C
8 The Beginning
9 Where's My Time Stick
10 Useless
11 The End

Лог создания рипа

Exact Audio Copy V0.99 prebeta 5 from 4. May 2009
EAC extraction logfile from 27. February 2010, 23:54
Chase Long Beach / Gravity Is What You Make It
Used drive : Optiarc DVD RW AD-7240S Adapter: 2 ID: 1
Read mode : SecureUtilize accurate stream : YesDefeat audio cache : YesMake use of C2 pointers : No
Read offset correction : 48Overread into Lead-In and Lead-Out : NoFill up missing offset samples with silence : YesDelete leading and trailing silent blocks : NoNull samples used in CRC calculations : YesUsed interface : Native Win32 interface for Win NT & 2000Gap handling : Appended to previous track
Used output format : User Defined EncoderSelected bitrate : 320 kBit/sQuality : HighAdd ID3 tag : NoCommand line compressor : C:\Program Files (x86)\Exact Audio Copy\Flac\flac.exeAdditional command line options : -V -8 -T "artist=%a" -T "title=%t" -T "album=%g" -T "date=%y" -T "tracknumber=%n" -T "genre=%m" %s
TOC of the extracted CD
Track | Start | Length | Start sector | End sector --------------------------------------------------------- 1 | 0:00.00 | 3:11.10 | 0 | 14334 2 | 3:11.10 | 3:21.18 | 14335 | 29427 3 | 6:32.28 | 1:57.28 | 29428 | 38230 4 | 8:29.56 | 3:14.58 | 38231 | 52838 5 | 11:44.39 | 4:08.06 | 52839 | 71444 6 | 15:52.45 | 2:13.09 | 71445 | 81428 7 | 18:05.54 | 3:24.36 | 81429 | 96764 8 | 21:30.15 | 2:58.30 | 96765 | 110144 9 | 24:28.45 | 3:02.64 | 110145 | 123858 10 | 27:31.34 | 3:29.11 | 123859 | 139544 11 | 31:00.45 | 9:08.27 | 139545 | 180671
Track 1
Filename D:\~Torrents\~Uploaded\Chase Long Beach\Chase Long Beach - Gravity Is What You Make It [FLAC]\01 - Pall Mall Price Crisis.wav
Pre-gap length 0:00:02.00
Peak level 98.8 % Track quality 100.0 % Test CRC 56888DD8 Copy CRC 56888DD8 Cannot be verified as accurate (confidence 1) [7CF61B62], AccurateRip returned [BD013BB6] Copy OK
Track 2
Filename D:\~Torrents\~Uploaded\Chase Long Beach\Chase Long Beach - Gravity Is What You Make It [FLAC]\02 - Joe vs. the Cricket.wav
Peak level 98.8 % Track quality 99.9 % Test CRC F8BF5079 Copy CRC F8BF5079 Accurately ripped (confidence 1) [3FB56CB7] Copy OK
Track 3
Filename D:\~Torrents\~Uploaded\Chase Long Beach\Chase Long Beach - Gravity Is What You Make It [FLAC]\03 - We've Got Pockets Like Nobody's Business.wav
Peak level 98.8 % Track quality 100.0 % Test CRC 9C6D1912 Copy CRC 9C6D1912 Accurately ripped (confidence 1) [DE6CAEB6] Copy OK
Track 4
Filename D:\~Torrents\~Uploaded\Chase Long Beach\Chase Long Beach - Gravity Is What You Make It [FLAC]\04 - That's No Moon, It's a Space Station.wav
Peak level 98.8 % Track quality 100.0 % Test CRC 436415C5 Copy CRC 436415C5 Accurately ripped (confidence 1) [F95B3FF5] Copy OK
Track 5
Filename D:\~Torrents\~Uploaded\Chase Long Beach\Chase Long Beach - Gravity Is What You Make It [FLAC]\05 - A Diamond Bullet to the Brain.wav
Peak level 98.8 % Track quality 100.0 % Test CRC B1A3E5F6 Copy CRC B1A3E5F6 Accurately ripped (confidence 1) [9671EAE5] Copy OK
Track 6
Filename D:\~Torrents\~Uploaded\Chase Long Beach\Chase Long Beach - Gravity Is What You Make It [FLAC]\06 - Bad Habit.wav
Peak level 98.8 % Track quality 99.9 % Test CRC FD590C14 Copy CRC FD590C14 Accurately ripped (confidence 1) [D3E7796D] Copy OK
Track 7
Filename D:\~Torrents\~Uploaded\Chase Long Beach\Chase Long Beach - Gravity Is What You Make It [FLAC]\07 - Swing in C.wav
Peak level 98.8 % Track quality 100.0 % Test CRC 667218DC Copy CRC 667218DC Accurately ripped (confidence 1) [04DE161D] Copy OK
Track 8
Filename D:\~Torrents\~Uploaded\Chase Long Beach\Chase Long Beach - Gravity Is What You Make It [FLAC]\08 - The Beginning.wav
Peak level 98.8 % Track quality 100.0 % Test CRC 40A0B37F Copy CRC 40A0B37F Accurately ripped (confidence 1) [DF47CDE4] Copy OK
Track 9
Filename D:\~Torrents\~Uploaded\Chase Long Beach\Chase Long Beach - Gravity Is What You Make It [FLAC]\09 - Where's My Time Stick.wav
Peak level 98.8 % Track quality 100.0 % Test CRC 294DAF5D Copy CRC 294DAF5D Accurately ripped (confidence 1) [0146BE99] Copy OK
Track 10
Filename D:\~Torrents\~Uploaded\Chase Long Beach\Chase Long Beach - Gravity Is What You Make It [FLAC]\10 - Useless.wav
Peak level 98.8 % Track quality 100.0 % Test CRC D79401AA Copy CRC D79401AA Accurately ripped (confidence 1) [FF9325F2] Copy OK
Track 11
Filename D:\~Torrents\~Uploaded\Chase Long Beach\Chase Long Beach - Gravity Is What You Make It [FLAC]\11 - The End.wav
Peak level 98.8 % Track quality 100.0 % Test CRC 6A1D1E3B Copy CRC 6A1D1E3B Accurately ripped (confidence 1) [B446625F] Copy OK
10 track(s) accurately ripped 1 track(s) could not be verified as accurate
Some tracks could not be verified as accurate
No errors occurred
End of status report

Содержание индексной карты (.CUE)

REM GENRE SkaREM DATE 2009REM DISCID 8F09680BREM COMMENT "ExactAudioCopy v0.99pb5"FILE "01 - Pall Mall Price Crisis.wav" WAVE TRACK 01 AUDIO INDEX 01 00:00:00FILE "02 - Joe vs. the Cricket.wav" WAVE TRACK 02 AUDIO INDEX 01 00:00:00FILE "03 - We've Got Pockets Like Nobody's Business.wav" WAVE TRACK 03 AUDIO INDEX 01 00:00:00FILE "04 - That's No Moon, It's a Space Station.wav" WAVE TRACK 04 AUDIO INDEX 01 00:00:00FILE "05 - A Diamond Bullet to the Brain.wav" WAVE TRACK 05 AUDIO INDEX 01 00:00:00FILE "06 - Bad Habit.wav" WAVE TRACK 06 AUDIO INDEX 01 00:00:00FILE "07 - Swing in C.wav" WAVE TRACK 07 AUDIO INDEX 01 00:00:00FILE "08 - The Beginning.wav" WAVE TRACK 08 AUDIO INDEX 01 00:00:00FILE "09 - Where's My Time Stick.wav" WAVE TRACK 09 AUDIO INDEX 01 00:00:00FILE "10 - Useless.wav" WAVE TRACK 10 AUDIO INDEX 01 00:00:00FILE "11 - The End.wav" WAVE TRACK 11 AUDIO INDEX 01 00:00:00


[islamvillage.com]_t_5663563.torrent
Торрент: Зарегистрирован ·  [ 2019-01-05 13:55 ] ·  7ead81d097839ff019b146588f9868d5accdf132

13 KB

Статус: проверено
Скачан: 0 раз
Размер: 287 MB
Оценка: 
(Голосов: 0)
Сказали спасибо: 0  Спасибо
Похожие темы
[Профиль]    [ЛС]
Показать сообщения:    
Ответить на тему

Текущее время: Сегодня 15:07

Часовой пояс: GMT + 7



Вы не можете начинать темы
Вы не можете отвечать на сообщения
Вы не можете редактировать свои сообщения
Вы не можете удалять свои сообщения
Вы не можете голосовать в опросах
Вы не можете прикреплять файлы к сообщениям
Вы можете скачивать файлы


X-Men: Erste Entscheidung | Blood & Oil | Telecharger La Ballade de Buster Scruggs French Film Torrent