(SkaMusic/3rd Wave Ska) The Toasters - Discography - 1988 - 2006, FLAC (tracks+.cue), lossless

Ответить на тему
Статистика раздачи [Обновить пиров]
Размер:  3.44 GB   |    Зарегистрирован:  11 дней   |    Скачан:  0 раз

Полного источника не было: Никогда

 
   
 
 
 
Автор Сообщение

islamvillage.com

Создавать темы 05-Янв-2019 14:33

[Цитировать]

The Toasters - Discography- -Жанр: SkaMusic/3rd Wave Ska / Год выхода диска: 1988 - 2006 / Аудио кодек: FLAC (tracks+.cue) / Битрейт аудио: lossless--

1988 - Thrill Me Up


01. Go Girl (3:26)
02. Don't Blame Me (3:32)
03. Haitian Frustration (3:47)
04. Decision At Midnight (3:40)
05. Frankenska (2:50)
06. Thrill Me Up (3:04)
07. Ska Killers (3:08)
08. John NY Go Ska (3:02)
09. Keep On Going (3:21)
10. Rhapsody In Bluebeat (1:54)

1992 - New York Fever


01. New York Fever (2:08)
02. Ploughshares Into Guns (3:29)
03. History Book Version (2:57)
04. Too Hip To Be Cool (3:34)
05. Night Train (4:29)
06. Social Security (2:55)
07. Shebeen (4:05)
08. Johnny Forsake Her (3:58)
09. Too Much Happening (2:54)
10. Pool Shark (3:15)
11. B27 (3:47)
12. Ploughshares Version (3:29)
13. Pablo's Shebeen (4:15)

1994 - Skaboom!


01. Talk Is Cheap (3:51)
02. Pool Shark (3:47)
03. Weekend In LA (4:23)
04. Shocker (4:31)
05. Toast On The Coast (2:12)
06. Manipulator (3:30)
07. Mr. Trouble (3:25)
08. ABC's (2:55)
09. East Side Beat (3:45)
10. Now Or Never (3:20)
11. So Long Buck (1:17)
12. Renee (4:07)
13. Matt Davis (2:45)
14. Ideal Man (3:22)
15. Naked City (3:15)
16. Recrimination (3:16)
17. Razor Cut (3:37)
18. Run Rudy Run (4:14)
19. Radiation Skank (2:08)

1996 - Hard Band For Dead


01. 2-Tone Army (3:20)
02. Talk Is Cheap (3:11)
03. Friends (2:56)
04. Secret Agent Man (2:41)
05. Chuck Berry (2:39)
06. Mouse (3:44)
07. Hard Man Fe Dead (3:06)
08. Don't Come Running (3:13)
09. Properly (2:44)
10. Maxwell Smart (1:58)
11. I Wasn't Going To Call You Anyway (3:02)
12. Speak Your Mind (3:11)
13. Skaternity (2:41)
14. Dave Goes Crazy (2:08)

1997 - Don't Let the Bastards Grind You Down


01. Don't Let the Bastards Grind You Down (2:51)
02. Fire In My Soul (3:54)
03. I'm Running Right Through the World (3:50)
04. Underground Town (3:29)
05. Gimme Some Lovin' (2:34)
06. Devil and a 45 (3:37)
07. Daddy Cry (3:17)
08. Today's a Good Day (3:16)
09. Jackie Chan (3:59)
10. Rude Rude Baby (2:29)
11. Everything You Said Has Been a Lie (2:33)
12. Spooky Graveyard (4:02)
13. Big Red (4:07)
14. Bye Bye Baby (4:40)
15. Weekend in LA (4:16)
16. Woyay (3:11)
17. Rhythm and Pain (1:54)

1999 - Live in London (2 CD)

Disc 1


01. Intro - Bugger Off (Spoken Word) (1:02)
02. Gimmie Some Lovin (2:43)
03. I'm Running Through The World (4:19)
04. Underground Town (3:29)
05. Rude Rude Baby (2:37)
06. Ploughshares (3:40)
07. Talk Is Cheap (3:13)
08. East Side Beat (Part 1) Vs. West Ham United (3:59)
09. East Side Beat (Part 2) (3:13)
10. History Book (3:24)
11. Weekend In L.A. (5:04)
12. The Jack Ruby Jr Woyay (Feat Dr. Ring Ding) (4:42)

Disc 2


01. Intro - Sorry west ham (Spoken word) (0:54)
02. Frankenska (2:44)
03. Friends (3:05)
04. Run rudy run (4:20)
05. Two tone army (3:38)
06. Don't let the bastards grind you down (4:33)
07. I wasn't gonna call you anyway (3:17)
08. Fire in my soul (4:06)
09. Shocker (4:54)
10. Mona (3:45)
11. Decision at midnight (4:30)
12. Matt davis (3:52)

2003 - In Retrospect


01. East side beat (3:44)
02. Talk is cheap (3:11)
03. Weekend in L A (4:14)
04. Don't let the bastards grind you down (2:49)
05. Thrill me up (3:02)
06. Razor cut (3:31)
07. Dub 56 (2:45)
08. 2-Tone army (3:20)
09. Shebeen (4:01)
10. Recrimination (3:16)
11. Havana (This gun for hire) (3:02)
12. Underground town (3:27)
13. Ska killers (3:07)
14. History book version (2:51)
15. The beat (4:13)
16. Pirate radio (3:48)
17. Dog eat dog (4:16)
18. Hard band for dead (3:06)
19. Mona (3:04)
20. New York fever (2:06)
21. I'm running right through the world (3:49)

2006 - Dub 56 (2 CD)

Disc 1


01. Direction (2:44)
02. Freedom (4:08)
03. Mona (3:05)
04. Dancin' (3:29)
05. Dub 56 (2:46)
06. Sweet Cherie (3:52)
07. Tunisia (2:36)
08. Little Hidden Secrets (2:50)
09. Marlboro Man (2:50)
10. Aint Nuthin' (3:13)
11. Razor Cut (3:14)
12. Legal Shot (3:18)
13. Midnight Hour (2:32)
14. Goody Goody (2:18)
15. Dub 56 - Chat Mix (2:48)
16. Legal Shot - Dance Mix (6:59)
17. Legal Shot - Gangster Mix (9:02)
18. Aint Nuthin' - Chorus mix (3:14)

Disc 2


01. Matt Davis - Live in San Diego (3:38)
02. Too Hip to be Cool - Live in San Diego (3:14)
03. Social Security - Live in San Diego (2:59)
04. Mona - Live in San Diego (3:05)
05. Thrill Me Up - Live in San Diego (3:47)
06. Legal Shot - Live in San Diego (3:47)
07. Go Girl - Live in San Diego (3:05)
08. East Side Beat - Live in San Diego (5:25)
09. Poll Shark - Live in San Diego (4:36)
10. Weekend in LA - Live in L.A. (4:11)
11. History Book - Live in L.A. (3:42)
12. Decision at Midnight - Live in L.A. (3:52)
13. Mona - Live in L.A. (3:06)
14. Thrill Me Up - Live in L.A. (3:59)
15. Legal Shot - Live in L.A. (3:29)
16. SheBeen - Live in L.A. (4:13)
17. East Side Beat - Live in L.A. (5:39)
--

История

-The Toasters — американская ска-группа из Нью-Йорка, одни из родоначальников «третьей волны ска» (англ. Third ska wave).
История-The Toasters образовались в 1981 году в Нью-Йорке. Основатель, Роб Хингли (Rob Hingley) переехал в США годом раньше, до этого он обитал в Лондоне, где также занимался музыкой, а именно играл в группе Eye-Witness (позже другие экс-участники Eye-Witness образуют группу Bad Manners). В первый состав своей новой группы Хингли, за неимением лучшего, набрал своих коллег по работе (он трудился в книжном магазине Forbidden Planet) Первая запись группы, Recriminations, вышла в 1985 году. Продюсировал Recriminations известный музыкант Джо Джексон. В 1987 году вышел первый полноценный альбом — Skaboom. После выхода группа дает первый крупный концертный тур «Toast on the Coast».

Ссылки

- -Источник: Torrentc
-

EAC1987 - Skaboom!

Exact Audio Copy V0.99 prebeta 3 from 28. July 2007
EAC extraction logfile from 2. July 2008, 15:28
The Toasters / Skaboom!
Used drive : HL-DT-STDVD-RW GWA-4082N Adapter: 1 ID: 0
Read mode : SecureUtilize accurate stream : YesDefeat audio cache : YesMake use of C2 pointers : No
Read offset correction : 667Overread into Lead-In and Lead-Out : NoFill up missing offset samples with silence : YesDelete leading and trailing silent blocks : NoNull samples used in CRC calculations : YesUsed interface : Installed external ASPI interfaceGap handling : Appended to previous track
Used output format : User Defined EncoderSelected bitrate : 192 kBit/sQuality : HighAdd ID3 tag : NoCommand line compressor : C:\Program Files\Exact Audio Copy\flac.exeAdditional command line options : -8 -A tukey(0.25) -A gauss(0.1875) -b 4096 -V -T "artist=%a" -T "title=%t" -T "album=%g" -T "date=%y" -T "tracknumber=%n" -T "genre=%m" %s --sector-align
TOC of the extracted CD
Track | Start | Length | Start sector | End sector --------------------------------------------------------- 1 | 0:00.00 | 3:50.47 | 0 | 17296 2 | 3:50.47 | 3:47.18 | 17297 | 34339 3 | 7:37.65 | 4:22.50 | 34340 | 54039 4 | 12:00.40 | 4:31.05 | 54040 | 74369 5 | 16:31.45 | 2:11.70 | 74370 | 84264 6 | 18:43.40 | 3:30.12 | 84265 | 100026 7 | 22:13.52 | 3:24.68 | 100027 | 115394 8 | 25:38.45 | 2:54.50 | 115395 | 128494 9 | 28:33.20 | 3:45.22 | 128495 | 145391 10 | 32:18.42 | 3:19.45 | 145392 | 160361 11 | 35:38.12 | 1:16.73 | 160362 | 166134 12 | 36:55.10 | 4:07.37 | 166135 | 184696 13 | 41:02.47 | 2:45.15 | 184697 | 197086 14 | 43:47.62 | 3:22.10 | 197087 | 212246 15 | 47:09.72 | 3:14.60 | 212247 | 226856 16 | 50:24.57 | 3:15.68 | 226857 | 241549 17 | 53:40.50 | 3:37.12 | 241550 | 257836 18 | 57:17.62 | 4:14.13 | 257837 | 276899 19 | 61:32.00 | 2:07.42 | 276900 | 286466
Track 1
Filename C:\The Toasters - 1994 - Skaboom!\01 - Talk Is Cheap.wav
Pre-gap length 0:00:02.00
Peak level 85.8 % Track quality 100.0 % Test CRC D2A44051 Copy CRC D2A44051 Cannot be verified as accurate (confidence 1) [7139CA67], AccurateRip returned [36E8CD63] Copy OK
Track 2
Filename C:\The Toasters - 1994 - Skaboom!\02 - Pool Shark.wav
Peak level 78.4 % Track quality 100.0 % Test CRC 5D3C90BD Copy CRC 5D3C90BD Cannot be verified as accurate (confidence 1) [C5174DF9], AccurateRip returned [F501D642] Copy OK
Track 3
Filename C:\The Toasters - 1994 - Skaboom!\03 - Weekend In LA.wav
Peak level 67.4 % Track quality 99.9 % Test CRC AE2F0098 Copy CRC AE2F0098 Cannot be verified as accurate (confidence 1) [0913EBAB], AccurateRip returned [9BF383B9] Copy OK
Track 4
Filename C:\The Toasters - 1994 - Skaboom!\04 - Shocker.wav
Peak level 92.8 % Track quality 100.0 % Test CRC 67A318F8 Copy CRC 67A318F8 Cannot be verified as accurate (confidence 1) [44C0E2F4], AccurateRip returned [4CFF2735] Copy OK
Track 5
Filename C:\The Toasters - 1994 - Skaboom!\05 - Toast On The Coast.wav
Peak level 64.8 % Track quality 100.0 % Test CRC 47855CA3 Copy CRC 47855CA3 Cannot be verified as accurate (confidence 1) [B3E29B05], AccurateRip returned [E1C285AD] Copy OK
Track 6
Filename C:\The Toasters - 1994 - Skaboom!\06 - Manipulator.wav
Peak level 77.2 % Track quality 99.9 % Test CRC F03BF89F Copy CRC F03BF89F Cannot be verified as accurate (confidence 1) [74C44AF6], AccurateRip returned [55FA3F60] Copy OK
Track 7
Filename C:\The Toasters - 1994 - Skaboom!\07 - Mr. Trouble.wav
Peak level 90.0 % Track quality 100.0 % Test CRC D4601DB3 Copy CRC D4601DB3 Cannot be verified as accurate (confidence 1) [A3757888], AccurateRip returned [F347DF28] Copy OK
Track 8
Filename C:\The Toasters - 1994 - Skaboom!\08 - ABC's.wav
Peak level 81.8 % Track quality 99.9 % Test CRC 380BAAB1 Copy CRC 380BAAB1 Cannot be verified as accurate (confidence 1) [75922613], AccurateRip returned [3A123D00] Copy OK
Track 9
Filename C:\The Toasters - 1994 - Skaboom!\09 - East Side Beat.wav
Peak level 85.3 % Track quality 100.0 % Test CRC 180EE9A3 Copy CRC 180EE9A3 Cannot be verified as accurate (confidence 1) [6008C421], AccurateRip returned [C3BC77E8] Copy OK
Track 10
Filename C:\The Toasters - 1994 - Skaboom!\10 - Now Or Never.wav
Peak level 79.8 % Track quality 100.0 % Test CRC 2E03A721 Copy CRC 2E03A721 Cannot be verified as accurate (confidence 1) [067DD362], AccurateRip returned [36351E59] Copy OK
Track 11
Filename C:\The Toasters - 1994 - Skaboom!\11 - So Long Buck.wav
Peak level 68.1 % Track quality 100.0 % Test CRC 2490D1C6 Copy CRC 2490D1C6 Cannot be verified as accurate (confidence 1) [36B2CAC0], AccurateRip returned [F6C7DA2C] Copy OK
Track 12
Filename C:\The Toasters - 1994 - Skaboom!\12 - Renee.wav
Peak level 89.2 % Track quality 100.0 % Test CRC F7E0F907 Copy CRC F7E0F907 Cannot be verified as accurate (confidence 1) [414071D6], AccurateRip returned [4D6E8AFF] Copy OK
Track 13
Filename C:\The Toasters - 1994 - Skaboom!\13 - Matt Davis.wav
Peak level 100.0 % Track quality 100.0 % Test CRC D68AC401 Copy CRC D68AC401 Cannot be verified as accurate (confidence 1) [FB0989CC], AccurateRip returned [F4AA6D98] Copy OK
Track 14
Filename C:\The Toasters - 1994 - Skaboom!\14 - Ideal Man.wav
Peak level 88.3 % Track quality 100.0 % Test CRC F81E250F Copy CRC F81E250F Cannot be verified as accurate (confidence 1) [32B68768], AccurateRip returned [1D77C954] Copy OK
Track 15
Filename C:\The Toasters - 1994 - Skaboom!\15 - Naked City.wav
Peak level 49.6 % Track quality 100.0 % Test CRC F4DC516A Copy CRC F4DC516A Cannot be verified as accurate (confidence 1) [C160C2A6], AccurateRip returned [3E495136] Copy OK
Track 16
Filename C:\The Toasters - 1994 - Skaboom!\16 - Recrimination.wav
Peak level 99.0 % Track quality 99.9 % Test CRC A331504D Copy CRC A331504D Cannot be verified as accurate (confidence 1) [05C913C0], AccurateRip returned [B7347517] Copy OK
Track 17
Filename C:\The Toasters - 1994 - Skaboom!\17 - Razor Cut.wav
Peak level 100.0 % Track quality 99.9 % Test CRC D9E76D39 Copy CRC D9E76D39 Cannot be verified as accurate (confidence 1) [F912D329], AccurateRip returned [DB86B90A] Copy OK
Track 18
Filename C:\The Toasters - 1994 - Skaboom!\18 - Run Rudy Run.wav
Peak level 74.1 % Track quality 100.0 % Test CRC 5478EB84 Copy CRC 5478EB84 Cannot be verified as accurate (confidence 1) [27B1299D], AccurateRip returned [1A02C732] Copy OK
Track 19
Filename C:\The Toasters - 1994 - Skaboom!\19 - Radiation Skank.wav
Peak level 93.1 % Track quality 100.0 % Test CRC C060CC61 Copy CRC C060CC61 Cannot be verified as accurate (confidence 1) [F386736C], AccurateRip returned [F7F49017] Copy OK
No tracks could be verified as accurateYou may have a different pressing from the one(s) in the database
No errors occurred
End of status report

1988 - Thrill Me Up

Exact Audio Copy V0.99 prebeta 4 from 23. January 2008
EAC extraction logfile from 13. August 2008, 16:41
The Toasters / Thrill Me Up
Used drive : TSSTcorpCD/DVDW SH-S162L Adapter: 0 ID: 0
Read mode : SecureUtilize accurate stream : YesDefeat audio cache : YesMake use of C2 pointers : No
Read offset correction : 6Overread into Lead-In and Lead-Out : NoFill up missing offset samples with silence : YesDelete leading and trailing silent blocks : NoNull samples used in CRC calculations : YesUsed interface : Native Win32 interface for Win NT & 2000Gap handling : Appended to previous track
Used output format : User Defined EncoderSelected bitrate : 768 kBit/sQuality : HighAdd ID3 tag : NoCommand line compressor : C:\Program Files\Exact Audio Copy\FLAC\FLAC.EXEAdditional command line options : -V -8 -T "artist=%a" -T "title=%t" -T "album=%g" -T "date=%y" -T "tracknumber=%n" -T "genre=%m" %s
TOC of the extracted CD
Track | Start | Length | Start sector | End sector --------------------------------------------------------- 1 | 0:00.33 | 3:25.55 | 33 | 15462 2 | 3:26.13 | 3:31.52 | 15463 | 31339 3 | 6:57.65 | 3:46.68 | 31340 | 48357 4 | 10:44.58 | 3:39.40 | 48358 | 64822 5 | 14:24.23 | 2:49.72 | 64823 | 77569 6 | 17:14.20 | 3:03.60 | 77570 | 91354 7 | 20:18.05 | 3:08.08 | 91355 | 105462 8 | 23:26.13 | 3:02.00 | 105463 | 119112 9 | 26:28.13 | 3:21.27 | 119113 | 134214 10 | 29:49.40 | 1:53.68 | 134215 | 142757
Track 1
Filename D:\Waffle Irons\The Toasters Thrill Me Up Original FLAC Log\01 Go Girl.wav
Pre-gap length 0:00:02.44
Peak level 96.0 % Track quality 100.0 % Test CRC DF709761 Copy CRC DF709761 Accurately ripped (confidence 1) [9DA2D45B] Copy OK
Track 2
Filename D:\Waffle Irons\The Toasters Thrill Me Up Original FLAC Log\02 Don't Blame Me.wav
Pre-gap length 0:00:01.06
Peak level 97.1 % Track quality 100.0 % Test CRC 7B0D9C61 Copy CRC 7B0D9C61 Accurately ripped (confidence 1) [A5D92D42] Copy OK
Track 3
Filename D:\Waffle Irons\The Toasters Thrill Me Up Original FLAC Log\03 Haitian Frustration.wav
Pre-gap length 0:00:01.93
Peak level 90.4 % Track quality 100.0 % Test CRC B6AE32D6 Copy CRC B6AE32D6 Accurately ripped (confidence 1) [95DD0B04] Copy OK
Track 4
Filename D:\Waffle Irons\The Toasters Thrill Me Up Original FLAC Log\04 Decision At Midnight.wav
Pre-gap length 0:00:00.97
Peak level 82.5 % Track quality 100.0 % Test CRC 423536D4 Copy CRC 423536D4 Accurately ripped (confidence 1) [4A5879F9] Copy OK
Track 5
Filename D:\Waffle Irons\The Toasters Thrill Me Up Original FLAC Log\05 Frankenska.wav
Pre-gap length 0:00:01.26
Peak level 86.1 % Track quality 100.0 % Test CRC 3159D4F8 Copy CRC 3159D4F8 Accurately ripped (confidence 1) [459282A9] Copy OK
Track 6
Filename D:\Waffle Irons\The Toasters Thrill Me Up Original FLAC Log\06 Thrill Me Up.wav
Pre-gap length 0:00:01.29
Peak level 83.6 % Track quality 100.0 % Test CRC FEB7A31B Copy CRC FEB7A31B Accurately ripped (confidence 1) [4AC7AFD9] Copy OK
Track 7
Filename D:\Waffle Irons\The Toasters Thrill Me Up Original FLAC Log\07 Ska Killers.wav
Pre-gap length 0:00:01.82
Peak level 79.9 % Track quality 100.0 % Test CRC 878569F5 Copy CRC 878569F5 Accurately ripped (confidence 1) [1DCA669F] Copy OK
Track 8
Filename D:\Waffle Irons\The Toasters Thrill Me Up Original FLAC Log\08 John NY Go Ska.wav
Pre-gap length 0:00:01.50
Peak level 80.8 % Track quality 100.0 % Test CRC 4B9FBF3F Copy CRC 4B9FBF3F Accurately ripped (confidence 1) [A45708D9] Copy OK
Track 9
Filename D:\Waffle Irons\The Toasters Thrill Me Up Original FLAC Log\09 Keep On Going.wav
Pre-gap length 0:00:01.17
Peak level 98.6 % Track quality 100.0 % Test CRC 048C029E Copy CRC 048C029E Accurately ripped (confidence 1) [6CF8833F] Copy OK
Track 10
Filename D:\Waffle Irons\The Toasters Thrill Me Up Original FLAC Log\10 Rhapsody In Bluebeat.wav
Pre-gap length 0:00:01.49
Peak level 83.5 % Track quality 99.9 % Test CRC E38ADE5B Copy CRC E38ADE5B Accurately ripped (confidence 1) [939ADE4E] Copy OK
All tracks accurately ripped
No errors occurred
End of status report
------------------------------------------------------------
Exact Audio Copy V0.99 prebeta 4 from 23. January 2008
EAC extraction logfile from 13. August 2008, 17:05
The Toasters / Thrill Me Up
Used drive : TSSTcorpCD/DVDW SH-S162L Adapter: 0 ID: 0
Read mode : SecureUtilize accurate stream : YesDefeat audio cache : YesMake use of C2 pointers : No
Read offset correction : 6Overread into Lead-In and Lead-Out : NoFill up missing offset samples with silence : YesDelete leading and trailing silent blocks : NoNull samples used in CRC calculations : YesUsed interface : Native Win32 interface for Win NT & 2000Gap handling : Appended to previous track
Used output format : User Defined EncoderSelected bitrate : 768 kBit/sQuality : HighAdd ID3 tag : NoCommand line compressor : C:\Program Files\Exact Audio Copy\FLAC\FLAC.EXEAdditional command line options : -V -8 -T "artist=%a" -T "title=%t" -T "album=%g" -T "date=%y" -T "tracknumber=%n" -T "genre=%m" %s
TOC of the extracted CD
Track | Start | Length | Start sector | End sector --------------------------------------------------------- 1 | 0:00.33 | 3:25.55 | 33 | 15462 2 | 3:26.13 | 3:31.52 | 15463 | 31339 3 | 6:57.65 | 3:46.68 | 31340 | 48357 4 | 10:44.58 | 3:39.40 | 48358 | 64822 5 | 14:24.23 | 2:49.72 | 64823 | 77569 6 | 17:14.20 | 3:03.60 | 77570 | 91354 7 | 20:18.05 | 3:08.08 | 91355 | 105462 8 | 23:26.13 | 3:02.00 | 105463 | 119112 9 | 26:28.13 | 3:21.27 | 119113 | 134214 10 | 29:49.40 | 1:53.68 | 134215 | 142757
Track 1
Filename D:\Waffle Irons\The Toasters Thrill Me Up Original FLAC Log\01 Go Girl.wav
Pre-gap length 0:00:02.44
Peak level 96.0 % Track quality 100.0 % Test CRC DF709761 Copy CRC DF709761 Accurately ripped (confidence 1) [9DA2D45B] Copy OK
Track 2
Filename D:\Waffle Irons\The Toasters Thrill Me Up Original FLAC Log\02 Don't Blame Me.wav
Pre-gap length 0:00:01.06
Peak level 97.1 % Track quality 100.0 % Test CRC 7B0D9C61 Copy CRC 7B0D9C61 Accurately ripped (confidence 1) [A5D92D42] Copy OK
Track 3
Filename D:\Waffle Irons\The Toasters Thrill Me Up Original FLAC Log\03 Haitian Frustration.wav
Pre-gap length 0:00:01.93
Peak level 90.4 % Track quality 100.0 % Test CRC B6AE32D6 Copy CRC B6AE32D6 Accurately ripped (confidence 1) [95DD0B04] Copy OK
Track 4
Filename D:\Waffle Irons\The Toasters Thrill Me Up Original FLAC Log\04 Decision At Midnight.wav
Pre-gap length 0:00:00.97
Peak level 82.5 % Track quality 100.0 % Test CRC 423536D4 Copy CRC 423536D4 Accurately ripped (confidence 1) [4A5879F9] Copy OK
Track 5
Filename D:\Waffle Irons\The Toasters Thrill Me Up Original FLAC Log\05 Frankenska.wav
Pre-gap length 0:00:01.26
Peak level 86.1 % Track quality 100.0 % Test CRC 3159D4F8 Copy CRC 3159D4F8 Accurately ripped (confidence 1) [459282A9] Copy OK
Track 6
Filename D:\Waffle Irons\The Toasters Thrill Me Up Original FLAC Log\06 Thrill Me Up.wav
Pre-gap length 0:00:01.29
Peak level 83.6 % Track quality 100.0 % Test CRC FEB7A31B Copy CRC FEB7A31B Accurately ripped (confidence 1) [4AC7AFD9] Copy OK
Track 7
Filename D:\Waffle Irons\The Toasters Thrill Me Up Original FLAC Log\07 Ska Killers.wav
Pre-gap length 0:00:01.82
Peak level 79.9 % Track quality 100.0 % Test CRC 878569F5 Copy CRC 878569F5 Accurately ripped (confidence 1) [1DCA669F] Copy OK
Track 8
Filename D:\Waffle Irons\The Toasters Thrill Me Up Original FLAC Log\08 John NY Go Ska.wav
Pre-gap length 0:00:01.50
Peak level 80.8 % Track quality 100.0 % Test CRC 4B9FBF3F Copy CRC 4B9FBF3F Accurately ripped (confidence 1) [A45708D9] Copy OK
Track 9
Filename D:\Waffle Irons\The Toasters Thrill Me Up Original FLAC Log\09 Keep On Going.wav
Pre-gap length 0:00:01.17
Peak level 98.6 % Track quality 100.0 % Test CRC 048C029E Copy CRC 048C029E Accurately ripped (confidence 1) [6CF8833F] Copy OK
Track 10
Filename D:\Waffle Irons\The Toasters Thrill Me Up Original FLAC Log\10 Rhapsody In Bluebeat.wav
Pre-gap length 0:00:01.49
Peak level 83.5 % Track quality 99.9 % Test CRC E38ADE5B Copy CRC E38ADE5B Accurately ripped (confidence 1) [939ADE4E] Copy OK
All tracks accurately ripped
No errors occurred
End of status report

1992 - New York Fever

Exact Audio Copy V0.99 prebeta 3 from 28. July 2007
EAC extraction logfile from 5. June 2008, 18:41
Toasters / New York Fever
Used drive : TSSTcorpCD/DVDW SH-S182M Adapter: 1 ID: 0
Read mode : SecureUtilize accurate stream : YesDefeat audio cache : YesMake use of C2 pointers : No
Read offset correction : 6Overread into Lead-In and Lead-Out : NoFill up missing offset samples with silence : YesDelete leading and trailing silent blocks : NoNull samples used in CRC calculations : YesUsed interface : Installed external ASPI interfaceGap handling : Appended to previous track
Used output format : User Defined EncoderSelected bitrate : 192 kBit/sQuality : HighAdd ID3 tag : NoCommand line compressor : C:\Program Files\Exact Audio Copy\flac.exeAdditional command line options : -8 -A tukey(0.25) -A gauss(0.1875) -b 4096 -V -T "artist=%a" -T "title=%t" -T "album=%g" -T "date=%y" -T "tracknumber=%n" -T "genre=%m" %s --sector-align
TOC of the extracted CD
Track | Start | Length | Start sector | End sector --------------------------------------------------------- 1 | 0:00.00 | 2:07.53 | 0 | 9577 2 | 2:07.53 | 3:29.22 | 9578 | 25274 3 | 5:37.00 | 2:56.70 | 25275 | 38544 4 | 8:33.70 | 3:34.35 | 38545 | 54629 5 | 12:08.30 | 4:29.35 | 54630 | 74839 6 | 16:37.65 | 2:54.48 | 74840 | 87937 7 | 19:32.38 | 4:05.12 | 87938 | 106324 8 | 23:37.50 | 3:58.00 | 106325 | 124174 9 | 27:35.50 | 2:53.58 | 124175 | 137207 10 | 30:29.33 | 3:15.25 | 137208 | 151857 11 | 33:44.58 | 3:47.10 | 151858 | 168892 12 | 37:31.68 | 3:29.35 | 168893 | 184602 13 | 41:01.28 | 4:14.67 | 184603 | 203719
Track 1
Filename C:\Documents and Settings\Owner\My Documents\New Folder (3)\01 - Toasters - New York Fever.wav
Pre-gap length 0:00:02.00
Peak level 99.9 % Track quality 100.0 % Test CRC 5D5DD3D3 Copy CRC 5D5DD3D3 Accurately ripped (confidence 2) [87DD8E60] Copy OK
Track 2
Filename C:\Documents and Settings\Owner\My Documents\New Folder (3)\02 - Toasters - Ploughshares Into Guns.wav
Pre-gap length 0:00:02.30
Peak level 94.1 % Track quality 100.0 % Test CRC B063D3F7 Copy CRC B063D3F7 Accurately ripped (confidence 2) [C4FA81C5] Copy OK
Track 3
Filename C:\Documents and Settings\Owner\My Documents\New Folder (3)\03 - Toasters - History Book Version.wav
Pre-gap length 0:00:02.22
Peak level 99.9 % Track quality 100.0 % Test CRC 8B8282E5 Copy CRC 8B8282E5 Accurately ripped (confidence 2) [46B4E460] Copy OK
Track 4
Filename C:\Documents and Settings\Owner\My Documents\New Folder (3)\04 - Toasters - Too Hip To Be Cool.wav
Pre-gap length 0:00:04.86
Peak level 87.7 % Track quality 100.0 % Test CRC 2509C1A3 Copy CRC 2509C1A3 Accurately ripped (confidence 2) [0662EE7E] Copy OK
Track 5
Filename C:\Documents and Settings\Owner\My Documents\New Folder (3)\05 - Toasters - Night Train.wav
Pre-gap length 0:00:03.62
Peak level 94.7 % Track quality 100.0 % Test CRC 8396039B Copy CRC 8396039B Accurately ripped (confidence 2) [BB784606] Copy OK
Track 6
Filename C:\Documents and Settings\Owner\My Documents\New Folder (3)\06 - Toasters - Social Security.wav
Pre-gap length 0:00:03.22
Peak level 98.5 % Track quality 100.0 % Test CRC 066D0554 Copy CRC 066D0554 Accurately ripped (confidence 2) [7A562AEC] Copy OK
Track 7
Filename C:\Documents and Settings\Owner\My Documents\New Folder (3)\07 - Toasters - Shebeen.wav
Pre-gap length 0:00:02.30
Peak level 99.9 % Track quality 100.0 % Test CRC D828042E Copy CRC D828042E Accurately ripped (confidence 2) [4191BDA7] Copy OK
Track 8
Filename C:\Documents and Settings\Owner\My Documents\New Folder (3)\08 - Toasters - Johnny Forsake Her.wav
Pre-gap length 0:00:04.26
Peak level 84.9 % Track quality 100.0 % Test CRC 13EA0B40 Copy CRC 13EA0B40 Accurately ripped (confidence 2) [F3B3C468] Copy OK
Track 9
Filename C:\Documents and Settings\Owner\My Documents\New Folder (3)\09 - Toasters - Too Much Happening.wav
Pre-gap length 0:00:03.22
Peak level 97.0 % Track quality 100.0 % Test CRC 2FF5FE5C Copy CRC 2FF5FE5C Accurately ripped (confidence 2) [E18C87B8] Copy OK
Track 10
Filename C:\Documents and Settings\Owner\My Documents\New Folder (3)\10 - Toasters - Pool Shark.wav
Pre-gap length 0:00:04.04
Peak level 67.2 % Track quality 100.0 % Test CRC 5F763AE8 Copy CRC 5F763AE8 Accurately ripped (confidence 2) [95044DA8] Copy OK
Track 11
Filename C:\Documents and Settings\Owner\My Documents\New Folder (3)\11 - Toasters - B27.wav
Pre-gap length 0:00:03.37
Peak level 99.9 % Track quality 99.9 % Test CRC FB3608B3 Copy CRC FB3608B3 Accurately ripped (confidence 2) [1D03598B] Copy OK
Track 12
Filename C:\Documents and Settings\Owner\My Documents\New Folder (3)\12 - Toasters - Ploughshares Version.wav
Pre-gap length 0:00:03.70
Peak level 98.4 % Track quality 100.0 % Test CRC 1C8F9283 Copy CRC 1C8F9283 Accurately ripped (confidence 2) [F1011A0F] Copy OK
Track 13
Filename C:\Documents and Settings\Owner\My Documents\New Folder (3)\13 - Toasters - Pablo's Shebeen.wav
Pre-gap length 0:00:02.26
Peak level 97.7 % Track quality 100.0 % Test CRC 503850AC Copy CRC 503850AC Accurately ripped (confidence 2) [1BE09AF9] Copy OK
All tracks accurately ripped
No errors occurred
End of status report

1996 - Hard Band For Dead

Exact Audio Copy V0.99 prebeta 3 from 28. July 2007
EAC extraction logfile from 11. May 2009, 6:01
The Toasters / Hard Band For Dead
Used drive : HL-DT-STDVD-ROM GDR8163B Adapter: 0 ID: 1
Read mode : SecureUtilize accurate stream : YesDefeat audio cache : YesMake use of C2 pointers : No
Read offset correction : 102Overread into Lead-In and Lead-Out : NoFill up missing offset samples with silence : YesDelete leading and trailing silent blocks : NoNull samples used in CRC calculations : YesUsed interface : Installed external ASPI interfaceGap handling : Appended to previous track
Used output format : User Defined EncoderSelected bitrate : 192 kBit/sQuality : HighAdd ID3 tag : NoCommand line compressor : C:\Program Files\Exact Audio Copy\flac.exeAdditional command line options : -V -5 -T "artist=%a" -T "title=%t" -T "album=%g" -T "date=%y" -T "tracknumber=%n" -T "genre=%m" %s
TOC of the extracted CD
Track | Start | Length | Start sector | End sector --------------------------------------------------------- 1 | 0:00.00 | 3:19.42 | 0 | 14966 2 | 3:19.42 | 3:11.05 | 14967 | 29296 3 | 6:30.47 | 2:56.13 | 29297 | 42509 4 | 9:26.60 | 2:40.67 | 42510 | 54576 5 | 12:07.52 | 2:38.68 | 54577 | 66494 6 | 14:46.45 | 3:44.20 | 66495 | 83314 7 | 18:30.65 | 3:05.62 | 83315 | 97251 8 | 21:36.52 | 3:13.15 | 97252 | 111741 9 | 24:49.67 | 2:44.30 | 111742 | 124071 10 | 27:34.22 | 1:58.03 | 124072 | 132924 11 | 29:32.25 | 3:01.65 | 132925 | 146564 12 | 32:34.15 | 3:11.07 | 146565 | 160896 13 | 35:45.22 | 2:41.28 | 160897 | 172999 14 | 38:26.50 | 2:07.65 | 173000 | 182589
Track 1
Filename F:\My Music\Ska\The Toasters\The Toasters - 1996 - Hard Band For Dead [FLAC]\01 - The Toasters - 2-Tone Army.wav
Pre-gap length 0:00:02.00
Peak level 100.0 % Track quality 99.9 % Test CRC 8B844183 Copy CRC 8B844183 Accurately ripped (confidence 6) [B17A5B1E] Copy OK
Track 2
Filename F:\My Music\Ska\The Toasters\The Toasters - 1996 - Hard Band For Dead [FLAC]\02 - The Toasters - Talk Is Cheap.wav
Peak level 100.0 % Track quality 100.0 % Test CRC 6E44F5D1 Copy CRC 6E44F5D1 Accurately ripped (confidence 6) [BD01E9CA] Copy OK
Track 3
Filename F:\My Music\Ska\The Toasters\The Toasters - 1996 - Hard Band For Dead [FLAC]\03 - The Toasters - Friends.wav
Peak level 100.0 % Track quality 100.0 % Test CRC 9A125FC6 Copy CRC 9A125FC6 Accurately ripped (confidence 6) [80C04F6E] Copy OK
Track 4
Filename F:\My Music\Ska\The Toasters\The Toasters - 1996 - Hard Band For Dead [FLAC]\04 - The Toasters - Secret Agent Man.wav
Peak level 100.0 % Track quality 100.0 % Test CRC E6C33366 Copy CRC E6C33366 Accurately ripped (confidence 6) [0B1DE28B] Copy OK
Track 5
Filename F:\My Music\Ska\The Toasters\The Toasters - 1996 - Hard Band For Dead [FLAC]\05 - The Toasters - Chuck Berry.wav
Peak level 100.0 % Track quality 100.0 % Test CRC A1E68E6B Copy CRC A1E68E6B Accurately ripped (confidence 6) [6E32D019] Copy OK
Track 6
Filename F:\My Music\Ska\The Toasters\The Toasters - 1996 - Hard Band For Dead [FLAC]\06 - The Toasters - Mouse.wav
Peak level 100.0 % Track quality 100.0 % Test CRC FFCCC201 Copy CRC FFCCC201 Accurately ripped (confidence 6) [0E813F4A] Copy OK
Track 7
Filename F:\My Music\Ska\The Toasters\The Toasters - 1996 - Hard Band For Dead [FLAC]\07 - The Toasters - Hard Man Fe Dead.wav
Peak level 100.0 % Track quality 100.0 % Test CRC 12EE243C Copy CRC 12EE243C Accurately ripped (confidence 6) [4B78FF4A] Copy OK
Track 8
Filename F:\My Music\Ska\The Toasters\The Toasters - 1996 - Hard Band For Dead [FLAC]\08 - The Toasters - Don't Come Running.wav
Peak level 100.0 % Track quality 100.0 % Test CRC 743CBCF9 Copy CRC 743CBCF9 Accurately ripped (confidence 6) [5E6792DC] Copy OK
Track 9
Filename F:\My Music\Ska\The Toasters\The Toasters - 1996 - Hard Band For Dead [FLAC]\09 - The Toasters - Properly.wav
Peak level 100.0 % Track quality 100.0 % Test CRC 20B4B5EA Copy CRC 20B4B5EA Accurately ripped (confidence 6) [09637448] Copy OK
Track 10
Filename F:\My Music\Ska\The Toasters\The Toasters - 1996 - Hard Band For Dead [FLAC]\10 - The Toasters - Maxwell Smart.wav
Peak level 100.0 % Track quality 100.0 % Test CRC 98CA336F Copy CRC 98CA336F Accurately ripped (confidence 6) [33AE3435] Copy OK
Track 11
Filename F:\My Music\Ska\The Toasters\The Toasters - 1996 - Hard Band For Dead [FLAC]\11 - The Toasters - I Wasn't Going To Call You Anyway.wav
Peak level 100.0 % Track quality 100.0 % Test CRC E1AE8CD5 Copy CRC E1AE8CD5 Accurately ripped (confidence 6) [EAE820B0] Copy OK
Track 12
Filename F:\My Music\Ska\The Toasters\The Toasters - 1996 - Hard Band For Dead [FLAC]\12 - The Toasters - Speak Your Mind.wav
Peak level 100.0 % Track quality 100.0 % Test CRC 95995409 Copy CRC 95995409 Accurately ripped (confidence 6) [969531BD] Copy OK
Track 13
Filename F:\My Music\Ska\The Toasters\The Toasters - 1996 - Hard Band For Dead [FLAC]\13 - The Toasters - Skaternity.wav
Peak level 100.0 % Track quality 99.9 % Test CRC 2591DEE3 Copy CRC 2591DEE3 Accurately ripped (confidence 6) [4A67F046] Copy OK
Track 14
Filename F:\My Music\Ska\The Toasters\The Toasters - 1996 - Hard Band For Dead [FLAC]\14 - The Toasters - Dave Goes Crazy.wav
Peak level 100.0 % Track quality 99.9 % Test CRC 1DE41E29 Copy CRC 1DE41E29 Accurately ripped (confidence 6) [8FECC7F5] Copy OK
All tracks accurately ripped
No errors occurred
End of status report

1997 - Don't Let the Bastards Grind You Down (Примечание внутри)

This log was not perfect. However, all tracks were verified by AccurateRip with an average confidence of at least 2, meaning that the tracks were ripped properly.
Exact Audio Copy V0.99 prebeta 4 from 23. January 2008
EAC extraction logfile from 23. July 2008, 22:24
The Toasters / Don't Let the Bastards Grind You Down
Used drive : TSSTcorpCD/DVDW SH-S162L Adapter: 0 ID: 2
Read mode : SecureUtilize accurate stream : YesDefeat audio cache : NoMake use of C2 pointers : Yes
Read offset correction : 6Overread into Lead-In and Lead-Out : NoFill up missing offset samples with silence : YesDelete leading and trailing silent blocks : NoNull samples used in CRC calculations : NoUsed interface : Native Win32 interface for Win NT & 2000Gap handling : Appended to previous track
Used output format : User Defined EncoderSelected bitrate : 768 kBit/sQuality : HighAdd ID3 tag : NoCommand line compressor : C:\Program Files\Exact Audio Copy\FLAC\FLAC.EXEAdditional command line options : -V -8 -T "artist=%a" -T "title=%t" -T "album=%g" -T "date=%y" -T "tracknumber=%n" -T "genre=%m" %s
TOC of the extracted CD
Track | Start | Length | Start sector | End sector --------------------------------------------------------- 1 | 0:00.00 | 2:51.07 | 0 | 12831 2 | 2:51.07 | 3:54.23 | 12832 | 30404 3 | 6:45.30 | 3:50.32 | 30405 | 47686 4 | 10:35.62 | 3:28.70 | 47687 | 63356 5 | 14:04.57 | 2:34.28 | 63357 | 74934 6 | 16:39.10 | 3:36.67 | 74935 | 91201 7 | 20:16.02 | 3:17.00 | 91202 | 105976 8 | 23:33.02 | 3:15.65 | 105977 | 120666 9 | 26:48.67 | 3:59.33 | 120667 | 138624 10 | 30:48.25 | 2:28.47 | 138625 | 149771 11 | 33:16.72 | 2:33.23 | 149772 | 161269 12 | 35:50.20 | 4:01.50 | 161270 | 179394 13 | 39:51.70 | 4:06.70 | 179395 | 197914 14 | 43:58.65 | 4:40.17 | 197915 | 218931 15 | 48:39.07 | 4:15.50 | 218932 | 238106 16 | 52:54.57 | 3:11.30 | 238107 | 252461 17 | 56:06.12 | 1:53.65 | 252462 | 261001
Track 1
Filename F:\What\Rips\The Toasters\Don't Let the Bastards Grind You Down\01 - Don't Let the Bastards Grind You Down.wav
Pre-gap length 0:00:02.00
Peak level 97.1 % Track quality 100.0 % Test CRC 8E0A51D2 Copy CRC 8E0A51D2 Accurately ripped (confidence 6) [48AFAF10] Copy OK
Track 2
Filename F:\What\Rips\The Toasters\Don't Let the Bastards Grind You Down\02 - Fire In My Soul.wav
Pre-gap length 0:00:02.55
Peak level 99.0 % Track quality 100.0 % Test CRC 899DA076 Copy CRC 899DA076 Accurately ripped (confidence 6) [F7BAC282] Copy OK
Track 3
Filename F:\What\Rips\The Toasters\Don't Let the Bastards Grind You Down\03 - I'm Running Right Through the World.wav
Pre-gap length 0:00:02.70
Peak level 96.1 % Track quality 99.9 % Test CRC F69FF12F Copy CRC F69FF12F Accurately ripped (confidence 6) [0AAFA890] Copy OK
Track 4
Filename F:\What\Rips\The Toasters\Don't Let the Bastards Grind You Down\04 - Underground Town.wav
Pre-gap length 0:00:02.52
Peak level 96.4 % Track quality 100.0 % Test CRC 8E6B4720 Copy CRC 8E6B4720 Accurately ripped (confidence 6) [76A97502] Copy OK
Track 5
Filename F:\What\Rips\The Toasters\Don't Let the Bastards Grind You Down\05 - Gimme Some Lovin'.wav
Pre-gap length 0:00:02.52
Peak level 99.8 % Track quality 100.0 % Test CRC 08281973 Copy CRC 08281973 Accurately ripped (confidence 6) [F9F22C6E] Copy OK
Track 6
Filename F:\What\Rips\The Toasters\Don't Let the Bastards Grind You Down\06 - Devil and a 45.wav
Pre-gap length 0:00:02.53
Peak level 99.2 % Track quality 100.0 % Test CRC 9538F25F Copy CRC 9538F25F Accurately ripped (confidence 6) [93C08C80] Copy OK
Track 7
Filename F:\What\Rips\The Toasters\Don't Let the Bastards Grind You Down\07 - Daddy Cry.wav
Pre-gap length 0:00:02.55
Peak level 96.8 % Track quality 100.0 % Test CRC ED6CAC53 Copy CRC ED6CAC53 Accurately ripped (confidence 6) [084F614F] Copy OK
Track 8
Filename F:\What\Rips\The Toasters\Don't Let the Bastards Grind You Down\08 - Today's a Good Day.wav
Pre-gap length 0:00:02.54
Peak level 99.8 % Track quality 100.0 % Test CRC 01C13570 Copy CRC 01C13570 Accurately ripped (confidence 6) [7321668B] Copy OK
Track 9
Filename F:\What\Rips\The Toasters\Don't Let the Bastards Grind You Down\09 - Jackie Chan.wav
Pre-gap length 0:00:02.52
Peak level 95.1 % Track quality 100.0 % Test CRC 8D5E98AC Copy CRC 8D5E98AC Accurately ripped (confidence 6) [6C1CD9D6] Copy OK
Track 10
Filename F:\What\Rips\The Toasters\Don't Let the Bastards Grind You Down\10 - Rude Rude Baby.wav
Pre-gap length 0:00:02.53
Peak level 98.0 % Track quality 100.0 % Test CRC D0F038E4 Copy CRC D0F038E4 Accurately ripped (confidence 6) [668289F4] Copy OK
Track 11
Filename F:\What\Rips\The Toasters\Don't Let the Bastards Grind You Down\11 - Everything You Said Has Been a Lie.wav
Pre-gap length 0:00:02.46
Peak level 99.4 % Track quality 99.8 % Test CRC B8577203 Copy CRC B8577203 Accurately ripped (confidence 6) [D656105A] Copy OK
Track 12
Filename F:\What\Rips\The Toasters\Don't Let the Bastards Grind You Down\12 - Spooky Graveyard.wav
Pre-gap length 0:00:02.49
Peak level 99.1 % Track quality 100.0 % Test CRC 6FE670FC Copy CRC 6FE670FC Accurately ripped (confidence 6) [79362C98] Copy OK
Track 13
Filename F:\What\Rips\The Toasters\Don't Let the Bastards Grind You Down\13 - Big Red.wav
Pre-gap length 0:00:02.48
Peak level 95.2 % Track quality 100.0 % Test CRC 160365BF Copy CRC 160365BF Accurately ripped (confidence 6) [D233FDDA] Copy OK
Track 14
Filename F:\What\Rips\The Toasters\Don't Let the Bastards Grind You Down\14 - Bye Bye Baby.wav
Pre-gap length 0:00:02.50
Peak level 95.7 % Track quality 100.0 % Test CRC B917A1EF Copy CRC B917A1EF Accurately ripped (confidence 6) [C05AB5F7] Copy OK
Track 15
Filename F:\What\Rips\The Toasters\Don't Let the Bastards Grind You Down\15 - Weekend in LA.wav
Pre-gap length 0:00:02.33
Peak level 97.9 % Track quality 100.0 % Test CRC 85098D5D Copy CRC 85098D5D Accurately ripped (confidence 6) [F79B250D] Copy OK
Track 16
Filename F:\What\Rips\The Toasters\Don't Let the Bastards Grind You Down\16 - Woyay.wav
Pre-gap length 0:00:02.63
Peak level 93.7 % Track quality 100.0 % Test CRC 6EBB9789 Copy CRC 6EBB9789 Accurately ripped (confidence 6) [28320E79] Copy OK
Track 17
Filename F:\What\Rips\The Toasters\Don't Let the Bastards Grind You Down\17 - Rhythm and Pain.wav
Pre-gap length 0:00:02.48
Peak level 95.0 % Track quality 100.0 % Test CRC 71A23E10 Copy CRC 71A23E10 Accurately ripped (confidence 6) [BABA9CC5] Copy OK
All tracks accurately ripped
No errors occurred
End of status report

1998 - Live In London (2CD)Disc 1

EAC extraction logfile from 18. April 2008, 1:21 for CDThe Toasters / Live in London--Disc 1
Used drive : TSSTcorpCD-ROM TS-L162C Adapter: 1 ID: 0Read mode : Secure with NO C2, accurate stream, disable cacheRead offset correction : 6Overread into Lead-In and Lead-Out : No
Used output format : C:\Program Files\Exact Audio Copy\flac\bin\flac.exe (User Defined Encoder) 128 kBit/s Additional command line options : -8 -A tukey(0.25) -A gauss(0.1875) -b 4096 -V -T "artist=%a" -T "title=%t" -T "album=%g" -T "date=%y" -T "tracknumber=%n" -T "genre=%m" %s --sector-align
Other options : Fill up missing offset samples with silence : Yes Delete leading and trailing silent blocks : No Native Win32 interface for Win NT & 2000
Track 1 Filename C:\Documents and Settings\Tom\My Documents\My Rips\The Toasters - Live In London (2CD) (flac)\01 - The Toasters - Intro - Bugger Off (Spoken Word).wav
Pre-gap length 0:00:02.00
Peak level 88.1 % Track quality 100.0 % Test CRC A2105428 Copy CRC A2105428 Copy OK
Track 2 Filename C:\Documents and Settings\Tom\My Documents\My Rips\The Toasters - Live In London (2CD) (flac)\02 - The Toasters - Gimmie Some Lovin.wav
Peak level 100.0 % Track quality 99.9 % Test CRC A32ABA33 Copy CRC A32ABA33 Copy OK
Track 3 Filename C:\Documents and Settings\Tom\My Documents\My Rips\The Toasters - Live In London (2CD) (flac)\03 - The Toasters - I'm Running Through The World.wav
Peak level 100.0 % Track quality 100.0 % Test CRC 2393F512 Copy CRC 2393F512 Copy OK
Track 4 Filename C:\Documents and Settings\Tom\My Documents\My Rips\The Toasters - Live In London (2CD) (flac)\04 - The Toasters - Underground Town.wav
Peak level 100.0 % Track quality 100.0 % Test CRC 29F4243C Copy CRC 29F4243C Copy OK
Track 5 Filename C:\Documents and Settings\Tom\My Documents\My Rips\The Toasters - Live In London (2CD) (flac)\05 - The Toasters - Rude Rude Baby.wav
Peak level 100.0 % Track quality 100.0 % Test CRC 7976A1B4 Copy CRC 7976A1B4 Copy OK
Track 6 Filename C:\Documents and Settings\Tom\My Documents\My Rips\The Toasters - Live In London (2CD) (flac)\06 - The Toasters - Ploughshares.wav
Peak level 100.0 % Track quality 100.0 % Test CRC 2AED265C Copy CRC 2AED265C Copy OK
Track 7 Filename C:\Documents and Settings\Tom\My Documents\My Rips\The Toasters - Live In London (2CD) (flac)\07 - The Toasters - Talk Is Cheap.wav
Peak level 100.0 % Track quality 100.0 % Test CRC E4C81510 Copy CRC E4C81510 Copy OK
Track 8 Filename C:\Documents and Settings\Tom\My Documents\My Rips\The Toasters - Live In London (2CD) (flac)\08 - The Toasters - East Side Beat (Part 1) Vs. West Ham United.wav
Peak level 100.0 % Track quality 100.0 % Test CRC 422DB126 Copy CRC 422DB126 Copy OK
Track 9 Filename C:\Documents and Settings\Tom\My Documents\My Rips\The Toasters - Live In London (2CD) (flac)\09 - The Toasters - East Side Beat (Part 2).wav
Peak level 100.0 % Track quality 100.0 % Test CRC 4FDBD486 Copy CRC 4FDBD486 Copy OK
Track 10 Filename C:\Documents and Settings\Tom\My Documents\My Rips\The Toasters - Live In London (2CD) (flac)\10 - The Toasters - History Book.wav
Peak level 100.0 % Track quality 100.0 % Test CRC 41AF6F60 Copy CRC 41AF6F60 Copy OK
Track 11 Filename C:\Documents and Settings\Tom\My Documents\My Rips\The Toasters - Live In London (2CD) (flac)\11 - The Toasters - Weekend In L.A..wav
Peak level 100.0 % Track quality 100.0 % Test CRC C27F8A3D Copy CRC C27F8A3D Copy OK
Track 12 Filename C:\Documents and Settings\Tom\My Documents\My Rips\The Toasters - Live In London (2CD) (flac)\12 - The Toasters - The Jack Ruby Jr Woyay (Feat Dr. Ring Ding).wav
Peak level 100.0 % Track quality 100.0 % Test CRC BF32AC72 Copy CRC BF32AC72 Copy OK
No errors occured
End of status report

Disc 2

EAC extraction logfile from 18. April 2008, 2:07 for CDThe Toasters / Live in London--Disc 2
Used drive : TSSTcorpCD-ROM TS-L162C Adapter: 1 ID: 0Read mode : Secure with NO C2, accurate stream, disable cacheRead offset correction : 6Overread into Lead-In and Lead-Out : No
Used output format : C:\Program Files\Exact Audio Copy\flac\bin\flac.exe (User Defined Encoder) 128 kBit/s Additional command line options : -8 -A tukey(0.25) -A gauss(0.1875) -b 4096 -V -T "artist=%a" -T "title=%t" -T "album=%g" -T "date=%y" -T "tracknumber=%n" -T "genre=%m" %s --sector-align
Other options : Fill up missing offset samples with silence : Yes Delete leading and trailing silent blocks : No Native Win32 interface for Win NT & 2000
Track 1 Filename C:\Documents and Settings\Tom\My Documents\My Rips\The Toasters - Live In London (2CD) (flac)\Live in London--Disc 2\01 - The Toasters - Intro - Sorry west ham (Spoken word).wav
Pre-gap length 0:00:02.00
Peak level 100.0 % Track quality 100.0 % Test CRC 04E20D05 Copy CRC 04E20D05 Copy OK
Track 2 Filename C:\Documents and Settings\Tom\My Documents\My Rips\The Toasters - Live In London (2CD) (flac)\Live in London--Disc 2\02 - The Toasters - Frankenska.wav
Peak level 100.0 % Track quality 100.0 % Test CRC A911606C Copy CRC A911606C Copy OK
Track 3 Filename C:\Documents and Settings\Tom\My Documents\My Rips\The Toasters - Live In London (2CD) (flac)\Live in London--Disc 2\03 - The Toasters - Friends.wav
Peak level 100.0 % Track quality 100.0 % Test CRC D84CB8B3 Copy CRC D84CB8B3 Copy OK
Track 4 Filename C:\Documents and Settings\Tom\My Documents\My Rips\The Toasters - Live In London (2CD) (flac)\Live in London--Disc 2\04 - The Toasters - Run rudy run.wav
Peak level 100.0 % Track quality 99.9 % Test CRC FA1A17AA Copy CRC FA1A17AA Copy OK
Track 5 Filename C:\Documents and Settings\Tom\My Documents\My Rips\The Toasters - Live In London (2CD) (flac)\Live in London--Disc 2\05 - The Toasters - Two tone army.wav
Peak level 100.0 % Track quality 99.9 % Test CRC AC1BD805 Copy CRC AC1BD805 Copy OK
Track 6 Filename C:\Documents and Settings\Tom\My Documents\My Rips\The Toasters - Live In London (2CD) (flac)\Live in London--Disc 2\06 - The Toasters - Don't let the bastards grind you down.wav
Peak level 100.0 % Track quality 100.0 % Test CRC 6E899D71 Copy CRC 6E899D71 Copy OK
Track 7 Filename C:\Documents and Settings\Tom\My Documents\My Rips\The Toasters - Live In London (2CD) (flac)\Live in London--Disc 2\07 - The Toasters - I wasn't gonna call you anyway.wav
Peak level 100.0 % Track quality 100.0 % Test CRC B7854BBD Copy CRC B7854BBD Copy OK
Track 8 Filename C:\Documents and Settings\Tom\My Documents\My Rips\The Toasters - Live In London (2CD) (flac)\Live in London--Disc 2\08 - The Toasters - Fire in my soul.wav
Peak level 100.0 % Track quality 100.0 % Test CRC B68F352A Copy CRC B68F352A Copy OK
Track 9 Filename C:\Documents and Settings\Tom\My Documents\My Rips\The Toasters - Live In London (2CD) (flac)\Live in London--Disc 2\09 - The Toasters - Shocker.wav
Peak level 100.0 % Track quality 100.0 % Test CRC FB7D039F Copy CRC FB7D039F Copy OK
Track 10 Filename C:\Documents and Settings\Tom\My Documents\My Rips\The Toasters - Live In London (2CD) (flac)\Live in London--Disc 2\10 - The Toasters - Mona.wav
Peak level 100.0 % Track quality 100.0 % Test CRC C614216E Copy CRC C614216E Copy OK
Track 11 Filename C:\Documents and Settings\Tom\My Documents\My Rips\The Toasters - Live In London (2CD) (flac)\Live in London--Disc 2\11 - The Toasters - Decision at midnight.wav
Peak level 100.0 % Track quality 100.0 % Test CRC 722B93D9 Copy CRC 722B93D9 Copy OK
Track 12 Filename C:\Documents and Settings\Tom\My Documents\My Rips\The Toasters - Live In London (2CD) (flac)\Live in London--Disc 2\12 - The Toasters - Matt davis.wav
Peak level 100.0 % Track quality 100.0 % Test CRC C277C683 Copy CRC C277C683 Copy OK
No errors occured
End of status report

2003 - In Retrospect

Exact Audio Copy V0.99 prebeta 4 from 23. January 2008
EAC extraction logfile from 20. August 2008, 20:06
The Toasters / In Retrospect
Used drive : TSSTcorpCD/DVDW SH-S162L Adapter: 0 ID: 0
Read mode : SecureUtilize accurate stream : YesDefeat audio cache : YesMake use of C2 pointers : No
Read offset correction : 6Overread into Lead-In and Lead-Out : NoFill up missing offset samples with silence : YesDelete leading and trailing silent blocks : NoNull samples used in CRC calculations : YesUsed interface : Native Win32 interface for Win NT & 2000Gap handling : Appended to previous track
Used output format : User Defined EncoderSelected bitrate : 768 kBit/sQuality : HighAdd ID3 tag : NoCommand line compressor : C:\Program Files\Exact Audio Copy\FLAC\FLAC.EXEAdditional command line options : -V -8 -T "artist=%a" -T "title=%t" -T "album=%g" -T "date=%y" -T "tracknumber=%n" -T "genre=%m" %s
TOC of the extracted CD
Track | Start | Length | Start sector | End sector --------------------------------------------------------- 1 | 0:00.00 | 3:43.46 | 0 | 16770 2 | 3:43.46 | 3:11.05 | 16771 | 31100 3 | 6:54.51 | 4:14.00 | 31101 | 50150 4 | 11:08.51 | 2:48.47 | 50151 | 62797 5 | 13:57.23 | 3:02.20 | 62798 | 76467 6 | 16:59.43 | 3:31.22 | 76468 | 92314 7 | 20:30.65 | 2:44.67 | 92315 | 104681 8 | 23:15.57 | 3:19.54 | 104682 | 119660 9 | 26:35.36 | 4:00.63 | 119661 | 137723 10 | 30:36.24 | 3:15.63 | 137724 | 152411 11 | 33:52.12 | 3:01.57 | 152412 | 166043 12 | 36:53.69 | 3:26.67 | 166044 | 181560 13 | 40:20.61 | 3:06.40 | 181561 | 195550 14 | 43:27.26 | 2:50.65 | 195551 | 208365 15 | 46:18.16 | 4:13.17 | 208366 | 227357 16 | 50:31.33 | 3:47.64 | 227358 | 244446 17 | 54:19.22 | 4:15.43 | 244447 | 263614 18 | 58:34.65 | 3:06.08 | 263615 | 277572 19 | 61:40.73 | 3:04.27 | 277573 | 291399 20 | 64:45.25 | 2:06.11 | 291400 | 300860 21 | 66:51.36 | 3:49.29 | 300861 | 318064
Track 1
Filename D:\Waffle Irons\The Toasters In Retrospect FLAC Log\01 East side beat.wav
Pre-gap length 0:00:02.00
Peak level 96.6 % Track quality 100.0 % Test CRC ED340AB3 Copy CRC ED340AB3 Cannot be verified as accurate (confidence 1) [4D7AE4D6], AccurateRip returned [F53D531F] Copy OK
Track 2
Filename D:\Waffle Irons\The Toasters In Retrospect FLAC Log\02 Talk is cheap.wav
Peak level 100.0 % Track quality 100.0 % Test CRC 366FC3D0 Copy CRC 366FC3D0 Cannot be verified as accurate (confidence 1) [07B5F659], AccurateRip returned [37E71F4C] Copy OK
Track 3
Filename D:\Waffle Irons\The Toasters In Retrospect FLAC Log\03 Weekend in L A.wav
Peak level 97.9 % Track quality 99.9 % Test CRC 5958444B Copy CRC 5958444B Cannot be verified as accurate (confidence 1) [DBD9126F], AccurateRip returned [65092A3F] Copy OK
Track 4
Filename D:\Waffle Irons\The Toasters In Retrospect FLAC Log\04 Don't let the bastards grind you down.wav
Pre-gap length 0:00:00.38
Peak level 97.1 % Track quality 100.0 % Test CRC 319A1015 Copy CRC 319A1015 Cannot be verified as accurate (confidence 1) [B1203440], AccurateRip returned [5EE90397] Copy OK
Track 5
Filename D:\Waffle Irons\The Toasters In Retrospect FLAC Log\05 Thrill me up.wav
Peak level 96.6 % Track quality 99.9 % Test CRC 156AFF60 Copy CRC 156AFF60 Cannot be verified as accurate (confidence 1) [6870A745], AccurateRip returned [BEF6D45A] Copy OK
Track 6
Filename D:\Waffle Irons\The Toasters In Retrospect FLAC Log\06 Razor cut.wav
Pre-gap length 0:00:00.52
Peak level 96.6 % Track quality 100.0 % Test CRC 36346F5F Copy CRC 36346F5F Cannot be verified as accurate (confidence 1) [6C27F8E4], AccurateRip returned [092CED6C] Copy OK
Track 7
Filename D:\Waffle Irons\The Toasters In Retrospect FLAC Log\07 Dub 56.wav
Pre-gap length 0:00:00.05
Peak level 96.6 % Track quality 100.0 % Test CRC BFFE10BE Copy CRC BFFE10BE Cannot be verified as accurate (confidence 1) [F73CBFFC], AccurateRip returned [B7007025] Copy OK
Track 8
Filename D:\Waffle Irons\The Toasters In Retrospect FLAC Log\08 2-Tone army.wav
Peak level 100.0 % Track quality 100.0 % Test CRC 3AA5F4AD Copy CRC 3AA5F4AD Cannot be verified as accurate (confidence 1) [2BA1ED7D], AccurateRip returned [B843B748] Copy OK
Track 9
Filename D:\Waffle Irons\The Toasters In Retrospect FLAC Log\09 Shebeen.wav
Pre-gap length 0:00:02.20
Peak level 96.6 % Track quality 100.0 % Test CRC 1B5B336A Copy CRC 1B5B336A Cannot be verified as accurate (confidence 1) [F9D9BCB3], AccurateRip returned [A476DC1B] Copy OK
Track 10
Filename D:\Waffle Irons\The Toasters In Retrospect FLAC Log\10 Recrimination.wav
Pre-gap length 0:00:01.77
Peak level 96.6 % Track quality 100.0 % Test CRC 77DDC29A Copy CRC 77DDC29A Cannot be verified as accurate (confidence 1) [02A344BC], AccurateRip returned [D77BA7FA] Copy OK
Track 11
Filename D:\Waffle Irons\The Toasters In Retrospect FLAC Log\11 Havana (This gun for hire).wav
Peak level 96.6 % Track quality 100.0 % Test CRC B1706820 Copy CRC B1706820 Cannot be verified as accurate (confidence 1) [9D23C0E4], AccurateRip returned [080AD877] Copy OK
Track 12
Filename D:\Waffle Irons\The Toasters In Retrospect FLAC Log\12 Underground town.wav
Peak level 96.4 % Track quality 99.9 % Test CRC D7E09DAA Copy CRC D7E09DAA Cannot be verified as accurate (confidence 1) [BB2F384F], AccurateRip returned [8991B8A6] Copy OK
Track 13
Filename D:\Waffle Irons\The Toasters In Retrospect FLAC Log\13 Ska killers.wav
Peak level 96.6 % Track quality 100.0 % Test CRC 3E78BEFB Copy CRC 3E78BEFB Cannot be verified as accurate (confidence 1) [F80541FD], AccurateRip returned [DF673E39] Copy OK
Track 14
Filename D:\Waffle Irons\The Toasters In Retrospect FLAC Log\14 History book version.wav
Pre-gap length 0:00:00.52
Peak level 96.6 % Track quality 100.0 % Test CRC 5116938A Copy CRC 5116938A Cannot be verified as accurate (confidence 1) [E84297C5], AccurateRip returned [3C5DADA5] Copy OK
Track 15
Filename D:\Waffle Irons\The Toasters In Retrospect FLAC Log\15 The beat.wav
Peak level 96.6 % Track quality 100.0 % Test CRC ED5A66D7 Copy CRC ED5A66D7 Cannot be verified as accurate (confidence 1) [B2C3290E], AccurateRip returned [77F82882] Copy OK
Track 16
Filename D:\Waffle Irons\The Toasters In Retrospect FLAC Log\16 Pirate radio.wav
Pre-gap length 0:00:00.22
Peak level 96.6 % Track quality 100.0 % Test CRC A6D9434A Copy CRC A6D9434A Cannot be verified as accurate (confidence 1) [2719C824], AccurateRip returned [D8E04813] Copy OK
Track 17
Filename D:\Waffle Irons\The Toasters In Retrospect FLAC Log\17 Dog eat dog.wav
Peak level 96.6 % Track quality 100.0 % Test CRC 46560158 Copy CRC 46560158 Cannot be verified as accurate (confidence 1) [EC21300E], AccurateRip returned [E510C42E] Copy OK
Track 18
Filename D:\Waffle Irons\The Toasters In Retrospect FLAC Log\18 Hard band for dead.wav
Peak level 100.0 % Track quality 100.0 % Test CRC EEA9A206 Copy CRC EEA9A206 Cannot be verified as accurate (confidence 1) [F0FB00F0], AccurateRip returned [0B4AFF1F] Copy OK
Track 19
Filename D:\Waffle Irons\The Toasters In Retrospect FLAC Log\19 Mona.wav
Pre-gap length 0:00:00.28
Peak level 96.6 % Track quality 100.0 % Test CRC C4A2A53D Copy CRC C4A2A53D Cannot be verified as accurate (confidence 1) [829E8D49], AccurateRip returned [37815A5F] Copy OK
Track 20
Filename D:\Waffle Irons\The Toasters In Retrospect FLAC Log\20 New York fever.wav
Pre-gap length 0:00:00.28
Peak level 99.9 % Track quality 99.9 % Test CRC 0213EB2B Copy CRC 0213EB2B Cannot be verified as accurate (confidence 1) [DF6269E8], AccurateRip returned [D22B0916] Copy OK
Track 21
Filename D:\Waffle Irons\The Toasters In Retrospect FLAC Log\21 I'm running right through the world.wav
Pre-gap length 0:00:01.49
Peak level 96.1 % Track quality 100.0 % Test CRC C2161DE0 Copy CRC C2161DE0 Cannot be verified as accurate (confidence 1) [84B15C4A], AccurateRip returned [64862D38] Copy OK
No tracks could be verified as accurateYou may have a different pressing from the one(s) in the database
No errors occurred
End of status report

2006 - Dub 56Disc 1

Exact Audio Copy V0.99 prebeta 4 from 23. January 2008
EAC extraction logfile from 5. September 2008, 12:21
The Toasters / Dub 56 Disc 1
Used drive : TSSTcorpCD/DVDW SH-S162L Adapter: 0 ID: 0
Read mode : SecureUtilize accurate stream : YesDefeat audio cache : YesMake use of C2 pointers : No
Read offset correction : 6Overread into Lead-In and Lead-Out : NoFill up missing offset samples with silence : YesDelete leading and trailing silent blocks : NoNull samples used in CRC calculations : YesUsed interface : Native Win32 interface for Win NT & 2000Gap handling : Appended to previous track
Used output format : User Defined EncoderSelected bitrate : 768 kBit/sQuality : HighAdd ID3 tag : NoCommand line compressor : C:\Program Files\Exact Audio Copy\FLAC\FLAC.EXEAdditional command line options : -V -8 -T "artist=%a" -T "title=%t" -T "album=%g" -T "date=%y" -T "tracknumber=%n" -T "genre=%m" %s
TOC of the extracted CD
Track | Start | Length | Start sector | End sector --------------------------------------------------------- 1 | 0:00.00 | 2:43.49 | 0 | 12273 2 | 2:43.49 | 4:07.52 | 12274 | 30850 3 | 6:51.26 | 3:05.18 | 30851 | 44743 4 | 9:56.44 | 3:28.47 | 44744 | 60390 5 | 13:25.16 | 2:45.47 | 60391 | 72812 6 | 16:10.63 | 3:52.17 | 72813 | 90229 7 | 20:03.05 | 2:35.38 | 90230 | 101892 8 | 22:38.43 | 2:49.41 | 101893 | 114608 9 | 25:28.09 | 2:50.02 | 114609 | 127360 10 | 28:18.11 | 3:13.04 | 127361 | 141839 11 | 31:31.15 | 3:14.18 | 141840 | 156407 12 | 34:45.33 | 3:17.58 | 156408 | 171240 13 | 38:03.16 | 2:32.07 | 171241 | 182647 14 | 40:35.23 | 2:17.53 | 182648 | 192975 15 | 42:53.01 | 2:48.03 | 192976 | 205578 16 | 45:41.04 | 6:58.56 | 205579 | 236984 17 | 52:39.60 | 9:01.64 | 236985 | 277623 18 | 61:41.49 | 3:13.59 | 277624 | 292157
Track 1
Filename D:\Waffle Irons\The Toasters Dub 56 2006 FLAC Log\Disc 1\01 Direction.wav
Pre-gap length 0:00:02.00
Peak level 98.8 % Track quality 100.0 % Test CRC 8B81AAF7 Copy CRC 8B81AAF7 Track not present in AccurateRip database Copy OK
Track 2
Filename D:\Waffle Irons\The Toasters Dub 56 2006 FLAC Log\Disc 1\02 Freedom.wav
Pre-gap length 0:00:01.18
Peak level 98.8 % Track quality 99.9 % Test CRC 33E49C22 Copy CRC 33E49C22 Track not present in AccurateRip database Copy OK
Track 3
Filename D:\Waffle Irons\The Toasters Dub 56 2006 FLAC Log\Disc 1\03 Mona.wav
Pre-gap length 0:00:00.58
Peak level 98.8 % Track quality 100.0 % Test CRC C139C617 Copy CRC C139C617 Track not present in AccurateRip database Copy OK
Track 4
Filename D:\Waffle Irons\The Toasters Dub 56 2006 FLAC Log\Disc 1\04 Dancin'.wav
Pre-gap length 0:00:00.97
Peak level 98.8 % Track quality 100.0 % Test CRC 587C6E19 Copy CRC 587C6E19 Track not present in AccurateRip database Copy OK
Track 5
Filename D:\Waffle Irons\The Toasters Dub 56 2006 FLAC Log\Disc 1\05 Dub 56.wav
Pre-gap length 0:00:01.38
Peak level 98.8 % Track quality 100.0 % Test CRC CEDE4625 Copy CRC CEDE4625 Track not present in AccurateRip database Copy OK
Track 6
Filename D:\Waffle Irons\The Toasters Dub 56 2006 FLAC Log\Disc 1\06 Sweet Cherie.wav
Pre-gap length 0:00:00.33
Peak level 98.8 % Track quality 100.0 % Test CRC B025EDF7 Copy CRC B025EDF7 Track not present in AccurateRip database Copy OK
Track 7
Filename D:\Waffle Irons\The Toasters Dub 56 2006 FLAC Log\Disc 1\07 Tunisia.wav
Pre-gap length 0:00:00.92
Peak level 98.8 % Track quality 100.0 % Test CRC B405F3B3 Copy CRC B405F3B3 Track not present in AccurateRip database Copy OK
Track 8
Filename D:\Waffle Irons\The Toasters Dub 56 2006 FLAC Log\Disc 1\08 Little Hidden Secrets.wav
Pre-gap length 0:00:01.78
Peak level 98.8 % Track quality 100.0 % Test CRC 2F4AC146 Copy CRC 2F4AC146 Track not present in AccurateRip database Copy OK
Track 9
Filename D:\Waffle Irons\The Toasters Dub 56 2006 FLAC Log\Disc 1\09 Marlboro Man.wav
Pre-gap length 0:00:02.32
Peak level 98.8 % Track quality 99.9 % Test CRC E531980D Copy CRC E531980D Track not present in AccurateRip database Copy OK
Track 10
Filename D:\Waffle Irons\The Toasters Dub 56 2006 FLAC Log\Disc 1\10 Aint Nuthin'.wav
Pre-gap length 0:00:01.85
Peak level 98.8 % Track quality 100.0 % Test CRC A300B2A9 Copy CRC A300B2A9 Track not present in AccurateRip database Copy OK
Track 11
Filename D:\Waffle Irons\The Toasters Dub 56 2006 FLAC Log\Disc 1\11 Razor Cut.wav
Pre-gap length 0:00:01.56
Peak level 98.8 % Track quality 99.9 % Test CRC 0C300CFC Copy CRC 0C300CFC Track not present in AccurateRip database Copy OK
Track 12
Filename D:\Waffle Irons\The Toasters Dub 56 2006 FLAC Log\Disc 1\12 Legal Shot.wav
Pre-gap length 0:00:01.73
Peak level 98.8 % Track quality 100.0 % Test CRC 0AE80D39 Copy CRC 0AE80D39 Track not present in AccurateRip database Copy OK
Track 13
Filename D:\Waffle Irons\The Toasters Dub 56 2006 FLAC Log\Disc 1\13 Midnight Hour.wav
Pre-gap length 0:00:01.30
Peak level 98.8 % Track quality 99.9 % Test CRC EB8BDA94 Copy CRC EB8BDA94 Track not present in AccurateRip database Copy OK
Track 14
Filename D:\Waffle Irons\The Toasters Dub 56 2006 FLAC Log\Disc 1\14 Goody Goody.wav
Pre-gap length 0:00:01.84
Peak level 98.8 % Track quality 100.0 % Test CRC 1A00DB38 Copy CRC 1A00DB38 Track not present in AccurateRip database Copy OK
Track 15
Filename D:\Waffle Irons\The Toasters Dub 56 2006 FLAC Log\Disc 1\15 Dub 56 - Chat Mix.wav
Pre-gap length 0:00:01.72
Peak level 98.8 % Track quality 100.0 % Test CRC 1123AD61 Copy CRC 1123AD61 Track not present in AccurateRip database Copy OK
Track 16
Filename D:\Waffle Irons\The Toasters Dub 56 2006 FLAC Log\Disc 1\16 Legal Shot - Dance Mix.wav
Pre-gap length 0:00:01.84
Peak level 98.8 % Track quality 99.9 % Test CRC FE45D38E Copy CRC FE45D38E Track not present in AccurateRip database Copy OK
Track 17
Filename D:\Waffle Irons\The Toasters Dub 56 2006 FLAC Log\Disc 1\17 Legal Shot - Gangster Mix.wav
Pre-gap length 0:00:01.73
Peak level 98.8 % Track quality 100.0 % Test CRC C1648266 Copy CRC C1648266 Track not present in AccurateRip database Copy OK
Track 18
Filename D:\Waffle Irons\The Toasters Dub 56 2006 FLAC Log\Disc 1\18 Aint Nuthin' - Chorus mix.wav
Pre-gap length 0:00:02.01
Peak level 98.8 % Track quality 100.0 % Test CRC C6BB8075 Copy CRC C6BB8075 Track not present in AccurateRip database Copy OK
None of the tracks are present in the AccurateRip database
No errors occurred
End of status report

Disc 2

Exact Audio Copy V0.99 prebeta 4 from 23. January 2008
EAC extraction logfile from 5. September 2008, 13:19
The Toasters / Dub 56 - 2006 - Disc 2
Used drive : TSSTcorpCD/DVDW SH-S162L Adapter: 0 ID: 0
Read mode : SecureUtilize accurate stream : YesDefeat audio cache : YesMake use of C2 pointers : No
Read offset correction : 6Overread into Lead-In and Lead-Out : NoFill up missing offset samples with silence : YesDelete leading and trailing silent blocks : NoNull samples used in CRC calculations : YesUsed interface : Native Win32 interface for Win NT & 2000Gap handling : Appended to previous track
Used output format : User Defined EncoderSelected bitrate : 768 kBit/sQuality : HighAdd ID3 tag : NoCommand line compressor : C:\Program Files\Exact Audio Copy\FLAC\FLAC.EXEAdditional command line options : -V -8 -T "artist=%a" -T "title=%t" -T "album=%g" -T "date=%y" -T "tracknumber=%n" -T "genre=%m" %s
TOC of the extracted CD
Track | Start | Length | Start sector | End sector --------------------------------------------------------- 1 | 0:00.00 | 3:37.62 | 0 | 16336 2 | 3:37.62 | 3:14.00 | 16337 | 30886 3 | 6:51.62 | 2:58.52 | 30887 | 44288 4 | 9:50.39 | 3:04.73 | 44289 | 58161 5 | 12:55.37 | 3:46.52 | 58162 | 75163 6 | 16:42.14 | 3:46.58 | 75164 | 92171 7 | 20:28.72 | 3:04.66 | 92172 | 106037 8 | 23:33.63 | 5:24.39 | 106038 | 130376 9 | 28:58.27 | 4:35.70 | 130377 | 151071 10 | 33:34.22 | 4:11.36 | 151072 | 169932 11 | 37:45.58 | 3:42.16 | 169933 | 186598 12 | 41:27.74 | 3:52.36 | 186599 | 204034 13 | 45:20.35 | 3:05.53 | 204035 | 217962 14 | 48:26.13 | 3:58.46 | 217963 | 235858 15 | 52:24.59 | 3:28.39 | 235859 | 251497 16 | 55:53.23 | 4:12.53 | 251498 | 270450 17 | 60:06.01 | 5:39.17 | 270451 | 295892
Track 1
Filename D:\Waffle Irons\The Toasters Dub 56 2006 FLAC Log\Disc 2\01 Matt Davis - Live in San Diego.wav
Pre-gap length 0:00:02.00
Peak level 98.8 % Track quality 99.9 % Test CRC D2A58B5D Copy CRC D2A58B5D Track not present in AccurateRip database Copy OK
Track 2
Filename D:\Waffle Irons\The Toasters Dub 56 2006 FLAC Log\Disc 2\02 Too Hip to be Cool - Live in San Diego.wav
Peak level 98.8 % Track quality 100.0 % Test CRC E5EF49A5 Copy CRC E5EF49A5 Track not present in AccurateRip database Copy OK
Track 3
Filename D:\Waffle Irons\The Toasters Dub 56 2006 FLAC Log\Disc 2\03 Social Security - Live in San Diego.wav
Peak level 98.8 % Track quality 100.0 % Test CRC 492396BB Copy CRC 492396BB Track not present in AccurateRip database Copy OK
Track 4
Filename D:\Waffle Irons\The Toasters Dub 56 2006 FLAC Log\Disc 2\04 Mona - Live in San Diego.wav
Peak level 98.8 % Track quality 99.9 % Test CRC 2395B6C5 Copy CRC 2395B6C5 Track not present in AccurateRip database Copy OK
Track 5
Filename D:\Waffle Irons\The Toasters Dub 56 2006 FLAC Log\Disc 2\05 Thrill Me Up - Live in San Diego.wav
Peak level 98.8 % Track quality 100.0 % Test CRC 500B72C6 Copy CRC 500B72C6 Track not present in AccurateRip database Copy OK
Track 6
Filename D:\Waffle Irons\The Toasters Dub 56 2006 FLAC Log\Disc 2\06 Legal Shot - Live in San Diego.wav
Peak level 98.8 % Track quality 99.9 % Test CRC FA23C330 Copy CRC FA23C330 Track not present in AccurateRip database Copy OK
Track 7
Filename D:\Waffle Irons\The Toasters Dub 56 2006 FLAC Log\Disc 2\07 Go Girl - Live in San Diego.wav
Peak level 98.8 % Track quality 100.0 % Test CRC 39DF4E9F Copy CRC 39DF4E9F Track not present in AccurateRip database Copy OK
Track 8
Filename D:\Waffle Irons\The Toasters Dub 56 2006 FLAC Log\Disc 2\08 East Side Beat - Live in San Diego.wav
Peak level 98.8 % Track quality 100.0 % Test CRC 322004B1 Copy CRC 322004B1 Track not present in AccurateRip database Copy OK
Track 9
Filename D:\Waffle Irons\The Toasters Dub 56 2006 FLAC Log\Disc 2\09 Poll Shark - Live in San Diego.wav
Peak level 98.8 % Track quality 99.9 % Test CRC 7B2CD122 Copy CRC 7B2CD122 Track not present in AccurateRip database Copy OK
Track 10
Filename D:\Waffle Irons\The Toasters Dub 56 2006 FLAC Log\Disc 2\10 Weekend in LA - Live in L.A..wav
Pre-gap length 0:00:01.64
Peak level 98.8 % Track quality 100.0 % Test CRC 87EDD847 Copy CRC 87EDD847 Track not present in AccurateRip database Copy OK
Track 11
Filename D:\Waffle Irons\The Toasters Dub 56 2006 FLAC Log\Disc 2\11 History Book - Live in L.A..wav
Peak level 98.8 % Track quality 100.0 % Test CRC BC066FD7 Copy CRC BC066FD7 Track not present in AccurateRip database Copy OK
Track 12
Filename D:\Waffle Irons\The Toasters Dub 56 2006 FLAC Log\Disc 2\12 Decision at Midnight - Live in L.A..wav
Peak level 98.8 % Track quality 100.0 % Test CRC E03EF8E1 Copy CRC E03EF8E1 Track not present in AccurateRip database Copy OK
Track 13
Filename D:\Waffle Irons\The Toasters Dub 56 2006 FLAC Log\Disc 2\13 Mona - Live in L.A..wav
Peak level 98.8 % Track quality 100.0 % Test CRC A84ABEAD Copy CRC A84ABEAD Track not present in AccurateRip database Copy OK
Track 14
Filename D:\Waffle Irons\The Toasters Dub 56 2006 FLAC Log\Disc 2\14 Thrill Me Up - Live in L.A..wav
Peak level 98.8 % Track quality 100.0 % Test CRC 47E7F9F9 Copy CRC 47E7F9F9 Track not present in AccurateRip database Copy OK
Track 15
Filename D:\Waffle Irons\The Toasters Dub 56 2006 FLAC Log\Disc 2\15 Legal Shot - Live in L.A..wav
Peak level 98.8 % Track quality 99.9 % Test CRC 93F0B33D Copy CRC 93F0B33D Track not present in AccurateRip database Copy OK
Track 16
Filename D:\Waffle Irons\The Toasters Dub 56 2006 FLAC Log\Disc 2\16 SheBeen - Live in L.A..wav
Peak level 98.8 % Track quality 99.9 % Test CRC 4159437F Copy CRC 4159437F Track not present in AccurateRip database Copy OK
Track 17
Filename D:\Waffle Irons\The Toasters Dub 56 2006 FLAC Log\Disc 2\17 East Side Beat - Live in L.A..wav
Peak level 98.8 % Track quality 100.0 % Test CRC 4A5120AF Copy CRC 4A5120AF Track not present in AccurateRip database Copy OK
None of the tracks are present in the AccurateRip database
No errors occurred
End of status report
-


[islamvillage.com]_t_1991213.torrent
Торрент: Зарегистрирован ·  [ 2019-01-05 13:55 ] ·  be2e033cbbcbbbc38b3b991e18228b61b89d8dfb

34 KB

Статус: проверено
Скачан: 0 раз
Размер: 3.44 GB
Оценка: 
(Голосов: 0)
Сказали спасибо: 0  Спасибо
Похожие темы
[Профиль]    [ЛС]
Показать сообщения:    
Ответить на тему

Текущее время: Сегодня 15:53

Часовой пояс: GMT + 7



Вы не можете начинать темы
Вы не можете отвечать на сообщения
Вы не можете редактировать свои сообщения
Вы не можете удалять свои сообщения
Вы не можете голосовать в опросах
Вы не можете прикреплять файлы к сообщениям
Вы можете скачивать файлы


eine kurze geschicht | Child development | parathd 285