Леонид Агутин - Юбилейный концерт в Crocus City Hall [2016, Pop, Bossa Nova, Jazz Pop, HDTV=>DVD9]

Ответить на тему
Статистика раздачи [Обновить пиров]
Размер:  5.93 GB   |    Зарегистрирован:  13 дней   |    Скачан:  0 раз

Полного источника не было: Никогда

 
   
 
 
 
Автор Сообщение

islamvillage.com

Создавать темы 06-Янв-2019 19:11

[Цитировать]

Леонид Агутин - Юбилейный концерт в Crocus City Hall
Страна: Россия
Жанр: Pop, Bossa Nova, Jazz Pop
Продолжительность: 01:33:59
Год выхода: 2016 г.
Описание:
Восьмого декабря 2013 года в московском концертном зале Crocus City Hall состоялся Юбилейный концерт Леонида Агутина, посвящённый 45-летию певца.
Съёмка концерта была проведена командой Первого канала, а премьера в эфире состоялась 15 июня 2014 года. Весь концерт сопровождался живой музыкой в исполнении музыкантов группы "Эсперанто".
Треклист:
01. Ты вернёшься когда-нибудь снова
02. По дороге на юг
03. Половина сердца
04. Всё куда-то девалось
05. Всё только для тебя
06. Кого не стоило бы ждать
07. Пароход
08. Время последних романтиков
09. Парень чернокожий
10. Остров
11. Игрушки (с группой N.A.O.M.I)
12. Ай-я-яй (с Томасом Невергрином)
13. Как не думать о тебе (с Анжеликой Варум)
14. Хоп хэй лала лэй
15. Босоногий мальчик (с учасниками проекта Голос)
16. Аэропорты (с Владимиром Пресняковым)
17. Оле-оле
18. На сиреневой луне
Доп. информация: Источник: Torrentc HDTV (Спасибо [url=profile.php?mode=viewprofile&u=15198260]kuzmichm2196[/url]).
Сделано по заявке [url=profile.php?mode=viewprofile&u=20013030]ЖФБА[/url].
Особое спасибо [url=profile.php?mode=viewprofile&u=1069088]CHKA1961[/url], за руководство и помощь по созданию данного релиза. :):)
Меню анимированное, озвученное, собственного производства.
Полученный результат проверен на работоспособность на софтовом Media Player Classic Home Cinema, записан на болванку с помощью ImgBurn и вновь проверен уже на бытовом плеере.--

Программы, использованные при создании этого релиза

Демуксинг
eac3to
MeGUI- HD-DVD/Blu-ray Streams Extractor
Обработка видео
DGDecodeNV
AviSynth
Rhozet Carbon Coder
Обработка аудио
Обработке не подвергалось.
Создание меню, Авторинг и проверка
MPEG Video Wizard DVD
Muxman
DvdReMakePro

Скрипт

LoadPlugin("C:\Portable\DGDecNV2050\DGDecodeNV.dll")
DGSource("H:\Leonid Agutin\T1_Video -.dgi")
LoadPlugin("C:\Program Files (x86)\AviSynth 2.5\plugins\TDeint.dll")
TDeint(mode=1)
Lanczos4Resize(720,576)
AssumeTFF()
SeparateFields()
SelectEvery(4,0,3)
Weave()
LoadPlugin("C:\Program Files (x86)\AviSynth 2.5\plugins\AutoYUY2.dll")
AutoYUY2()
LoadPlugin("C:\Program Files (x86)\AviSynth 2.5\plugins\ColorMatrix.dll")
ColorMatrix(mode="Rec.709->Rec.601", inputFR=false, clamp=0)

Точка перехода

Скачать сэмпл--Разбивка на главы по трекам: есть
Качество : HDTV=>DVD9
Формат файла: DVD video
Видео кодек: MPEG2
Аудио кодек: MP2
Видео: PAL 16:9 (720x576) VBR Auto Letterboxed, ~8495(9000) kbps, 25.000 fps
Аудио: Russian (MPEG1, 2 ch), 192 Kbps, 48.0 KHz

DVDinfo + MI

Title: Леонид Агутин - Юбилейный концерт в Crocus City HallSize: 5.93 Gb ( 6 216 292,00 KBytes ) - DVD-9Enabled regions: 1, 2, 3, 4, 5, 6, 7, 8
VTS_01 : Play Length: 01:33:59 Video: PAL 16:9 (720x576) VBR, Auto Letterboxed Audio: Russian, MPA, Delay = 0 mSec
VTS_02 : Play Length: 00:00:07 Video: PAL 16:9 (720x576) VBR, Auto Letterboxed
* Menus Information *
VIDEO_TS MenuVideo: NTSC 4:3 (720x480) VBR Auto Pan&Scan, Auto LetterboxedLanguage Unit :
VTS_01 MenuVideo: PAL 16:9 (720x576) VBR Auto LetterboxedAudio: English (Dolby AC3, 2 ch)Language Unit : Root Menu Chapter (PTT) Menu
VTS_02 MenuVideo: NTSC 4:3 (720x480) VBR Auto Pan&Scan, Auto LetterboxedLanguage Unit : Root Menu-GeneralComplete name : M:\Musical video\DVD\Леонид Агутин - Юбилейный концерт в Crocus City Hall\VIDEO_TS\VIDEO_TS.BUPFormat : DVD VideoFormat profile : MenuFile size : 10.0 KiBOverall bit rate mode : Variable
VideoID : 224 (0xE0)Format : MPEG VideoFormat version : Version 1Bit rate mode : VariableWidth : 720 pixelsHeight : 480 pixelsDisplay aspect ratio : 4:3Frame rate : 29.970 fpsStandard : NTSCCompression mode : Lossy
GeneralComplete name : M:\Musical video\DVD\Леонид Агутин - Юбилейный концерт в Crocus City Hall\VIDEO_TS\VIDEO_TS.IFOFormat : DVD VideoFormat profile : MenuFile size : 10.0 KiBOverall bit rate mode : Variable
VideoID : 224 (0xE0)Format : MPEG VideoFormat version : Version 1Bit rate mode : VariableWidth : 720 pixelsHeight : 480 pixelsDisplay aspect ratio : 4:3Frame rate : 29.970 fpsStandard : NTSCCompression mode : Lossy
GeneralComplete name : M:\Musical video\DVD\Леонид Агутин - Юбилейный концерт в Crocus City Hall\VIDEO_TS\VTS_01_0.BUPFormat : DVD VideoFormat profile : ProgramFile size : 62.0 KiBDuration : 1h 33mnOverall bit rate mode : VariableOverall bit rate : 90 bps
VideoID : 224 (0xE0)Format : MPEG VideoFormat version : Version 2Duration : 1h 33mnBit rate mode : VariableWidth : 720 pixelsHeight : 576 pixelsDisplay aspect ratio : 16:9Frame rate : 25.000 fpsStandard : PALCompression mode : Lossy
AudioID : 0 (0x0)Format : MPEG AudioFormat profile : Version 1Duration : 1h 33mnChannel(s) : 2 channelsSampling rate : 48.0 KHzCompression mode : LossyLanguage : Russian
MenuDuration : 1h 33mn00:00:00.000 : Chapter 100:00:16.840 : Chapter 200:04:39.680 : Chapter 300:08:58.040 : Chapter 400:12:49.800 : Chapter 500:20:50.800 : Chapter 600:25:02.680 : Chapter 700:29:36.880 : Chapter 800:33:48.160 : Chapter 900:38:19.480 : Chapter 1000:43:32.080 : Chapter 1100:48:28.640 : Chapter 1200:54:01.760 : Chapter 1300:58:41.880 : Chapter 1401:03:40.840 : Chapter 1501:11:13.040 : Chapter 1601:17:38.400 : Chapter 1701:23:08.880 : Chapter 1801:28:00.680 : Chapter 19List (Audio) : 0
GeneralComplete name : M:\Musical video\DVD\Леонид Агутин - Юбилейный концерт в Crocus City Hall\VIDEO_TS\VTS_01_0.IFOFormat : DVD VideoFormat profile : ProgramFile size : 62.0 KiBDuration : 1h 33mnOverall bit rate mode : VariableOverall bit rate : 90 bps
VideoID : 224 (0xE0)Format : MPEG VideoFormat version : Version 2Duration : 1h 33mnBit rate mode : VariableWidth : 720 pixelsHeight : 576 pixelsDisplay aspect ratio : 16:9Frame rate : 25.000 fpsStandard : PALCompression mode : Lossy
AudioID : 0 (0x0)Format : MPEG AudioFormat profile : Version 1Duration : 1h 33mnChannel(s) : 2 channelsSampling rate : 48.0 KHzCompression mode : LossyLanguage : Russian
MenuDuration : 1h 33mn00:00:00.000 : Chapter 100:00:16.840 : Chapter 200:04:39.680 : Chapter 300:08:58.040 : Chapter 400:12:49.800 : Chapter 500:20:50.800 : Chapter 600:25:02.680 : Chapter 700:29:36.880 : Chapter 800:33:48.160 : Chapter 900:38:19.480 : Chapter 1000:43:32.080 : Chapter 1100:48:28.640 : Chapter 1200:54:01.760 : Chapter 1300:58:41.880 : Chapter 1401:03:40.840 : Chapter 1501:11:13.040 : Chapter 1601:17:38.400 : Chapter 1701:23:08.880 : Chapter 1801:28:00.680 : Chapter 19List (Audio) : 0
GeneralComplete name : M:\Musical video\DVD\Леонид Агутин - Юбилейный концерт в Crocus City Hall\VIDEO_TS\VTS_01_0.VOBFormat : MPEG-PSFile size : 129 MiBDuration : 53s 536msOverall bit rate mode : VariableOverall bit rate : 20.2 MbpsWriting library : (dvd5: Dec 5 2013)
VideoID : 224 (0xE0)Format : MPEG VideoFormat version : Version 2Format profile : Main@MainFormat settings, BVOP : YesFormat settings, Matrix : DefaultFormat settings, GOP : M=3, N=12Duration : 53s 520msBit rate mode : VariableBit rate : 19.6 MbpsMaximum bit rate : 8 000 KbpsWidth : 720 pixelsHeight : 576 pixelsDisplay aspect ratio : 16:9Frame rate : 25.000 fpsStandard : PALColor space : YUVChroma subsampling : 4:2:0Bit depth : 8 bitsScan type : ProgressiveCompression mode : LossyBits/(Pixel*Frame) : 1.893Time code of first frame : 00:00:00:00Time code source : Group of pictures headerGOP, Open/Closed : OpenStream size : 125 MiB (97%)Writing library : (dvd5: Dec 5 2013)GOP, Open/Closed of first frame : Closed
AudioID : 189 (0xBD)-128 (0x80)Format : AC-3Format/Info : Audio Coding 3Mode extension : CM (complete main)Format settings, Endianness : BigMuxing mode : DVD-VideoDuration : 53s 536msBit rate mode : ConstantBit rate : 192 KbpsChannel(s) : 2 channelsChannel positions : Front: L RSampling rate : 48.0 KHzBit depth : 16 bitsCompression mode : LossyStream size : 1.23 MiB (1%)
Text #1ID : 189 (0xBD)-32 (0x20)Format : RLEFormat/Info : Run-length encodingMuxing mode : DVD-Video
Text #2ID : 189 (0xBD)-33 (0x21)Format : RLEFormat/Info : Run-length encodingMuxing mode : DVD-Video
Menu
GeneralComplete name : M:\Musical video\DVD\Леонид Агутин - Юбилейный концерт в Crocus City Hall\VIDEO_TS\VTS_01_1.VOBFormat : MPEG-PSFile size : 1 024 MiBDuration : 16mn 8sOverall bit rate mode : VariableOverall bit rate : 8 874 Kbps
VideoID : 224 (0xE0)Format : MPEG VideoFormat version : Version 2Format profile : Main@MainFormat settings, BVOP : YesFormat settings, Matrix : CustomFormat settings, GOP : VariableFormat settings, picture structure : FrameDuration : 16mn 8sBit rate mode : VariableBit rate : 8 505 KbpsMaximum bit rate : 9 000 KbpsWidth : 720 pixelsHeight : 576 pixelsDisplay aspect ratio : 16:9Frame rate : 25.000 fpsStandard : PALColor space : YUVChroma subsampling : 4:2:0Bit depth : 8 bitsScan type : InterlacedScan order : Top Field FirstCompression mode : LossyBits/(Pixel*Frame) : 0.820Time code of first frame : 00:00:00:00Time code source : Group of pictures headerGOP, Open/Closed : OpenStream size : 981 MiB (96%)GOP, Open/Closed of first frame : Closed
AudioID : 192 (0xC0)Format : MPEG AudioFormat version : Version 1Format profile : Layer 2Duration : 16mn 7sBit rate mode : ConstantBit rate : 192 KbpsChannel(s) : 2 channelsSampling rate : 48.0 KHzCompression mode : LossyStream size : 22.2 MiB (2%)
Menu
GeneralComplete name : M:\Musical video\DVD\Леонид Агутин - Юбилейный концерт в Crocus City Hall\VIDEO_TS\VTS_01_2.VOBFormat : MPEG-PSFile size : 1 024 MiBDuration : 15mn 55sOverall bit rate mode : VariableOverall bit rate : 8 992 Kbps
VideoID : 224 (0xE0)Format : MPEG VideoFormat version : Version 2Format profile : Main@MainFormat settings, BVOP : YesFormat settings, Matrix : CustomFormat settings, GOP : VariableFormat settings, picture structure : FrameDuration : 15mn 55sBit rate mode : VariableBit rate : 8 621 KbpsMaximum bit rate : 9 000 KbpsWidth : 720 pixelsHeight : 576 pixelsDisplay aspect ratio : 16:9Frame rate : 25.000 fpsStandard : PALColor space : YUVChroma subsampling : 4:2:0Bit depth : 8 bitsScan type : InterlacedScan order : Top Field FirstCompression mode : LossyBits/(Pixel*Frame) : 0.832Time code of first frame : 00:16:08:01Time code source : Group of pictures headerStream size : 982 MiB (96%)
AudioID : 192 (0xC0)Format : MPEG AudioFormat version : Version 1Format profile : Layer 2Duration : 15mn 55sBit rate mode : ConstantBit rate : 192 KbpsChannel(s) : 2 channelsSampling rate : 48.0 KHzCompression mode : LossyDelay relative to video : -200msStream size : 21.9 MiB (2%)
Menu
GeneralComplete name : M:\Musical video\DVD\Леонид Агутин - Юбилейный концерт в Crocus City Hall\VIDEO_TS\VTS_01_3.VOBFormat : MPEG-PSFile size : 1 024 MiBDuration : 15mn 58sOverall bit rate mode : VariableOverall bit rate : 8 962 Kbps
VideoID : 224 (0xE0)Format : MPEG VideoFormat version : Version 2Format profile : Main@MainFormat settings, BVOP : YesFormat settings, Matrix : CustomFormat settings, GOP : VariableFormat settings, picture structure : FrameDuration : 15mn 58sBit rate mode : VariableBit rate : 8 592 KbpsMaximum bit rate : 9 000 KbpsWidth : 720 pixelsHeight : 576 pixelsDisplay aspect ratio : 16:9Frame rate : 25.000 fpsStandard : PALColor space : YUVChroma subsampling : 4:2:0Bit depth : 8 bitsScan type : InterlacedScan order : Top Field FirstCompression mode : LossyBits/(Pixel*Frame) : 0.829Time code of first frame : 00:32:03:09Time code source : Group of pictures headerStream size : 982 MiB (96%)
AudioID : 192 (0xC0)Format : MPEG AudioFormat version : Version 1Format profile : Layer 2Duration : 15mn 58sBit rate mode : ConstantBit rate : 192 KbpsChannel(s) : 2 channelsSampling rate : 48.0 KHzCompression mode : LossyDelay relative to video : -224msStream size : 21.9 MiB (2%)
Menu
GeneralComplete name : M:\Musical video\DVD\Леонид Агутин - Юбилейный концерт в Crocus City Hall\VIDEO_TS\VTS_01_4.VOBFormat : MPEG-PSFile size : 1 024 MiBDuration : 16mn 35sOverall bit rate mode : VariableOverall bit rate : 8 632 Kbps
VideoID : 224 (0xE0)Format : MPEG VideoFormat version : Version 2Format profile : Main@MainFormat settings, BVOP : YesFormat settings, Matrix : CustomFormat settings, GOP : M=3, N=15Format settings, picture structure : FrameDuration : 16mn 34sBit rate mode : VariableBit rate : 8 268 KbpsMaximum bit rate : 9 000 KbpsWidth : 720 pixelsHeight : 576 pixelsDisplay aspect ratio : 16:9Frame rate : 25.000 fpsStandard : PALColor space : YUVChroma subsampling : 4:2:0Bit depth : 8 bitsScan type : InterlacedScan order : Top Field FirstCompression mode : LossyBits/(Pixel*Frame) : 0.797Time code of first frame : 00:48:02:07Time code source : Group of pictures headerStream size : 980 MiB (96%)
AudioID : 192 (0xC0)Format : MPEG AudioFormat version : Version 1Format profile : Layer 2Duration : 16mn 35sBit rate mode : ConstantBit rate : 192 KbpsChannel(s) : 2 channelsSampling rate : 48.0 KHzCompression mode : LossyDelay relative to video : -576msStream size : 22.8 MiB (2%)
Menu
GeneralComplete name : M:\Musical video\DVD\Леонид Агутин - Юбилейный концерт в Crocus City Hall\VIDEO_TS\VTS_01_5.VOBFormat : MPEG-PSFile size : 1 024 MiBDuration : 16mn 25sOverall bit rate mode : VariableOverall bit rate : 8 714 Kbps
VideoID : 224 (0xE0)Format : MPEG VideoFormat version : Version 2Format profile : Main@MainFormat settings, BVOP : YesFormat settings, Matrix : CustomFormat settings, GOP : VariableFormat settings, picture structure : FrameDuration : 16mn 25sBit rate mode : VariableBit rate : 8 349 KbpsMaximum bit rate : 9 000 KbpsWidth : 720 pixelsHeight : 576 pixelsDisplay aspect ratio : 16:9Frame rate : 25.000 fpsStandard : PALColor space : YUVChroma subsampling : 4:2:0Bit depth : 8 bitsScan type : InterlacedScan order : Top Field FirstCompression mode : LossyBits/(Pixel*Frame) : 0.805Time code of first frame : 01:04:37:04Time code source : Group of pictures headerStream size : 981 MiB (96%)
AudioID : 192 (0xC0)Format : MPEG AudioFormat version : Version 1Format profile : Layer 2Duration : 16mn 25sBit rate mode : ConstantBit rate : 192 KbpsChannel(s) : 2 channelsSampling rate : 48.0 KHzCompression mode : LossyDelay relative to video : -352msStream size : 22.6 MiB (2%)
Menu
GeneralComplete name : M:\Musical video\DVD\Леонид Агутин - Юбилейный концерт в Crocus City Hall\VIDEO_TS\VTS_01_6.VOBFormat : MPEG-PSFile size : 816 MiBDuration : 12mn 57sOverall bit rate mode : VariableOverall bit rate : 8 805 Kbps
VideoID : 224 (0xE0)Format : MPEG VideoFormat version : Version 2Format profile : Main@MainFormat settings, BVOP : YesFormat settings, Matrix : CustomFormat settings, GOP : M=3, N=15Format settings, picture structure : FrameDuration : 12mn 56sBit rate mode : VariableBit rate : 8 437 KbpsMaximum bit rate : 9 000 KbpsWidth : 720 pixelsHeight : 576 pixelsDisplay aspect ratio : 16:9Frame rate : 25.000 fpsStandard : PALColor space : YUVChroma subsampling : 4:2:0Bit depth : 8 bitsScan type : InterlacedScan order : Top Field FirstCompression mode : LossyBits/(Pixel*Frame) : 0.814Time code of first frame : 01:21:03:04Time code source : Group of pictures headerGOP, Open/Closed : OpenStream size : 781 MiB (96%)GOP, Open/Closed of first frame : Closed
AudioID : 192 (0xC0)Format : MPEG AudioFormat version : Version 1Format profile : Layer 2Duration : 12mn 57sBit rate mode : ConstantBit rate : 192 KbpsChannel(s) : 2 channelsSampling rate : 48.0 KHzCompression mode : LossyDelay relative to video : -496msStream size : 17.8 MiB (2%)
Menu
GeneralComplete name : M:\Musical video\DVD\Леонид Агутин - Юбилейный концерт в Crocus City Hall\VIDEO_TS\VTS_02_0.BUPFormat : DVD VideoFormat profile : ProgramFile size : 14.0 KiBDuration : 7s 960msOverall bit rate mode : VariableOverall bit rate : 14.4 Kbps
VideoID : 224 (0xE0)Format : MPEG VideoFormat version : Version 2Duration : 7s 960msBit rate mode : VariableWidth : 720 pixelsHeight : 576 pixelsDisplay aspect ratio : 16:9Frame rate : 25.000 fpsStandard : PALCompression mode : Lossy
MenuDuration : 7s 960ms00:00:00.000 : Chapter 1
GeneralComplete name : M:\Musical video\DVD\Леонид Агутин - Юбилейный концерт в Crocus City Hall\VIDEO_TS\VTS_02_0.IFOFormat : DVD VideoFormat profile : ProgramFile size : 14.0 KiBDuration : 7s 960msOverall bit rate mode : VariableOverall bit rate : 14.4 Kbps
VideoID : 224 (0xE0)Format : MPEG VideoFormat version : Version 2Duration : 7s 960msBit rate mode : VariableWidth : 720 pixelsHeight : 576 pixelsDisplay aspect ratio : 16:9Frame rate : 25.000 fpsStandard : PALCompression mode : Lossy
MenuDuration : 7s 960ms00:00:00.000 : Chapter 1
GeneralComplete name : M:\Musical video\DVD\Леонид Агутин - Юбилейный концерт в Crocus City Hall\VIDEO_TS\VTS_02_1.VOBFormat : MPEG-PSFile size : 5.83 MiBDuration : 8s 0msOverall bit rate mode : VariableOverall bit rate : 6 115 KbpsWriting library : (dvd5: Dec 5 2013)
VideoID : 224 (0xE0)Format : MPEG VideoFormat version : Version 2Format profile : Main@MainFormat settings, BVOP : YesFormat settings, Matrix : CustomFormat settings, GOP : M=3, N=15Format settings, picture structure : FrameDuration : 8s 0msBit rate mode : VariableBit rate : 5 994 KbpsMaximum bit rate : 8 000 KbpsWidth : 720 pixelsHeight : 576 pixelsDisplay aspect ratio : 16:9Frame rate : 25.000 fpsStandard : PALColor space : YUVChroma subsampling : 4:2:0Bit depth : 8 bitsScan type : InterlacedScan order : Top Field FirstCompression mode : LossyBits/(Pixel*Frame) : 0.578Time code of first frame : 00:00:00:00Time code source : Group of pictures headerGOP, Open/Closed : OpenStream size : 5.72 MiB (98%)Writing library : (dvd5: Dec 5 2013)GOP, Open/Closed of first frame : Closed
Menu

Скриншоты меню

Скриншоты


Внимание! Торрент файл перезалит 14.06.2017. Исправлен рассинхрон звука во второй части концерта.


[islamvillage.com]_t_5283548.torrent
Торрент: Зарегистрирован ·  [ 2019-01-06 19:01 ] ·  c80a60edd1c3cbdfe5d5b11c48415b75c19654ae

31 KB

Статус: проверено
Скачан: 0 раз
Размер: 5.93 GB
Оценка: 
(Голосов: 0)
Сказали спасибо: 0  Спасибо
Похожие темы
[Профиль]    [ЛС]
Показать сообщения:    
Ответить на тему

Текущее время: Сегодня 16:25

Часовой пояс: GMT + 7



Вы не можете начинать темы
Вы не можете отвечать на сообщения
Вы не можете редактировать свои сообщения
Вы не можете удалять свои сообщения
Вы не можете голосовать в опросах
Вы не можете прикреплять файлы к сообщениям
Вы можете скачивать файлы


ENERZONA | Shokugeki no Soma 4 | Can't Feel My Face