La Quinta Estacion - Acustico (Bonus DVD) [2006, Pop / Rock Latin, DVD5]

Ответить на тему
Статистика раздачи [Обновить пиров]
Размер:  3.18 GB   |    Зарегистрирован:  13 дней   |    Скачан:  0 раз

Полного источника не было: Никогда

 
   
 
 
 
Автор Сообщение

islamvillage.com

Создавать темы 06-Янв-2019 19:13

[Цитировать]

La Quinta Estacion - Acustico (Bonus DVD)
Страна: Spain
Жанр: Pop / Rock Latin
Продолжительность: 00:41:11 + 00:31:00
Год выхода: 2006
Лейбл: Sony BMG Music Entertainment
Описание: El Acústico - первый концертный альбом испанской группы La Quinta Estacion, выпущенный 1 ноября 2005 года. Он содержит такие хиты, как «Perdición», «Daría», «El sol no regresa», «Algo más» y », Niña ", в акустических версиях, записанных вживую. Он был опубликован на двух CD + DVD-презентациях, которые содержат акустический концерт, эксклюзивные фотографии, биографию группы и видео «Солнце не возвращается», «Что-то еще», «Дария» и «Нинья». С этим альбомом они получили Platinum Disc в Мексике за более чем 100 000 проданных копий, а в Соединенных Штатах они получили Золотой рекорд (50 000 экземпляров)
Треклист:
01. Introducción
02. Daría
03. Esperaré Despierta
04. Rompe El Mar
05. Niña
06. Flores De Alquiler
07. Perdición
08. El Sol No Regresa
09. Algo Más
10. Créditos
Extras Videos:
11. El Sol No Regresa
12. Algo Más
13. Daría
14. Niña
Includes "Pictures Gallery", "Biography"
Разбивка на главы по трекам: есть
Качество : DVD5
Формат файла: DVD video
Видео кодек: MPEG2
Аудио кодек: AC3
Видео: PAL 4:3 (720x576) VBR
Аудио: Spanish (Dolby AC3, 2 ch) 192 kbps

DVDinfo

General
Complete name : C:\La Quinta Estacion_Acustico\VIDEO_TS\VIDEO_TS.BUP
Format : DVD Video
Format profile : Menu
File size : 20.0 KiB
Overall bit rate mode : Variable
FileExtension_Invalid : ifo
Video
ID : 224 (0xE0)
Format : MPEG Video
Format version : Version 2
Bit rate mode : Variable
Width : 720 pixels
Height : 576 pixels
Display aspect ratio : 4:3
Frame rate : 25.000 FPS
Standard : PAL
Compression mode : Lossy
Text
Format : RLE
Format/Info : Run-length encoding
Bit depth : 2 bits
General
Complete name : C:\La Quinta Estacion_Acustico\VIDEO_TS\VIDEO_TS.IFO
Format : DVD Video
Format profile : Menu
File size : 20.0 KiB
Overall bit rate mode : Variable
Video
ID : 224 (0xE0)
Format : MPEG Video
Format version : Version 2
Bit rate mode : Variable
Width : 720 pixels
Height : 576 pixels
Display aspect ratio : 4:3
Frame rate : 25.000 FPS
Standard : PAL
Compression mode : Lossy
Text
Format : RLE
Format/Info : Run-length encoding
Bit depth : 2 bits
General
Complete name : C:\La Quinta Estacion_Acustico\VIDEO_TS\VIDEO_TS.VOB
Format : MPEG-PS
File size : 154 KiB
Duration : 600 ms
Overall bit rate : 2 103 kb/s
Video
ID : 224 (0xE0)
Format : MPEG Video
Format version : Version 2
Format profile : Main@Main
Format settings : CustomMatrix / BVOP
Format settings, BVOP : Yes
Format settings, Matrix : Custom
Format settings, picture structure : Frame
Duration : 600 ms
Bit rate mode : Constant
Maximum bit rate : 2 000 kb/s
Width : 720 pixels
Height : 576 pixels
Display aspect ratio : 4:3
Frame rate : 25.000 FPS
Standard : PAL
Color space : YUV
Chroma subsampling : 4:2:0
Bit depth : 8 bits
Scan type : Interlaced
Scan order : Top Field First
Compression mode : Lossy
Time code of first frame : 00:00:00:00
Time code source : Group of pictures header
Text
ID : 189 (0xBD)-32 (0x20)
Format : RLE
Format/Info : Run-length encoding
Muxing mode : DVD-Video
Menu
General
Complete name : C:\La Quinta Estacion_Acustico\VIDEO_TS\VTS_01_0.BUP
Format : DVD Video
Format profile : Program
File size : 52.0 KiB
Duration : 41 min 11 s
Overall bit rate mode : Variable
Overall bit rate : 172 b/s
FileExtension_Invalid : ifo
Video
ID : 224 (0xE0)
Format : MPEG Video
Format version : Version 2
Duration : 41 min 11 s
Bit rate mode : Variable
Width : 720 pixels
Height : 576 pixels
Display aspect ratio : 4:3
Frame rate : 25.000 FPS
Standard : PAL
Compression mode : Lossy
Audio
ID : 128 (0x80)
Format : AC-3
Format/Info : Audio Coding 3
Duration : 41 min 11 s
Channel(s) : 2 channels
Sampling rate : 48.0 kHz
Compression mode : Lossy
Language : Spanish
Menu #1
Duration : 41 min 11 s
00:00:00.000 : Chapter 1
00:02:32.160 : Chapter 2
00:06:36.960 : Chapter 3
00:10:44.640 : Chapter 4
00:14:24.480 : Chapter 5
00:18:50.800 : Chapter 6
00:22:54.200 : Chapter 7
00:27:11.000 : Chapter 8
00:31:57.560 : Chapter 9
00:39:27.800 : Chapter 10
List (Audio) : 0
Menu #2
Duration : 41 min 11 s
00:00:00.000 : Chapter 1
00:02:32.160 : Chapter 2
00:06:36.960 : Chapter 3
00:10:44.640 : Chapter 4
00:14:24.480 : Chapter 5
00:18:50.800 : Chapter 6
00:22:54.200 : Chapter 7
00:27:11.000 : Chapter 8
00:31:57.560 : Chapter 9
00:39:27.800 : Chapter 10
List (Audio) : 0
General
Complete name : C:\La Quinta Estacion_Acustico\VIDEO_TS\VTS_01_0.IFO
Format : DVD Video
Format profile : Program
File size : 52.0 KiB
Duration : 41 min 11 s
Overall bit rate mode : Variable
Overall bit rate : 172 b/s
Video
ID : 224 (0xE0)
Format : MPEG Video
Format version : Version 2
Duration : 41 min 11 s
Bit rate mode : Variable
Width : 720 pixels
Height : 576 pixels
Display aspect ratio : 4:3
Frame rate : 25.000 FPS
Standard : PAL
Compression mode : Lossy
Audio
ID : 128 (0x80)
Format : AC-3
Format/Info : Audio Coding 3
Duration : 41 min 11 s
Channel(s) : 2 channels
Sampling rate : 48.0 kHz
Compression mode : Lossy
Language : Spanish
Menu #1
Duration : 41 min 11 s
00:00:00.000 : Chapter 1
00:02:32.160 : Chapter 2
00:06:36.960 : Chapter 3
00:10:44.640 : Chapter 4
00:14:24.480 : Chapter 5
00:18:50.800 : Chapter 6
00:22:54.200 : Chapter 7
00:27:11.000 : Chapter 8
00:31:57.560 : Chapter 9
00:39:27.800 : Chapter 10
List (Audio) : 0
Menu #2
Duration : 41 min 11 s
00:00:00.000 : Chapter 1
00:02:32.160 : Chapter 2
00:06:36.960 : Chapter 3
00:10:44.640 : Chapter 4
00:14:24.480 : Chapter 5
00:18:50.800 : Chapter 6
00:22:54.200 : Chapter 7
00:27:11.000 : Chapter 8
00:31:57.560 : Chapter 9
00:39:27.800 : Chapter 10
List (Audio) : 0
General
Complete name : C:\La Quinta Estacion_Acustico\VIDEO_TS\VTS_01_0.VOB
Format : MPEG-PS
File size : 127 MiB
Duration : 45 s 996 ms
Overall bit rate mode : Variable
Overall bit rate : 23.1 Mb/s
Video
ID : 224 (0xE0)
Format : MPEG Video
Format version : Version 2
Format profile : Main@Main
Format settings : CustomMatrix / BVOP
Format settings, BVOP : Yes
Format settings, Matrix : Custom
Format settings, GOP : Variable
Format settings, picture structure : Frame
Duration : 2 s 40 ms
Bit rate mode : Variable
Bit rate : 21.1 Mb/s
Maximum bit rate : 6 700 kb/s
Width : 720 pixels
Height : 576 pixels
Display aspect ratio : 4:3
Frame rate : 25.000 FPS
Standard : PAL
Color space : YUV
Chroma subsampling : 4:2:0
Bit depth : 8 bits
Scan type : Interlaced
Scan order : Bottom Field First
Compression mode : Lossy
Bits/(Pixel*Frame) : 2.037
Time code of first frame : 00:00:00:00
Time code source : Group of pictures header
GOP, Open/Closed : Closed
Stream size : 5.13 MiB (4%)
Color primaries : BT.601 PAL
Transfer characteristics : BT.470 System B/G
Matrix coefficients : BT.601
Audio
ID : 189 (0xBD)-160 (0xA0)
Format : PCM
Format settings : Big / Signed
Muxing mode : DVD-Video
Duration : 45 s 996 ms
Bit rate mode : Constant
Bit rate : 1 536 kb/s
Channel(s) : 2 channels
Sampling rate : 48.0 kHz
Bit depth : 16 bits
Stream size : 8.42 MiB (7%)
Menu
General
Complete name : C:\La Quinta Estacion_Acustico\VIDEO_TS\VTS_01_1.VOB
Format : MPEG-PS
File size : 1 024 MiB
Duration : 23 min 37 s
Overall bit rate mode : Variable
Overall bit rate : 6 059 kb/s
Video
ID : 224 (0xE0)
Format : MPEG Video
Format version : Version 2
Format profile : Main@Main
Format settings : CustomMatrix / BVOP
Format settings, BVOP : Yes
Format settings, Matrix : Custom
Format settings, GOP : M=3, N=12
Format settings, picture structure : Frame
Duration : 23 min 37 s
Bit rate mode : Variable
Bit rate : 5 747 kb/s
Maximum bit rate : 6 700 kb/s
Width : 720 pixels
Height : 576 pixels
Display aspect ratio : 4:3
Frame rate : 25.000 FPS
Standard : PAL
Color space : YUV
Chroma subsampling : 4:2:0
Bit depth : 8 bits
Scan type : Interlaced
Scan order : Bottom Field First
Compression mode : Lossy
Bits/(Pixel*Frame) : 0.554
Time code of first frame : 00:00:02:22
Time code source : Group of pictures header
GOP, Open/Closed : Closed
Stream size : 971 MiB (95%)
Color primaries : BT.601 PAL
Transfer characteristics : BT.470 System B/G
Matrix coefficients : BT.601
Audio
ID : 189 (0xBD)-128 (0x80)
Format : AC-3
Format/Info : Audio Coding 3
Commercial name : Dolby Digital
Muxing mode : DVD-Video
Duration : 23 min 37 s
Bit rate mode : Constant
Bit rate : 192 kb/s
Channel(s) : 2 channels
Channel layout : L R
Sampling rate : 48.0 kHz
Frame rate : 31.250 FPS (1536 SPF)
Bit depth : 16 bits
Compression mode : Lossy
Stream size : 32.4 MiB (3%)
Service kind : Complete Main
Menu
General
Complete name : C:\La Quinta Estacion_Acustico\VIDEO_TS\VTS_01_2.VOB
Format : MPEG-PS
File size : 757 MiB
Duration : 17 min 34 s
Overall bit rate mode : Variable
Overall bit rate : 6 026 kb/s
Video
ID : 224 (0xE0)
Format : MPEG Video
Format version : Version 2
Format profile : Main@Main
Format settings : CustomMatrix / BVOP
Format settings, BVOP : Yes
Format settings, Matrix : Custom
Format settings, GOP : M=3, N=12
Format settings, picture structure : Frame
Duration : 17 min 33 s
Bit rate mode : Variable
Bit rate : 5 714 kb/s
Maximum bit rate : 6 700 kb/s
Width : 720 pixels
Height : 576 pixels
Display aspect ratio : 4:3
Frame rate : 25.000 FPS
Standard : PAL
Color space : YUV
Chroma subsampling : 4:2:0
Bit depth : 8 bits
Scan type : Interlaced
Scan order : Bottom Field First
Compression mode : Lossy
Bits/(Pixel*Frame) : 0.551
Time code of first frame : 00:23:40:07
Time code source : Group of pictures header
GOP, Open/Closed : Closed
Stream size : 718 MiB (95%)
Color primaries : BT.601 PAL
Transfer characteristics : BT.470 System B/G
Matrix coefficients : BT.601
Audio
ID : 189 (0xBD)-128 (0x80)
Format : AC-3
Format/Info : Audio Coding 3
Commercial name : Dolby Digital
Muxing mode : DVD-Video
Duration : 17 min 34 s
Bit rate mode : Constant
Bit rate : 192 kb/s
Channel(s) : 2 channels
Channel layout : L R
Sampling rate : 48.0 kHz
Frame rate : 31.250 FPS (1536 SPF)
Bit depth : 16 bits
Compression mode : Lossy
Delay relative to video : -312 ms
Stream size : 24.1 MiB (3%)
Service kind : Complete Main
Menu
General
Complete name : C:\La Quinta Estacion_Acustico\VIDEO_TS\VTS_02_0.BUP
Format : DVD Video
Format profile : Program
File size : 18.0 KiB
Duration : 3 min 29 s
Overall bit rate mode : Variable
Overall bit rate : 703 b/s
FileExtension_Invalid : ifo
Video
ID : 224 (0xE0)
Format : MPEG Video
Format version : Version 2
Duration : 3 min 29 s
Bit rate mode : Variable
Width : 720 pixels
Height : 576 pixels
Display aspect ratio : 4:3
Frame rate : 25.000 FPS
Standard : PAL
Compression mode : Lossy
Audio
ID : 128 (0x80)
Format : AC-3
Format/Info : Audio Coding 3
Duration : 3 min 29 s
Channel(s) : 2 channels
Sampling rate : 48.0 kHz
Compression mode : Lossy
Language : Spanish
Menu
Duration : 3 min 29 s
00:00:00.000 : Chapter 1
List (Audio) : 0
General
Complete name : C:\La Quinta Estacion_Acustico\VIDEO_TS\VTS_02_0.IFO
Format : DVD Video
Format profile : Program
File size : 18.0 KiB
Duration : 3 min 29 s
Overall bit rate mode : Variable
Overall bit rate : 703 b/s
Video
ID : 224 (0xE0)
Format : MPEG Video
Format version : Version 2
Duration : 3 min 29 s
Bit rate mode : Variable
Width : 720 pixels
Height : 576 pixels
Display aspect ratio : 4:3
Frame rate : 25.000 FPS
Standard : PAL
Compression mode : Lossy
Audio
ID : 128 (0x80)
Format : AC-3
Format/Info : Audio Coding 3
Duration : 3 min 29 s
Channel(s) : 2 channels
Sampling rate : 48.0 kHz
Compression mode : Lossy
Language : Spanish
Menu
Duration : 3 min 29 s
00:00:00.000 : Chapter 1
List (Audio) : 0
General
Complete name : C:\La Quinta Estacion_Acustico\VIDEO_TS\VTS_02_0.VOB
Format : MPEG-PS
File size : 154 KiB
Duration : 600 ms
Overall bit rate : 2 103 kb/s
Video
ID : 224 (0xE0)
Format : MPEG Video
Format version : Version 2
Format profile : Main@Main
Format settings : CustomMatrix / BVOP
Format settings, BVOP : Yes
Format settings, Matrix : Custom
Format settings, picture structure : Frame
Duration : 600 ms
Bit rate mode : Constant
Maximum bit rate : 2 000 kb/s
Width : 720 pixels
Height : 576 pixels
Display aspect ratio : 4:3
Frame rate : 25.000 FPS
Standard : PAL
Color space : YUV
Chroma subsampling : 4:2:0
Bit depth : 8 bits
Scan type : Interlaced
Scan order : Top Field First
Compression mode : Lossy
Time code of first frame : 00:00:00:00
Time code source : Group of pictures header
Text
ID : 189 (0xBD)-32 (0x20)
Format : RLE
Format/Info : Run-length encoding
Muxing mode : DVD-Video
Menu
General
Complete name : C:\La Quinta Estacion_Acustico\VIDEO_TS\VTS_02_1.VOB
Format : MPEG-PS
File size : 150 MiB
Duration : 3 min 29 s
Overall bit rate mode : Variable
Overall bit rate : 5 995 kb/s
Video
ID : 224 (0xE0)
Format : MPEG Video
Format version : Version 2
Format profile : Main@Main
Format settings : CustomMatrix / BVOP
Format settings, BVOP : Yes
Format settings, Matrix : Custom
Format settings, GOP : M=3, N=12
Format settings, picture structure : Frame
Duration : 3 min 29 s
Bit rate mode : Variable
Bit rate : 5 684 kb/s
Maximum bit rate : 7 000 kb/s
Width : 720 pixels
Height : 576 pixels
Display aspect ratio : 4:3
Frame rate : 25.000 FPS
Standard : PAL
Color space : YUV
Chroma subsampling : 4:2:0
Bit depth : 8 bits
Scan type : Interlaced
Scan order : Bottom Field First
Compression mode : Lossy
Bits/(Pixel*Frame) : 0.548
Time code of first frame : 00:00:00:00
Time code source : Group of pictures header
GOP, Open/Closed : Closed
Stream size : 142 MiB (95%)
Color primaries : BT.601 PAL
Transfer characteristics : BT.470 System B/G
Matrix coefficients : BT.601
Audio
ID : 189 (0xBD)-128 (0x80)
Format : AC-3
Format/Info : Audio Coding 3
Commercial name : Dolby Digital
Muxing mode : DVD-Video
Duration : 3 min 29 s
Bit rate mode : Constant
Bit rate : 192 kb/s
Channel(s) : 2 channels
Channel layout : L R
Sampling rate : 48.0 kHz
Frame rate : 31.250 FPS (1536 SPF)
Bit depth : 16 bits
Compression mode : Lossy
Stream size : 4.80 MiB (3%)
Service kind : Complete Main
Menu
General
Complete name : C:\La Quinta Estacion_Acustico\VIDEO_TS\VTS_03_0.BUP
Format : DVD Video
Format profile : Program
File size : 24.0 KiB
Duration : 11 min 12 s
Overall bit rate mode : Variable
Overall bit rate : 293 b/s
FileExtension_Invalid : ifo
Video
ID : 224 (0xE0)
Format : MPEG Video
Format version : Version 2
Duration : 11 min 12 s
Bit rate mode : Variable
Width : 720 pixels
Height : 576 pixels
Display aspect ratio : 4:3
Frame rate : 25.000 FPS
Standard : PAL
Compression mode : Lossy
Audio
ID : 128 (0x80)
Format : AC-3
Format/Info : Audio Coding 3
Duration : 11 min 12 s
Channel(s) : 2 channels
Sampling rate : 48.0 kHz
Compression mode : Lossy
Language : Spanish
Menu
Duration : 11 min 12 s
00:00:00.000 : Chapter 1
List (Audio) : 0
General
Complete name : C:\La Quinta Estacion_Acustico\VIDEO_TS\VTS_03_0.IFO
Format : DVD Video
Format profile : Program
File size : 24.0 KiB
Duration : 11 min 12 s
Overall bit rate mode : Variable
Overall bit rate : 293 b/s
Video
ID : 224 (0xE0)
Format : MPEG Video
Format version : Version 2
Duration : 11 min 12 s
Bit rate mode : Variable
Width : 720 pixels
Height : 576 pixels
Display aspect ratio : 4:3
Frame rate : 25.000 FPS
Standard : PAL
Compression mode : Lossy
Audio
ID : 128 (0x80)
Format : AC-3
Format/Info : Audio Coding 3
Duration : 11 min 12 s
Channel(s) : 2 channels
Sampling rate : 48.0 kHz
Compression mode : Lossy
Language : Spanish
Menu
Duration : 11 min 12 s
00:00:00.000 : Chapter 1
List (Audio) : 0
General
Complete name : C:\La Quinta Estacion_Acustico\VIDEO_TS\VTS_03_0.VOB
Format : MPEG-PS
File size : 154 KiB
Duration : 600 ms
Overall bit rate : 2 103 kb/s
Video
ID : 224 (0xE0)
Format : MPEG Video
Format version : Version 2
Format profile : Main@Main
Format settings : CustomMatrix / BVOP
Format settings, BVOP : Yes
Format settings, Matrix : Custom
Format settings, picture structure : Frame
Duration : 600 ms
Bit rate mode : Constant
Maximum bit rate : 2 000 kb/s
Width : 720 pixels
Height : 576 pixels
Display aspect ratio : 4:3
Frame rate : 25.000 FPS
Standard : PAL
Color space : YUV
Chroma subsampling : 4:2:0
Bit depth : 8 bits
Scan type : Interlaced
Scan order : Top Field First
Compression mode : Lossy
Time code of first frame : 00:00:00:00
Time code source : Group of pictures header
Text
ID : 189 (0xBD)-32 (0x20)
Format : RLE
Format/Info : Run-length encoding
Muxing mode : DVD-Video
Menu
General
Complete name : C:\La Quinta Estacion_Acustico\VIDEO_TS\VTS_03_1.VOB
Format : MPEG-PS
File size : 498 MiB
Duration : 11 min 12 s
Overall bit rate mode : Variable
Overall bit rate : 6 219 kb/s
Video
ID : 224 (0xE0)
Format : MPEG Video
Format version : Version 2
Format profile : Main@Main
Format settings : CustomMatrix / BVOP
Format settings, BVOP : Yes
Format settings, Matrix : Custom
Format settings, GOP : M=3, N=12
Format settings, picture structure : Frame
Duration : 11 min 12 s
Bit rate mode : Variable
Bit rate : 5 904 kb/s
Maximum bit rate : 7 000 kb/s
Width : 720 pixels
Height : 576 pixels
Display aspect ratio : 4:3
Frame rate : 25.000 FPS
Standard : PAL
Color space : YUV
Chroma subsampling : 4:2:0
Bit depth : 8 bits
Scan type : Interlaced
Scan order : Bottom Field First
Compression mode : Lossy
Bits/(Pixel*Frame) : 0.569
Time code of first frame : 00:00:00:00
Time code source : Group of pictures header
GOP, Open/Closed : Closed
Stream size : 473 MiB (95%)
Color primaries : BT.601 PAL
Transfer characteristics : BT.470 System B/G
Matrix coefficients : BT.601
Audio
ID : 189 (0xBD)-128 (0x80)
Format : AC-3
Format/Info : Audio Coding 3
Commercial name : Dolby Digital
Muxing mode : DVD-Video
Duration : 11 min 12 s
Bit rate mode : Constant
Bit rate : 192 kb/s
Channel(s) : 2 channels
Channel layout : L R
Sampling rate : 48.0 kHz
Frame rate : 31.250 FPS (1536 SPF)
Bit depth : 16 bits
Compression mode : Lossy
Stream size : 15.4 MiB (3%)
Service kind : Complete Main
Menu
General
Complete name : C:\La Quinta Estacion_Acustico\VIDEO_TS\VTS_04_0.BUP
Format : DVD Video
Format profile : Program
File size : 18.0 KiB
Duration : 3 min 46 s
Overall bit rate mode : Variable
Overall bit rate : 652 b/s
FileExtension_Invalid : ifo
Video
ID : 224 (0xE0)
Format : MPEG Video
Format version : Version 2
Duration : 3 min 46 s
Bit rate mode : Variable
Width : 720 pixels
Height : 576 pixels
Display aspect ratio : 4:3
Frame rate : 25.000 FPS
Standard : PAL
Compression mode : Lossy
Audio
ID : 128 (0x80)
Format : AC-3
Format/Info : Audio Coding 3
Duration : 3 min 46 s
Channel(s) : 2 channels
Sampling rate : 48.0 kHz
Compression mode : Lossy
Language : Spanish
Menu
Duration : 3 min 46 s
00:00:00.000 : Chapter 1
List (Audio) : 0
General
Complete name : C:\La Quinta Estacion_Acustico\VIDEO_TS\VTS_04_0.IFO
Format : DVD Video
Format profile : Program
File size : 18.0 KiB
Duration : 3 min 46 s
Overall bit rate mode : Variable
Overall bit rate : 652 b/s
Video
ID : 224 (0xE0)
Format : MPEG Video
Format version : Version 2
Duration : 3 min 46 s
Bit rate mode : Variable
Width : 720 pixels
Height : 576 pixels
Display aspect ratio : 4:3
Frame rate : 25.000 FPS
Standard : PAL
Compression mode : Lossy
Audio
ID : 128 (0x80)
Format : AC-3
Format/Info : Audio Coding 3
Duration : 3 min 46 s
Channel(s) : 2 channels
Sampling rate : 48.0 kHz
Compression mode : Lossy
Language : Spanish
Menu
Duration : 3 min 46 s
00:00:00.000 : Chapter 1
List (Audio) : 0
General
Complete name : C:\La Quinta Estacion_Acustico\VIDEO_TS\VTS_04_0.VOB
Format : MPEG-PS
File size : 154 KiB
Duration : 600 ms
Overall bit rate : 2 103 kb/s
Video
ID : 224 (0xE0)
Format : MPEG Video
Format version : Version 2
Format profile : Main@Main
Format settings : CustomMatrix / BVOP
Format settings, BVOP : Yes
Format settings, Matrix : Custom
Format settings, picture structure : Frame
Duration : 600 ms
Bit rate mode : Constant
Maximum bit rate : 2 000 kb/s
Width : 720 pixels
Height : 576 pixels
Display aspect ratio : 4:3
Frame rate : 25.000 FPS
Standard : PAL
Color space : YUV
Chroma subsampling : 4:2:0
Bit depth : 8 bits
Scan type : Interlaced
Scan order : Top Field First
Compression mode : Lossy
Time code of first frame : 00:00:00:00
Time code source : Group of pictures header
Text
ID : 189 (0xBD)-32 (0x20)
Format : RLE
Format/Info : Run-length encoding
Muxing mode : DVD-Video
Menu
General
Complete name : C:\La Quinta Estacion_Acustico\VIDEO_TS\VTS_04_1.VOB
Format : MPEG-PS
File size : 162 MiB
Duration : 3 min 46 s
Overall bit rate mode : Variable
Overall bit rate : 6 018 kb/s
Video
ID : 224 (0xE0)
Format : MPEG Video
Format version : Version 2
Format profile : Main@Main
Format settings : CustomMatrix / BVOP
Format settings, BVOP : Yes
Format settings, Matrix : Custom
Format settings, GOP : M=3, N=12
Format settings, picture structure : Frame
Duration : 3 min 46 s
Bit rate mode : Variable
Bit rate : 5 706 kb/s
Maximum bit rate : 7 000 kb/s
Width : 720 pixels
Height : 576 pixels
Display aspect ratio : 4:3
Frame rate : 25.000 FPS
Standard : PAL
Color space : YUV
Chroma subsampling : 4:2:0
Bit depth : 8 bits
Scan type : Interlaced
Scan order : Bottom Field First
Compression mode : Lossy
Bits/(Pixel*Frame) : 0.550
Time code of first frame : 00:00:00:00
Time code source : Group of pictures header
GOP, Open/Closed : Closed
Stream size : 154 MiB (95%)
Color primaries : BT.601 PAL
Transfer characteristics : BT.470 System B/G
Matrix coefficients : BT.601
Audio
ID : 189 (0xBD)-128 (0x80)
Format : AC-3
Format/Info : Audio Coding 3
Commercial name : Dolby Digital
Muxing mode : DVD-Video
Duration : 3 min 46 s
Bit rate mode : Constant
Bit rate : 192 kb/s
Channel(s) : 2 channels
Channel layout : L R
Sampling rate : 48.0 kHz
Frame rate : 31.250 FPS (1536 SPF)
Bit depth : 16 bits
Compression mode : Lossy
Stream size : 5.17 MiB (3%)
Service kind : Complete Main
Menu
General
Complete name : C:\La Quinta Estacion_Acustico\VIDEO_TS\VTS_05_0.BUP
Format : DVD Video
Format profile : Program
File size : 20.0 KiB
Duration : 4 min 23 s
Overall bit rate mode : Variable
Overall bit rate : 622 b/s
FileExtension_Invalid : ifo
Video
ID : 224 (0xE0)
Format : MPEG Video
Format version : Version 2
Duration : 4 min 23 s
Bit rate mode : Variable
Width : 720 pixels
Height : 576 pixels
Display aspect ratio : 4:3
Frame rate : 25.000 FPS
Standard : PAL
Compression mode : Lossy
Audio
ID : 128 (0x80)
Format : AC-3
Format/Info : Audio Coding 3
Duration : 4 min 23 s
Channel(s) : 2 channels
Sampling rate : 48.0 kHz
Compression mode : Lossy
Language : Spanish
Menu
Duration : 4 min 23 s
00:00:00.000 : Chapter 1
List (Audio) : 0
General
Complete name : C:\La Quinta Estacion_Acustico\VIDEO_TS\VTS_05_0.IFO
Format : DVD Video
Format profile : Program
File size : 20.0 KiB
Duration : 4 min 23 s
Overall bit rate mode : Variable
Overall bit rate : 622 b/s
Video
ID : 224 (0xE0)
Format : MPEG Video
Format version : Version 2
Duration : 4 min 23 s
Bit rate mode : Variable
Width : 720 pixels
Height : 576 pixels
Display aspect ratio : 4:3
Frame rate : 25.000 FPS
Standard : PAL
Compression mode : Lossy
Audio
ID : 128 (0x80)
Format : AC-3
Format/Info : Audio Coding 3
Duration : 4 min 23 s
Channel(s) : 2 channels
Sampling rate : 48.0 kHz
Compression mode : Lossy
Language : Spanish
Menu
Duration : 4 min 23 s
00:00:00.000 : Chapter 1
List (Audio) : 0
General
Complete name : C:\La Quinta Estacion_Acustico\VIDEO_TS\VTS_05_0.VOB
Format : MPEG-PS
File size : 154 KiB
Duration : 600 ms
Overall bit rate : 2 103 kb/s
Video
ID : 224 (0xE0)
Format : MPEG Video
Format version : Version 2
Format profile : Main@Main
Format settings : CustomMatrix / BVOP
Format settings, BVOP : Yes
Format settings, Matrix : Custom
Format settings, picture structure : Frame
Duration : 600 ms
Bit rate mode : Constant
Maximum bit rate : 2 000 kb/s
Width : 720 pixels
Height : 576 pixels
Display aspect ratio : 4:3
Frame rate : 25.000 FPS
Standard : PAL
Color space : YUV
Chroma subsampling : 4:2:0
Bit depth : 8 bits
Scan type : Interlaced
Scan order : Top Field First
Compression mode : Lossy
Time code of first frame : 00:00:00:00
Time code source : Group of pictures header
Text
ID : 189 (0xBD)-32 (0x20)
Format : RLE
Format/Info : Run-length encoding
Muxing mode : DVD-Video
Menu
General
Complete name : C:\La Quinta Estacion_Acustico\VIDEO_TS\VTS_05_1.VOB
Format : MPEG-PS
File size : 188 MiB
Duration : 4 min 23 s
Overall bit rate mode : Variable
Overall bit rate : 5 992 kb/s
Video
ID : 224 (0xE0)
Format : MPEG Video
Format version : Version 2
Format profile : Main@Main
Format settings : CustomMatrix / BVOP
Format settings, BVOP : Yes
Format settings, Matrix : Custom
Format settings, GOP : M=3, N=12
Format settings, picture structure : Frame
Duration : 4 min 23 s
Bit rate mode : Variable
Bit rate : 5 681 kb/s
Maximum bit rate : 7 000 kb/s
Width : 720 pixels
Height : 576 pixels
Display aspect ratio : 4:3
Frame rate : 25.000 FPS
Standard : PAL
Color space : YUV
Chroma subsampling : 4:2:0
Bit depth : 8 bits
Scan type : Interlaced
Scan order : Bottom Field First
Compression mode : Lossy
Bits/(Pixel*Frame) : 0.548
Time code of first frame : 00:00:00:00
Time code source : Group of pictures header
GOP, Open/Closed : Closed
Stream size : 178 MiB (95%)
Color primaries : BT.601 PAL
Transfer characteristics : BT.470 System B/G
Matrix coefficients : BT.601
Audio
ID : 189 (0xBD)-128 (0x80)
Format : AC-3
Format/Info : Audio Coding 3
Commercial name : Dolby Digital
Muxing mode : DVD-Video
Duration : 4 min 23 s
Bit rate mode : Constant
Bit rate : 192 kb/s
Channel(s) : 2 channels
Channel layout : L R
Sampling rate : 48.0 kHz
Frame rate : 31.250 FPS (1536 SPF)
Bit depth : 16 bits
Compression mode : Lossy
Stream size : 6.03 MiB (3%)
Service kind : Complete Main
Menu
General
Complete name : C:\La Quinta Estacion_Acustico\VIDEO_TS\VTS_06_0.BUP
Format : DVD Video
Format profile : Program
File size : 18.0 KiB
Duration : 3 min 44 s
Overall bit rate mode : Variable
Overall bit rate : 658 b/s
FileExtension_Invalid : ifo
Video
ID : 224 (0xE0)
Format : MPEG Video
Format version : Version 2
Duration : 3 min 44 s
Bit rate mode : Variable
Width : 720 pixels
Height : 576 pixels
Display aspect ratio : 4:3
Frame rate : 25.000 FPS
Standard : PAL
Compression mode : Lossy
Audio
ID : 128 (0x80)
Format : AC-3
Format/Info : Audio Coding 3
Duration : 3 min 44 s
Channel(s) : 2 channels
Sampling rate : 48.0 kHz
Compression mode : Lossy
Language : Spanish
Menu
Duration : 3 min 44 s
00:00:00.000 : Chapter 1
List (Audio) : 0
General
Complete name : C:\La Quinta Estacion_Acustico\VIDEO_TS\VTS_06_0.IFO
Format : DVD Video
Format profile : Program
File size : 18.0 KiB
Duration : 3 min 44 s
Overall bit rate mode : Variable
Overall bit rate : 658 b/s
Video
ID : 224 (0xE0)
Format : MPEG Video
Format version : Version 2
Duration : 3 min 44 s
Bit rate mode : Variable
Width : 720 pixels
Height : 576 pixels
Display aspect ratio : 4:3
Frame rate : 25.000 FPS
Standard : PAL
Compression mode : Lossy
Audio
ID : 128 (0x80)
Format : AC-3
Format/Info : Audio Coding 3
Duration : 3 min 44 s
Channel(s) : 2 channels
Sampling rate : 48.0 kHz
Compression mode : Lossy
Language : Spanish
Menu
Duration : 3 min 44 s
00:00:00.000 : Chapter 1
List (Audio) : 0
General
Complete name : C:\La Quinta Estacion_Acustico\VIDEO_TS\VTS_06_0.VOB
Format : MPEG-PS
File size : 154 KiB
Duration : 600 ms
Overall bit rate : 2 103 kb/s
Video
ID : 224 (0xE0)
Format : MPEG Video
Format version : Version 2
Format profile : Main@Main
Format settings : CustomMatrix / BVOP
Format settings, BVOP : Yes
Format settings, Matrix : Custom
Format settings, picture structure : Frame
Duration : 600 ms
Bit rate mode : Constant
Maximum bit rate : 2 000 kb/s
Width : 720 pixels
Height : 576 pixels
Display aspect ratio : 4:3
Frame rate : 25.000 FPS
Standard : PAL
Color space : YUV
Chroma subsampling : 4:2:0
Bit depth : 8 bits
Scan type : Interlaced
Scan order : Top Field First
Compression mode : Lossy
Time code of first frame : 00:00:00:00
Time code source : Group of pictures header
Text
ID : 189 (0xBD)-32 (0x20)
Format : RLE
Format/Info : Run-length encoding
Muxing mode : DVD-Video
Menu
General
Complete name : C:\La Quinta Estacion_Acustico\VIDEO_TS\VTS_06_1.VOB
Format : MPEG-PS
File size : 162 MiB
Duration : 3 min 44 s
Overall bit rate mode : Variable
Overall bit rate : 6 059 kb/s
Video
ID : 224 (0xE0)
Format : MPEG Video
Format version : Version 2
Format profile : Main@Main
Format settings : CustomMatrix / BVOP
Format settings, BVOP : Yes
Format settings, Matrix : Custom
Format settings, GOP : M=3, N=12
Format settings, picture structure : Frame
Duration : 3 min 44 s
Bit rate mode : Variable
Bit rate : 5 746 kb/s
Maximum bit rate : 7 000 kb/s
Width : 720 pixels
Height : 576 pixels
Display aspect ratio : 4:3
Frame rate : 25.000 FPS
Standard : PAL
Color space : YUV
Chroma subsampling : 4:2:0
Bit depth : 8 bits
Scan type : Interlaced
Scan order : Bottom Field First
Compression mode : Lossy
Bits/(Pixel*Frame) : 0.554
Time code of first frame : 00:00:00:00
Time code source : Group of pictures header
GOP, Open/Closed : Closed
Stream size : 154 MiB (95%)
Color primaries : BT.601 PAL
Transfer characteristics : BT.470 System B/G
Matrix coefficients : BT.601
Audio
ID : 189 (0xBD)-128 (0x80)
Format : AC-3
Format/Info : Audio Coding 3
Commercial name : Dolby Digital
Muxing mode : DVD-Video
Duration : 3 min 44 s
Bit rate mode : Constant
Bit rate : 192 kb/s
Channel(s) : 2 channels
Channel layout : L R
Sampling rate : 48.0 kHz
Frame rate : 31.250 FPS (1536 SPF)
Bit depth : 16 bits
Compression mode : Lossy
Stream size : 5.13 MiB (3%)
Service kind : Complete Main
Menu
General
Complete name : C:\La Quinta Estacion_Acustico\VIDEO_TS\VTS_07_0.BUP
Format : DVD Video
Format profile : Program
File size : 18.0 KiB
Duration : 3 min 58 s
Overall bit rate mode : Variable
Overall bit rate : 617 b/s
FileExtension_Invalid : ifo
Video
ID : 224 (0xE0)
Format : MPEG Video
Format version : Version 2
Duration : 3 min 58 s
Bit rate mode : Variable
Width : 720 pixels
Height : 576 pixels
Display aspect ratio : 4:3
Frame rate : 25.000 FPS
Standard : PAL
Compression mode : Lossy
Audio
ID : 128 (0x80)
Format : AC-3
Format/Info : Audio Coding 3
Duration : 3 min 58 s
Channel(s) : 2 channels
Sampling rate : 48.0 kHz
Compression mode : Lossy
Language : Spanish
Menu
Duration : 3 min 58 s
00:00:00.000 : Chapter 1
List (Audio) : 0
General
Complete name : C:\La Quinta Estacion_Acustico\VIDEO_TS\VTS_07_0.IFO
Format : DVD Video
Format profile : Program
File size : 18.0 KiB
Duration : 3 min 58 s
Overall bit rate mode : Variable
Overall bit rate : 617 b/s
Video
ID : 224 (0xE0)
Format : MPEG Video
Format version : Version 2
Duration : 3 min 58 s
Bit rate mode : Variable
Width : 720 pixels
Height : 576 pixels
Display aspect ratio : 4:3
Frame rate : 25.000 FPS
Standard : PAL
Compression mode : Lossy
Audio
ID : 128 (0x80)
Format : AC-3
Format/Info : Audio Coding 3
Duration : 3 min 58 s
Channel(s) : 2 channels
Sampling rate : 48.0 kHz
Compression mode : Lossy
Language : Spanish
Menu
Duration : 3 min 58 s
00:00:00.000 : Chapter 1
List (Audio) : 0
General
Complete name : C:\La Quinta Estacion_Acustico\VIDEO_TS\VTS_07_0.VOB
Format : MPEG-PS
File size : 154 KiB
Duration : 600 ms
Overall bit rate : 2 103 kb/s
Video
ID : 224 (0xE0)
Format : MPEG Video
Format version : Version 2
Format profile : Main@Main
Format settings : CustomMatrix / BVOP
Format settings, BVOP : Yes
Format settings, Matrix : Custom
Format settings, picture structure : Frame
Duration : 600 ms
Bit rate mode : Constant
Maximum bit rate : 2 000 kb/s
Width : 720 pixels
Height : 576 pixels
Display aspect ratio : 4:3
Frame rate : 25.000 FPS
Standard : PAL
Color space : YUV
Chroma subsampling : 4:2:0
Bit depth : 8 bits
Scan type : Interlaced
Scan order : Top Field First
Compression mode : Lossy
Time code of first frame : 00:00:00:00
Time code source : Group of pictures header
Text
ID : 189 (0xBD)-32 (0x20)
Format : RLE
Format/Info : Run-length encoding
Muxing mode : DVD-Video
Menu
General
Complete name : C:\La Quinta Estacion_Acustico\VIDEO_TS\VTS_07_1.VOB
Format : MPEG-PS
File size : 173 MiB
Duration : 3 min 58 s
Overall bit rate mode : Variable
Overall bit rate : 6 072 kb/s
Video
ID : 224 (0xE0)
Format : MPEG Video
Format version : Version 2
Format profile : Main@Main
Format settings : CustomMatrix / BVOP
Format settings, BVOP : Yes
Format settings, Matrix : Custom
Format settings, GOP : M=3, N=12
Format settings, picture structure : Frame
Duration : 3 min 58 s
Bit rate mode : Variable
Bit rate : 5 759 kb/s
Maximum bit rate : 7 000 kb/s
Width : 720 pixels
Height : 576 pixels
Display aspect ratio : 4:3
Frame rate : 25.000 FPS
Standard : PAL
Color space : YUV
Chroma subsampling : 4:2:0
Bit depth : 8 bits
Scan type : Interlaced
Scan order : Bottom Field First
Compression mode : Lossy
Bits/(Pixel*Frame) : 0.555
Time code of first frame : 00:00:00:00
Time code source : Group of pictures header
GOP, Open/Closed : Closed
Stream size : 164 MiB (95%)
Color primaries : BT.601 PAL
Transfer characteristics : BT.470 System B/G
Matrix coefficients : BT.601
Audio
ID : 189 (0xBD)-128 (0x80)
Format : AC-3
Format/Info : Audio Coding 3
Commercial name : Dolby Digital
Muxing mode : DVD-Video
Duration : 3 min 58 s
Bit rate mode : Constant
Bit rate : 192 kb/s
Channel(s) : 2 channels
Channel layout : L R
Sampling rate : 48.0 kHz
Frame rate : 31.250 FPS (1536 SPF)
Bit depth : 16 bits
Compression mode : Lossy
Stream size : 5.47 MiB (3%)
Service kind : Complete Main
Menu
General
Complete name : C:\La Quinta Estacion_Acustico\VIDEO_TS\VTS_08_0.BUP
Format : DVD Video
Format profile : Program
File size : 18.0 KiB
Duration : 26 s 0 ms
Overall bit rate mode : Variable
Overall bit rate : 5 671 b/s
FileExtension_Invalid : ifo
Video
ID : 224 (0xE0)
Format : MPEG Video
Format version : Version 2
Duration : 26 s 0 ms
Bit rate mode : Variable
Width : 720 pixels
Height : 576 pixels
Display aspect ratio : 4:3
Frame rate : 25.000 FPS
Standard : PAL
Compression mode : Lossy
Menu
Duration : 26 s 0 ms
00:00:00.000 : Chapter 1
General
Complete name : C:\La Quinta Estacion_Acustico\VIDEO_TS\VTS_08_0.IFO
Format : DVD Video
Format profile : Program
File size : 18.0 KiB
Duration : 26 s 0 ms
Overall bit rate mode : Variable
Overall bit rate : 5 671 b/s
Video
ID : 224 (0xE0)
Format : MPEG Video
Format version : Version 2
Duration : 26 s 0 ms
Bit rate mode : Variable
Width : 720 pixels
Height : 576 pixels
Display aspect ratio : 4:3
Frame rate : 25.000 FPS
Standard : PAL
Compression mode : Lossy
Menu
Duration : 26 s 0 ms
00:00:00.000 : Chapter 1
General
Complete name : C:\La Quinta Estacion_Acustico\VIDEO_TS\VTS_08_0.VOB
Format : MPEG-PS
File size : 154 KiB
Duration : 600 ms
Overall bit rate : 2 103 kb/s
Video
ID : 224 (0xE0)
Format : MPEG Video
Format version : Version 2
Format profile : Main@Main
Format settings : CustomMatrix / BVOP
Format settings, BVOP : Yes
Format settings, Matrix : Custom
Format settings, picture structure : Frame
Duration : 600 ms
Bit rate mode : Constant
Maximum bit rate : 2 000 kb/s
Width : 720 pixels
Height : 576 pixels
Display aspect ratio : 4:3
Frame rate : 25.000 FPS
Standard : PAL
Color space : YUV
Chroma subsampling : 4:2:0
Bit depth : 8 bits
Scan type : Interlaced
Scan order : Top Field First
Compression mode : Lossy
Time code of first frame : 00:00:00:00
Time code source : Group of pictures header
Text
ID : 189 (0xBD)-32 (0x20)
Format : RLE
Format/Info : Run-length encoding
Muxing mode : DVD-Video
Menu
General
Complete name : C:\La Quinta Estacion_Acustico\VIDEO_TS\VTS_08_1.VOB
Format : MPEG-PS
File size : 9.76 MiB
Duration : 26 s 0 ms
Overall bit rate mode : Variable
Overall bit rate : 3 148 kb/s
Video
ID : 224 (0xE0)
Format : MPEG Video
Format version : Version 2
Format profile : Main@Main
Format settings : CustomMatrix / BVOP
Format settings, BVOP : Yes
Format settings, Matrix : Custom
Format settings, GOP : M=3, N=12
Format settings, picture structure : Frame
Duration : 26 s 0 ms
Bit rate mode : Variable
Bit rate : 3 086 kb/s
Maximum bit rate : 6 700 kb/s
Width : 720 pixels
Height : 576 pixels
Display aspect ratio : 4:3
Frame rate : 25.000 FPS
Standard : PAL
Color space : YUV
Chroma subsampling : 4:2:0
Bit depth : 8 bits
Scan type : Interlaced
Scan order : Bottom Field First
Compression mode : Lossy
Bits/(Pixel*Frame) : 0.298
Time code of first frame : 00:00:00:00
Time code source : Group of pictures header
GOP, Open/Closed : Closed
Stream size : 9.56 MiB (98%)
Color primaries : BT.601 PAL
Transfer characteristics : BT.470 System B/G
Matrix coefficients : BT.601

Скриншоты меню



Скриншоты





[islamvillage.com]_t_5620742.torrent
Торрент: Зарегистрирован ·  [ 2019-01-06 19:01 ] ·  88e97ef81ff05c38f1def9271c0d19947c8249cc

18 KB

Статус: проверено
Скачан: 0 раз
Размер: 3.18 GB
Оценка: 
(Голосов: 0)
Сказали спасибо: 0  Спасибо
Похожие темы
[Профиль]    [ЛС]
Показать сообщения:    
Ответить на тему

Текущее время: Сегодня 16:39

Часовой пояс: GMT + 7



Вы не можете начинать темы
Вы не можете отвечать на сообщения
Вы не можете редактировать свои сообщения
Вы не можете удалять свои сообщения
Вы не можете голосовать в опросах
Вы не можете прикреплять файлы к сообщениям
Вы можете скачивать файлы


HD 720P 2018 6,7 Gangsta | Register / Sign In | Certified Organic Matcha Green Tea Powder Match Herb Herbs Herbal